#VERSION:0.83;
#TITLE:NEO GENERATOR SEVEN;
#SUBTITLE:;
#ARTIST:L.E.D.-G;
#TITLETRANSLIT:;
#SUBTITLETRANSLIT:;
#ARTISTTRANSLIT:;
#GENRE:;
#ORIGIN:;
#CREDIT:;
#BANNER:NEO GENERATOR SEVEN.png;
#BACKGROUND:NEO GENERATOR SEVEN-bg.png;
#PREVIEWVID:;
#JACKET:NEO GENERATOR SEVEN-jacket.png;
#CDIMAGE:;
#DISCIMAGE:;
#LYRICSPATH:;
#CDTITLE:cdtitle.png;
#MUSIC:NEO GENERATOR SEVEN.mp3;
#OFFSET:-1.088000;
#SAMPLESTART:86.803085;
#SAMPLELENGTH:10.549454;
#SELECTABLE:YES;
#BPMS:0.000=182.000,
64.000=91.000,
66.000=182.000,
163.000=91.000,
195.000=182.000,
211.000=91.000,
212.500=182.000;
#STOPS:66.000=0.989,
212.500=2.802,
276.750=0.330;
#DELAYS:;
#WARPS:;
#TIMESIGNATURES:0.000=4=4;
#TICKCOUNTS:0.000=4;
#COMBOS:0.000=1;
#SPEEDS:0.000=1.000=0.000=0;
#SCROLLS:0.000=1.000;
#FAKES:;
#LABELS:0.000=Song Start;
#BGCHANGES:;
#KEYSOUNDS:;
#ATTACKS:
;

//---------------dance-single - ----------------
#NOTEDATA:;
#CHARTNAME:;
#STEPSTYPE:dance-single;
#DESCRIPTION:;
#CHARTSTYLE:;
#DIFFICULTY:Hard;
#METER:10;
#RADARVALUES:0.684149,0.933863,0.431014,0.127708,0.478904,600.000000,546.000000,54.000000,16.000000,0.000000,0.000000,0.000000,0.000000,0.000000,0.684149,0.933863,0.431014,0.127708,0.478904,600.000000,546.000000,54.000000,16.000000,0.000000,0.000000,0.000000,0.000000,0.000000;
#CREDIT:;
#NOTES:
0000
0000
0000
0000
,
0000
0000
0000
0000
,
0000
0000
0000
0000
,
0000
0000
0000
0000
,
0000
0000
0000
0000
,
0000
0000
0000
0000
,
0000
0000
0000
0000
,
0000
0000
0000
0000
,
0001
0100
0010
1000
,
0100
1000
0010
0010
,
0100
0010
1000
0001
,
0010
0000
0000
0000
0001
0000
0000
0000
0200
0000
0000
0000
0000
0000
0310
1000
,
0001
0100
0001
1000
0010
1000
0100
1000
,
0001
0100
0001
1000
0010
0100
0001
0010
,
0001
0100
1000
0100
0001
0100
1000
0100
,
0010
0100
0010
0100
0010
0100
0010
0100
0010
0100
0010
0100
0010
1000
0001
0010
,
0200
0000
0000
0000
0300
0000
1000
0100
,
0010
0001
0010
0001
0010
0000
0001
0000
1000
0000
0000
0000
0010
0000
0100
0000
,
0001
1000
0100
0100
0010
0000
0100
1000
,
0010
1000
0010
1000
0010
0000
1000
0000
0001
0000
0000
0000
1000
0000
0001
0100
,
0001
0000
0100
0001
0100
0000
0010
0000
2000
0000
0000
0000
0000
0000
0000
0000
,
3001
0010
0100
1000
0001
0000
1000
0000
1001
0000
0001
0000
0000
0000
1000
0000
,
0010
0000
0100
0010
0010
1000
0001
0010
,
0100
0000
0010
0000
0001
0000
0010
0000
0100
0000
1000
0010
0200
0000
0000
0000
,
0000
0000
0000
0000
0010
0310
0110
0100
,
0001
1000
0100
1000
0010
0100
0001
0010
,
0100
0000
0010
0000
0001
0000
1000
0100
0000
0100
1000
0000
0100
0000
0010
0000
,
0001
1000
0001
1000
0010
0100
0001
1000
,
0010
0000
1000
0000
0001
0000
0010
0001
0000
0001
0010
0000
0100
0000
0010
0000
,
0001
1000
0010
0100
0010
1000
0001
0010
,
0100
0000
1000
0000
0010
0000
0100
0010
0000
0010
0100
0000
0010
0000
1000
0000
,
0100
1000
0010
0100
0001
0010
0100
1000
,
0010
0000
0100
0000
0001
0000
1000
0010
0100
0000
0010
1000
0001
0000
0000
0000
,
1001
0001
0100
0010
1000
0100
1000
0001
,
1000
0000
0100
0000
0010
0000
0001
1000
0000
1000
0010
0000
0100
0000
0001
0000
,
1000
0100
0010
0100
1000
0100
0010
0100
,
1000
0000
0001
0000
0010
0000
0100
1000
0000
1000
0001
0000
1000
0010
1000
0010
,
0100
0001
0010
0100
0010
0000
0100
0000
1000
0000
0010
0000
0000
0000
0100
0000
,
0001
0000
1000
0000
1100
0000
0000
1001
0000
0000
0001
0100
0010
0000
1000
0000
,
0001
0000
0100
0000
0010
0000
1000
0000
0001
0000
0010
0000
0100
0000
0010
0001
,
0100
0000
0010
1000
0001
0010
0100
0010
0001
1000
0010
1000
0001
0000
1000
0000
,
0100
0010
0001
0010
0100
0010
0001
0010
,
0100
1000
0001
0010
0100
0010
0001
0010
,
0100
1000
0001
0010
0100
0010
0001
1000
,
0100
0010
0100
1000
0001
0100
1001
0000
,
0000
0000
0011
1100
0000
1010
0000
0000
0000
0000
0000
0000
1001
0000
0000
0000
,
0000
0000
1100
0011
0000
0101
0000
0000
0000
0000
0000
0000
1001
0000
0000
0000
,
0000
0000
0110
1001
0000
0110
0000
0000
0000
0000
0000
0000
1100
0000
0000
0000
,
0000
0000
0011
1010
0000
0101
0000
0001
1000
0110
0000
0001
1000
0000
0100
0000
,
1000
0100
0010
0100
0010
0100
0010
0001
,
0010
0001
0010
0100
0010
0100
1000
1000
,
0100
0000
0100
0000
0010
0000
0010
0000
0001
0000
0001
0000
0010
0001
0100
0010
,
1000
0001
0010
0100
1000
0010
0100
0001
0010
0100
1000
0002
2000
0000
0000
0000
,
0000
0000
3003
0000
1001
0000
0000
0001
0000
0000
1000
0000
1010
0000
0000
0010
,
0000
0000
0100
0000
0101
0000
0000
0001
0000
0000
0010
0000
0110
0000
0000
0100
,
0000
0000
1000
0000
1010
0000
0000
0010
0000
0000
0100
0000
0101
0000
0000
0001
,
0000
0000
0010
0000
0110
0000
0000
0100
0000
0000
1000
0000
1001
0000
0000
0001
,
0000
0000
0100
0000
0010
1000
0010
0100
0001
0010
0100
1000
0001
0000
1001
0000
,
1000
0000
1001
0000
0000
0000
1010
0000
0101
0000
0011
0000
0110
0000
0000
0100
,
0000
0000
1000
0000
1001
0000
0000
0101
0000
0000
1000
0001
1000
0001
0000
1100
,
0000
0000
1000
0001
0020
0030
0000
0200
0300
0000
2000
3000
2020
3030
0000
0202
,
0303
0000
0022
0033
0010
0000
0100
1000
0000
1000
0010
0000
0100
0000
0100
0001
,
0000
0001
0010
0000
0100
0000
1000
0100
0000
0100
1000
0000
0100
0000
0010
0001
,
0000
0001
1000
0000
0010
0000
1000
0010
0000
0100
0001
0000
0010
0000
0100
1000
,
0000
1000
0100
0000
1000
0000
0010
1000
0000
1000
0001
0000
0001
0010
0000
1000
,
0100
0000
1001
0000
1000
0000
0000
0100
0000
0000
0001
0000
0100
0000
0000
0010
,
0000
0000
0001
0000
1000
0000
0000
0010
0000
0000
0100
0000
0001
0000
0000
0010
,
0000
0000
0001
0000
0011
0000
0000
1100
0000
0000
1010
0000
0101
0000
0000
0011
,
0000
0000
1001
0000
1000
0001
0010
0100
0010
0001
0100
0010
1000
0001
0010
0100
,
1000
0100
0010
0001
1000
0100
1000
0100
1000
0000
0010
0000
0100
0000
0000
0000
,
0001
0010
0001
1000
0100
0010
0001
0000
,
1000
0010
0100
0001
0010
0001
1000
0000
,
0001
0000
1000
0010
1000
0000
0010
0100
0010
0000
0100
0000
0001
0000
0000
0000
,
1000
0000
0001
0000
0010
0001
0010
0001
0010
0000
0100
0000
1000
0000
0000
0000
,
0001
0010
0001
1000
0010
1000
0001
0000
,
1000
0010
0100
0001
0010
0100
1000
0000
,
1010
0000
0000
0101
0000
0000
0011
0000
0000
1100
0000
0000
1001
0000
1000
0001
,
0020
0000
0000
0000
,
0030
0000
0000
0000
;

//---------------dance-single - ----------------
#NOTEDATA:;
#CHARTNAME:;
#STEPSTYPE:dance-single;
#DESCRIPTION:;
#CHARTSTYLE:;
#DIFFICULTY:Medium;
#METER:9;
#RADARVALUES:0.492587,0.684833,0.231470,0.063854,0.175598,432.000000,403.000000,29.000000,8.000000,0.000000,0.000000,0.000000,0.000000,0.000000,0.492587,0.684833,0.231470,0.063854,0.175598,432.000000,403.000000,29.000000,8.000000,0.000000,0.000000,0.000000,0.000000,0.000000;
#CREDIT:;
#NOTES:
0000
0000
0000
0000
,
0000
0000
0000
0000
,
0000
0000
0000
0000
,
0000
0000
0000
0000
,
0000
0000
0000
0000
,
0000
0000
0000
0000
,
0000
0000
0000
0000
,
0000
0000
0000
0000
,
1000
0001
0010
0001
,
0100
0100
0010
1000
,
0001
1000
0100
1000
,
0010
0000
0010
0000
0100
0000
0000
0001
,
1000
0000
0100
0000
0010
0001
0010
0000
,
0001
0000
0100
0000
0010
1000
0010
0000
,
0100
0001
0010
0000
0100
1000
0010
0000
,
0100
0010
1000
0001
0010
0001
1000
0010
,
0200
0000
0300
0000
0000
0000
0010
1000
,
0001
1000
0001
1000
0001
0000
0000
1000
,
0000
0000
0100
0010
0001
0000
0000
0010
,
0000
0001
0000
0100
0010
0000
1000
0100
,
0010
0001
1000
0001
1000
0000
0000
0000
,
0001
0001
0001
0100
1001
0000
1000
0010
,
0000
0100
0001
0010
0100
0000
0010
0100
,
1000
0100
0010
0001
1000
0000
1001
0000
,
0000
0000
0000
0000
0000
0000
1000
0001
,
0100
0000
0010
1000
0100
0000
0010
0001
,
0100
0000
0001
0000
0010
0000
0000
0100
0000
0000
1000
0000
0001
0000
1000
0000
,
0100
0000
1000
0001
0010
0000
0100
0010
,
0001
0000
1000
0000
0100
0000
0000
0010
0000
0000
0100
0000
1000
0000
0001
0000
,
0100
0000
0010
1000
0100
0000
0010
0001
,
0010
0000
0100
0000
1000
0000
0000
0100
0000
0000
1000
0000
0001
0000
0100
0000
,
0001
0000
0100
0010
0100
0000
0010
1000
,
0010
0100
0001
2000
3010
2000
3000
0000
,
0011
0010
0100
0000
0100
1000
0010
0000
,
0100
0000
0001
0000
0010
0000
0000
0100
0000
0000
0010
0000
0001
0000
1000
0000
,
0100
0000
1000
0010
0100
0000
0010
0100
,
0001
0000
0010
0000
0001
0000
0000
1000
0000
0000
0010
0000
0100
0000
0100
0000
,
0200
0000
0301
0010
0100
1000
0000
0001
,
1000
0000
0000
0000
0010
0000
0000
0100
0000
0000
0001
0000
0010
0000
0100
0000
,
1000
0000
0100
1000
0010
0000
0100
0010
,
1000
0001
0010
1000
0010
0100
1000
0001
,
1000
0100
1000
0010
1000
0001
0100
0001
,
0100
1000
0100
0001
0100
1000
0010
1000
,
0010
0100
0010
0001
0010
0100
0001
0100
,
0001
1000
0001
0010
0001
1000
1001
0000
,
0000
0000
0010
0100
0000
1001
0000
0000
0000
0000
0000
0000
0110
0000
0000
0000
,
0000
0000
0100
0010
0000
1001
0000
0000
0000
0000
0000
0000
0110
0000
0000
0000
,
0000
0000
0100
0010
0000
1001
0000
0000
0000
0000
0000
0000
0110
0000
0000
0000
,
0000
0000
0010
0100
0000
1001
0000
0001
1000
0010
0000
0100
0001
0000
0000
0000
,
0001
0100
0010
1000
,
1000
0000
0010
0000
0100
0000
0001
1000
,
0010
1000
0001
0010
0001
1000
0100
1000
,
0001
0100
0001
0010
0100
1000
0002
0000
,
0000
0000
0003
0000
1000
0000
0000
0010
0000
0000
0100
0000
0001
0000
0000
0010
,
0000
0000
0100
0000
1000
0000
0000
0100
0000
0000
1000
0000
0001
0000
0000
0100
,
0000
0000
0001
0000
0010
0000
0000
0100
0000
0000
0010
0000
0100
0000
0000
1000
,
0000
0000
0001
0000
1000
0000
0000
0010
0000
0000
0100
0000
0001
0000
0000
0010
,
0000
0100
1000
1000
0010
0100
0001
0001
,
0010
0000
0001
0000
0000
0000
0010
0000
0100
0000
0100
0000
1000
0000
0000
0100
,
0000
0000
0010
0000
0011
0000
0000
0010
0000
0000
0100
0000
1100
0000
0000
1000
,
0000
0000
0001
0000
1001
0000
0000
0101
0000
0000
1001
0000
1100
0000
0000
1010
,
0000
0000
0101
0000
0011
0000
0000
0010
0000
0000
0100
0000
1000
0000
0000
0010
,
0000
0000
0001
0000
0010
0000
0000
0100
0000
0000
0001
0000
1000
0000
0000
0100
,
0000
0000
0001
0000
0100
0000
0000
0010
0000
0000
0001
0000
1000
0000
0000
0010
,
0000
0000
1000
0000
0100
0000
0000
1000
0000
0000
0010
0000
0100
0000
0000
0001
,
0000
1000
0020
0000
0000
0000
0000
0000
,
0000
0000
0000
0000
,
0130
0000
0100
0000
0100
0000
0000
0001
0000
0000
0010
0000
0001
0000
0000
1000
,
0000
0000
0100
0000
0110
0000
0000
0011
0000
0000
0110
0000
1100
0000
0000
1010
,
0000
0101
1000
0001
1000
0001
0010
0000
,
0000
0100
0000
0000
0100
0010
0001
0000
,
1000
0010
1000
0001
1000
0100
0010
0000
,
0100
1000
0010
0100
0001
0010
0001
0000
,
1000
0010
0100
0100
0010
1000
0001
0000
,
0000
0010
0001
0010
1000
0010
0100
1000
,
0001
0100
0010
0100
0001
0100
0010
1000
,
0100
0000
0000
0011
0000
0000
0010
0000
0000
0110
0000
0000
0100
0000
1000
0000
,
2002
0000
0000
0000
,
3003
0000
0000
0000
;

//---------------dance-single - ----------------
#NOTEDATA:;
#CHARTNAME:;
#STEPSTYPE:dance-single;
#DESCRIPTION:;
#CHARTSTYLE:;
#DIFFICULTY:Easy;
#METER:7;
#RADARVALUES:0.417331,0.560318,0.191562,0.055872,0.099772,366.000000,342.000000,24.000000,7.000000,0.000000,0.000000,0.000000,0.000000,0.000000,0.417331,0.560318,0.191562,0.055872,0.099772,366.000000,342.000000,24.000000,7.000000,0.000000,0.000000,0.000000,0.000000,0.000000;
#CREDIT:;
#NOTES:
0000
0000
0000
0000
,
0000
0000
0000
0000
,
0000
0000
0000
0000
,
0000
0000
0000
0000
,
0000
0000
0000
0000
,
0000
0000
0000
0000
,
0000
0000
0000
0000
,
0000
0000
0000
0000
,
1000
0001
1000
0001
,
0010
0100
0010
0100
,
1000
0100
0010
0001
,
1000
0100
0010
0000
,
0110
0100
1000
0010
,
0110
0100
0001
0010
,
0110
1001
0110
1001
,
0101
1010
1100
0011
,
2002
0000
3003
0001
,
0100
0010
1000
0010
,
0100
0000
0001
0000
1000
0001
1000
0000
,
0001
0000
0100
0000
0001
0000
0010
0100
,
0010
0100
0010
0100
1000
0000
0000
0000
,
0001
0100
0001
0100
0010
1000
0000
0001
,
0100
0000
0010
0000
1000
0100
1000
0001
,
1000
0001
1000
0001
1000
0010
0200
0000
,
0000
0000
0000
0000
0310
0100
0010
1000
,
0001
0010
0001
1000
,
0100
0000
1000
0000
0010
0100
0010
0000
,
1000
0001
0010
0001
,
1000
0000
0100
0000
1001
0000
0001
0010
,
0001
1000
0010
0100
,
0001
0000
0010
0000
0100
1000
0100
0000
,
1000
0000
0010
0000
1000
0000
0001
0100
,
0001
0100
0010
1000
0001
0100
0000
0000
,
0001
1000
0001
0000
0100
0000
0010
0000
,
1000
0000
0100
0000
1000
0001
0010
0000
,
0100
1000
0010
0110
,
0100
0000
0001
0000
1000
0010
0100
0100
,
0100
0000
0010
1000
0001
0200
0000
0301
,
1000
0000
0001
0000
0100
0000
0000
0001
0000
0000
1000
0000
0100
0000
0000
0000
,
0010
0000
0001
0000
1000
0000
0001
0010
,
0100
1000
0100
0010
0001
1000
0010
0100
,
0001
1000
0010
0100
0001
1000
0001
0010
,
0100
1000
0001
0010
0100
1000
0100
0010
,
0001
1000
0001
0010
0100
0010
0001
0010
,
0100
1000
0001
0010
0100
0010
0001
0000
,
0000
0000
1000
0001
0000
0100
0000
0000
0000
0000
0000
0000
0001
0000
0000
0000
,
0000
0000
1000
0001
0000
0010
0000
0000
0000
0000
0000
0000
0001
0000
0000
0000
,
0000
0000
0001
1000
0000
0100
0000
0000
0000
0000
0000
0000
1000
0000
0000
0000
,
0000
0000
0001
1000
0000
0010
0000
1000
0001
1000
0000
0001
0100
0000
0000
0000
,
0100
0010
0010
1000
,
1000
0001
0001
1001
,
1001
0101
0101
0011
,
0110
1100
1010
2002
,
0000
3003
0001
0000
0010
0000
0001
0000
,
1000
0100
1000
0010
,
0100
0010
1000
0001
1000
0000
0100
0000
,
1000
0010
0100
0001
,
1000
0001
0010
0010
0100
1000
0001
0100
,
0001
0000
0100
0000
0000
0000
0010
0000
1000
0000
0010
0000
0100
0000
0000
0001
,
0000
0000
1000
0000
0001
0000
0000
0001
0000
0000
0001
0000
1000
0000
0000
1000
,
0000
0000
1000
0000
0010
0000
0000
0100
0000
0000
0001
0000
1000
0000
0000
0100
,
0000
0010
0001
0000
0100
0000
0001
0000
,
1000
0000
0000
0000
0100
0000
0000
0000
1000
0000
0000
0000
0010
0000
0000
0100
,
0000
0001
1000
0000
0001
0000
0010
0000
,
0001
0000
0000
0000
0101
0000
0000
0000
0001
0000
0000
0000
1000
0000
0000
0100
,
0000
0010
1001
0000
0000
0000
0000
0000
,
0000
0000
0000
0000
,
0001
0000
1000
0000
0001
0000
0000
0100
0000
0000
0010
0000
1000
0000
0000
0100
,
0000
0000
0010
0000
0001
0000
0000
0100
0000
0000
0010
0000
1000
0000
0000
0001
,
0000
0100
0000
0000
0010
0000
1000
0000
,
0001
0000
0010
0000
0100
0000
1000
0100
,
1000
0010
0100
0001
,
1000
0001
1000
0001
1000
0001
0100
0000
,
0010
1000
0001
0010
,
0001
0000
0100
0000
0001
0000
1000
0001
,
1000
0100
1000
0010
,
0100
0000
0000
0001
0000
0000
0100
0000
0000
0001
0000
0000
1000
0000
0001
0000
,
0020
0000
0000
0000
,
0030
0000
0000
0000
;

//---------------dance-single - ----------------
#NOTEDATA:;
#CHARTNAME:;
#STEPSTYPE:dance-single;
#DESCRIPTION:;
#CHARTSTYLE:;
#DIFFICULTY:Beginner;
#METER:3;
#RADARVALUES:0.175598,0.399486,0.167616,0.000000,0.000000,154.000000,133.000000,21.000000,0.000000,0.000000,0.000000,0.000000,0.000000,0.000000,0.175598,0.399486,0.167616,0.000000,0.000000,154.000000,133.000000,21.000000,0.000000,0.000000,0.000000,0.000000,0.000000,0.000000;
#CREDIT:;
#NOTES:
0000
0000
0000
0000
,
0000
0000
0000
0000
,
0000
0000
0000
0000
,
0000
0000
0000
0000
,
0000
0000
0000
0000
,
0000
0000
0000
0000
,
0000
0000
0000
0000
,
0000
0000
0000
0000
,
1000
0000
0000
0000
,
0100
0000
0000
0000
,
1000
0000
0000
0000
,
0001
0000
0000
0000
,
0100
0000
0000
0000
,
0010
0000
0000
0000
,
0100
0100
0100
0100
,
0010
0010
0010
0010
,
1001
0000
0000
0001
,
0000
0000
0000
1000
,
0000
0000
0000
0010
,
0000
0000
0000
1000
,
0000
1000
0000
0000
,
1001
0000
0000
0001
,
0000
0000
0001
0000
,
1000
0000
0001
0001
,
0000
0000
0000
0100
,
0000
0100
0000
0100
,
0000
0010
0010
1000
,
0000
1000
0000
1000
,
0000
1000
1001
0001
,
0000
0001
0000
1000
,
0000
0001
0000
0100
,
0000
0010
0000
0100
,
0000
0010
0000
0000
,
1001
0000
1000
0000
,
0001
0001
0000
1000
,
0000
0001
0000
0100
,
0000
0010
0000
0110
,
0000
0010
0000
0000
,
0100
0100
0000
0010
,
0000
1000
0000
0001
,
1000
0001
1000
1001
,
0000
0000
0000
0000
,
0000
0000
0000
0000
,
0000
0000
0000
0000
,
0000
0000
0000
0010
,
0000
0000
0000
0100
,
0000
0000
0000
0001
,
0000
0000
0000
1000
,
0000
0000
0000
0001
,
0000
1000
0000
0010
,
0000
0100
0000
0010
,
0010
0100
0100
0001
,
0001
1000
1000
1001
,
0000
0001
0000
0100
,
0000
0001
0000
1000
,
0000
0100
0000
1000
,
0000
0001
0000
1000
,
0000
0010
0010
0110
,
0000
0000
0100
1001
,
0000
0010
0000
0100
,
0000
1001
0000
0110
,
0000
0100
0000
0010
,
0000
0001
0000
1000
,
0001
1000
0000
0010
,
0000
0100
0000
0010
,
0000
1001
0000
0000
,
0000
0000
0000
0000
,
1000
1001
0000
0110
,
0000
1001
1001
1001
,
1001
0001
0001
1000
,
0000
0001
0000
0100
,
0000
0010
0000
0100
,
0000
0010
0000
1000
,
0000
0001
0001
0001
,
0000
1000
0000
0010
,
0100
0000
0010
0000
,
1001
0000
0110
0000
,
1001
0000
0000
0000
;

//---------------dance-single - ----------------
#NOTEDATA:;
#CHARTNAME:;
#STEPSTYPE:dance-single;
#DESCRIPTION:;
#CHARTSTYLE:;
#DIFFICULTY:Challenge;
#METER:12;
#RADARVALUES:0.900796,1.120636,0.774229,0.127708,0.870009,790.000000,693.000000,97.000000,16.000000,0.000000,0.000000,0.000000,0.000000,0.000000,0.900796,1.120636,0.774229,0.127708,0.870009,790.000000,693.000000,97.000000,16.000000,0.000000,0.000000,0.000000,0.000000,0.000000;
#CREDIT:;
#NOTES:
// measure 0
0000
0000
0000
0000
,  // measure 1
0000
0000
0000
0000
,  // measure 2
0000
0000
0000
0000
,  // measure 3
0000
0000
0000
0000
,  // measure 4
0000
0000
0000
0000
,  // measure 5
0000
0000
0000
0000
,  // measure 6
0000
0000
0000
0000
,  // measure 7
0000
0000
0000
0000
,  // measure 8
1000
0010
0100
0001
0000
0100
0010
1000
,  // measure 9
0000
0000
0001
0000
1000
0000
0100
0000
0001
0000
0000
0100
0000
0000
1000
0000
,  // measure 10
0001
0010
0001
0100
0000
0010
1000
0100
,  // measure 11
0000
0000
0010
0000
0001
0000
1000
0000
0020
0000
0000
0000
0000
0000
1030
0001
,  // measure 12
1000
0010
0100
0001
0010
0010
0100
0100
,  // measure 13
0010
0001
0100
0010
1000
1000
0100
0100
,  // measure 14
1000
0000
0010
1000
0010
0000
0100
0010
0100
0000
0001
0100
0001
0000
1000
0001
,  // measure 15
1000
0010
1000
0100
0010
0001
0100
0010
1000
0100
1000
0010
0100
0001
0010
0100
,  // measure 16
0020
0000
0000
0000
0030
0000
0001
1010
,  // measure 17
1000
0010
0100
0001
0010
0000
0110
0000
1100
0000
1000
0000
0001
0000
0010
0000
,  // measure 18
1000
0010
0001
0010
0110
1100
1001
0001
,  // measure 19
0100
0000
1000
0000
0100
0000
0001
0000
0010
0000
0100
0000
1000
0000
0001
0100
,  // measure 20
0010
0000
0010
0100
0001
0000
0001
0000
2000
0000
0000
0000
3000
0000
0000
0000
,  // measure 21
0001
0010
0100
1000
0001
0000
1010
0000
1100
0000
1001
0000
0000
0000
0100
0000
,  // measure 22
1001
0000
1000
0100
1000
0001
0011
0001
,  // measure 23
1001
0000
0000
1000
0000
0000
1010
0000
0000
0010
0000
0000
0110
0000
0000
0100
0001
0100
0010
0000
0000
0010
0000
0000
,  // measure 24
0010
0000
0010
0000
0010
0000
0100
0000
0110
0000
0110
0000
1001
0000
0001
1000
,  // measure 25
0010
0000
1000
0000
0100
0000
0010
0001
0100
0000
0010
0000
1000
0010
0100
0000
,  // measure 26
0010
0100
0001
1000
0100
0000
0010
0001
0000
0001
1000
0000
0001
0000
0100
0001
,  // measure 27
0100
0000
0001
0000
1000
0000
0100
0010
0001
0000
0010
0000
0001
0100
0010
0000
,  // measure 28
0010
0100
0001
1000
0100
0000
0010
0001
0200
0000
0000
0300
1010
0000
1100
0000
,  // measure 29
1001
0000
0001
0000
1000
0001
0010
0000
0100
1000
0010
0000
0100
0000
0010
1000
,  // measure 30
0100
0000
0010
0100
1000
0000
0001
0100
0000
0100
0010
0000
1000
0000
0001
0100
,  // measure 31
0001
0000
1000
0000
0100
0000
0010
0001
0010
0000
0001
0000
0100
0010
1000
0000
,  // measure 32
0100
0000
0000
0010
0000
0000
0001
0000
0000
1000
0000
0000
0001
0000
0000
0000
0000
0000
1000
0000
0010
0000
1000
0000
0010
0000
0000
0000
0000
0000
0100
0000
0001
0000
0100
0000
0002
0000
0000
0000
0000
0000
0000
0000
0003
0000
0000
0000
,  // measure 33
1100
0000
0110
0000
0011
0000
0001
0000
0010
0000
1000
0000
0010
0001
0100
0000
,  // measure 34
0010
1000
0100
1000
0001
0000
1000
0010
0000
0010
0100
0000
0001
0000
1000
0100
,  // measure 35
1000
0000
0010
0000
0100
0000
0001
0010
0001
0000
0010
0000
0100
1000
0010
0000
,  // measure 36
0100
0001
0100
0010
1000
0000
0001
1000
0000
1000
0010
0000
0100
0001
1000
0010
,  // measure 37
0100
0001
0100
0001
0100
0001
0100
0000
0000
0101
0000
0000
0001
0000
0000
1001
0000
0000
0000
0000
0000
1100
0000
0000
,  // measure 38
0110
0000
0000
0000
0000
0000
0011
0000
0000
0000
0000
0000
1001
0000
0000
0000
0000
0000
0000
0000
0000
1010
0000
0000
0000
0000
0000
0000
0000
0000
1000
0000
0100
0000
1000
0000
0100
0000
0000
0000
0000
0000
0010
0000
0000
0000
0000
0000
,  // measure 39
0001
0000
0010
0000
1000
0000
0010
0000
0001
0000
0100
0000
1000
0000
0100
0020
,  // measure 40
0001
0030
0010
1000
0100
0010
0001
1000
0001
0100
0010
1000
0001
0000
0010
0000
,  // measure 41
0001
0100
1000
0100
0001
0010
0001
0010
,  // measure 42
1000
0100
0001
0010
1000
0100
0010
0100
,  // measure 43
1000
0010
0100
0001
1000
0100
1000
0010
,  // measure 44
0001
0000
0000
0000
0100
0000
0000
0000
1000
0000
0000
0000
0010
0000
0000
0000
0001
0000
0000
0000
0100
0000
0000
0000
1001
0000
0000
0001
0000
0000
0100
0000
,  // measure 45
0010
0000
0000
1000
0100
0000
0110
0000
0000
0000
1001
0000
0001
0000
0010
0000
0100
0000
0000
0010
0000
0000
0001
0000
0101
0000
0000
0100
0000
0000
0010
0000
,  // measure 46
1010
0000
0000
1000
0001
0000
1001
0000
0000
0000
1010
0000
1000
0000
0100
0000
0010
0000
0000
0100
0000
0000
1000
0000
1001
0000
0000
0001
0000
0000
0100
0000
,  // measure 47
0010
0000
0000
0010
0100
0000
1010
0000
0000
0000
1100
0000
0100
0000
0010
0000
0001
0000
0000
0010
0000
0000
0001
0000
0101
0000
0000
0100
0000
0000
0010
0000
,  // measure 48
1010
0000
0000
1000
0000
0000
0100
0000
0000
0000
0110
0000
0000
0000
1100
0000
0011
0000
0101
0000
0000
0000
1010
0000
1001
0000
0000
0000
0001
0000
1000
0000
,  // measure 49
0010
0000
0010
0100
0001
0000
0001
0010
0100
0000
0100
1000
0010
0000
0010
0100
,  // measure 50
0001
0000
0001
1000
0100
0000
0100
1000
0001
0000
1001
0000
1000
0010
0100
0001
,  // measure 51
1000
0100
1000
0010
0100
0001
0010
0100
1000
0010
0100
0001
1000
0100
1000
0010
,  // measure 52
0100
0001
0010
0100
0010
0001
0100
0010
1000
0100
0010
0002
2000
0000
0000
0000
,  // measure 53
0000
0000
0000
3003
1001
0000
1000
0010
0000
0010
0100
0000
0110
0000
0100
0001
,  // measure 54
0000
0001
0010
0000
0110
0000
0100
1000
0000
1000
0001
0000
1001
0000
1000
0010
,  // measure 55
0000
0100
0001
0000
0011
0000
0001
0100
0000
0100
0010
0000
0110
0000
0010
1000
,  // measure 56
0000
1000
0100
0000
1100
0000
0100
0010
0000
0010
0001
0000
0011
0000
0001
1000
,  // measure 57
0000
0000
0000
0010
0000
0000
1000
0000
0000
0000
0000
0000
0010
0000
0000
0100
0000
0000
0001
0000
1000
0000
0001
0000
1000
0000
0000
0010
0000
0000
1000
0000
0000
0100
0000
0000
1000
0000
0000
0000
0000
0000
1001
0000
0000
0000
0000
0000
,  // measure 58
1001
0000
1001
0000
0000
0000
0110
0000
1001
0000
1001
0000
1010
0000
0000
0101
,  // measure 59
0000
0000
0011
0000
1100
0000
0000
0011
0000
0000
0001
0100
0010
1000
0000
0011
,  // measure 60
0000
0000
0000
0000
0000
0000
0000
0000
0000
0000
0000
0000
0000
0000
0000
0000
0000
0000
0000
0000
0000
0000
0000
0000
0001
0000
0000
0000
0000
0000
0000
0000
1000
0000
0000
0000
0000
0000
0000
0000
0001
0000
0000
0000
0000
0000
0000
0000
1000
0000
0000
0000
0000
0000
0000
0000
0000
0000
0000
0000
0000
0000
0000
0000
0000
0000
0000
0000
0000
0000
0000
0000
0010
0000
0000
0000
0000
0000
2000
0000
0000
0000
0000
0000
0000
0000
0000
0000
0000
0000
3000
0000
0000
0000
0000
0000
0000
0000
0000
0000
0000
0000
0000
0000
0000
0000
0000
0000
0100
0000
0000
0000
0000
0000
0000
0000
0000
0000
0000
0000
1000
0000
0000
0000
0000
0000
0000
0000
0000
0000
0000
0000
0001
0000
0000
0000
0000
0000
0000
0000
0000
0000
0000
0000
1000
0000
0000
0000
0000
0000
0002
0000
0000
0000
0000
0000
0000
0000
0000
0000
0000
0000
0000
0000
0000
0000
0000
0000
0003
0000
0000
0000
0000
0000
0000
0000
0000
0000
0000
0000
0100
0000
0000
0000
0000
0000
0020
0000
0000
0000
0000
0000
,  // measure 61
0000
0000
0030
0000
0001
2000
0000
3000
1001
0000
0000
0000
0001
0000
0100
0000
0000
0000
0100
0000
0010
0000
0000
0000
0110
0000
0000
0000
0010
0000
1000
0000
,  // measure 62
0000
1000
0100
0000
0110
0000
0100
0010
0000
0010
0001
0000
0011
0000
0000
1100
,  // measure 63
0000
0000
1010
0000
1001
0000
0001
1000
0000
1000
0100
0000
0110
0000
0100
1000
,  // measure 64
0000
1000
0010
0000
1010
0000
0010
0100
0000
0100
0001
0000
1000
1000
0000
0010
,  // measure 65
0010
0000
0100
0000
1001
0000
0001
1000
0001
1000
0001
1000
0001
1000
0001
1000
,  // measure 66
0001
1000
0001
1000
0001
1000
0001
1000
0001
1000
0001
1000
0001
1000
0001
1000
,  // measure 67
1001
0000
0100
0000
1001
0000
0000
0101
0000
0000
1010
0000
1100
0000
0000
0110
,  // measure 68
0000
0000
0011
0000
0001
0100
0010
1000
0100
0010
0001
0010
0001
0100
1000
0100
,  // measure 69
0001
1000
0010
0200
0301
1000
0001
1000
0001
0000
1000
0000
1100
0000
1001
0000
,  // measure 70
1000
0100
0001
0100
1000
0100
0110
0011
,  // measure 71
1001
1000
0010
0001
0010
1000
0100
0010
,  // measure 72
0001
0000
1000
0010
0100
0000
0100
0010
1000
0000
1000
0000
0002
0000
0000
0000
,  // measure 73
1003
0000
0010
0000
1000
0100
0010
0001
1000
0000
1001
0000
0011
0000
0001
0000
,  // measure 74
0010
0100
0010
0001
1000
0100
0010
0001
,  // measure 75
1001
0000
0000
1000
0000
0000
1001
0000
0000
0001
0000
0000
0101
0000
0000
0100
0000
0000
0110
0000
0000
0010
1000
0010
,  // measure 76
0100
0000
0001
0100
0000
0010
1000
0000
1000
0100
0000
0100
0010
0000
0010
0002
,  // measure 77
2000
0000
0000
0000
,  // measure 78
3003
0000
0000
0000
;
