#TITLE:My Lovely Darkness;
#SUBTITLE:;
#ARTIST:KillerBlood;
#TITLETRANSLIT:;
#SUBTITLETRANSLIT:;
#ARTISTTRANSLIT:;
#GENRE:;
#CREDIT:;
#BANNER:My Lovely Darkness.png;
#BACKGROUND:My Lovely Darkness-bg.png;
#LYRICSPATH:;
#CDTITLE:;
#MUSIC:My Lovely Darkness.ogg;
#OFFSET:-7.747001;
#SAMPLESTART:46.419998;
#SAMPLELENGTH:12.000000;
#SELECTABLE:YES;
#BPMS:0.000000=124.029991
;
#STOPS:
;
#BGCHANGES:;
#KEYSOUNDS:;
#ATTACKS:;

//---------------dance-single - ----------------
#NOTES:
     dance-single:
     :
     Hard:
     8:
     0.557823,0.731429,0.000000,0.200000,0.928571,389.000000,0.000000,21.000000,0.000000,0.000000,0.000000,0.557823,0.731429,0.000000,0.200000,0.928571,389.000000,0.000000,21.000000,0.000000,0.000000,0.000000:
0000
0001
0000
0001
,
0000
0000
0000
1000
0000
0000
0000
0000
0000
1000
0000
1000
,
0000
0001
0000
0001
,
0000
0000
0000
1000
0000
0000
0000
0000
0000
1000
0000
1000
,
0000
0000
0001
0100
0000
0001
1000
0000
0001
0000
0000
0010
,
0000
0000
0100
0010
0000
0010
0001
0000
0001
1000
0000
0100
,
1000
0000
1000
0001
0000
0200
0000
0000
0000
0000
0000
0000
,
0300
0000
0000
0010
0000
0000
0000
0000
0000
0010
0000
0010
,
0000
0000
0100
0001
0000
0001
1000
0000
0100
0000
0000
1000
,
0000
0000
1000
0001
0000
0001
0100
0000
0100
0010
0000
0010
,
1000
0000
0001
0010
0000
0200
0000
0000
0000
0300
0000
2000
,
0000
0000
0000
0000
0000
0002
0000
0000
0000
3003
0000
0000
,
0001
0000
1000
0000
0100
0000
1000
0000
0001
0000
0100
0000
,
0000
0100
0001
1000
0100
0010
0100
0000
1000
0001
0000
0200
,
0000
0010
0000
0310
,
0100
0000
0000
0010
0000
0000
0000
0000
0000
0010
0000
0010
,
1000
0000
0010
0000
1000
0000
0001
0000
0010
0000
0001
0000
,
0000
1000
0001
0100
0001
0010
0001
0000
1000
0010
0000
0200
,
0000
0000
0000
0000
0000
0000
0000
0000
0000
0000
0000
0300
,
0001
0010
0100
1000
0001
0010
0100
1000
0001
0010
0100
1000
,
0001
0000
1000
0001
0000
0001
0010
0000
0010
0001
0000
0001
,
1000
0000
1000
0010
0000
0010
0100
0000
0000
0001
0000
0000
,
1000
0000
0001
0010
0000
0001
1000
0100
1000
0001
0000
1000
,
0000
0001
0100
0010
1000
0100
0010
0001
0100
1000
0100
0010
,
1000
0000
0001
0001
0000
0100
0100
0000
0010
0010
0000
1000
,
1000
0000
0010
0010
0000
0100
0100
0000
0000
0001
0000
0000
,
1000
0001
0100
0001
0010
0100
0010
0001
1000
0010
0100
0001
,
0010
0100
0010
0001
0100
0010
1000
0001
1000
0001
1000
0001
,
1000
0000
0001
0100
0000
1000
0100
0000
0001
0100
0000
1000
,
0100
0010
0001
0100
0000
0010
1000
0000
0000
0100
0000
0000
,
0010
0000
0010
0000
0001
0000
0010
0000
0010
0000
0100
0010
,
0000
0010
0100
1000
0001
0100
0010
0010
0010
1000
0100
0010
,
0001
0000
0010
0100
0000
0100
1000
0000
1000
0010
0000
0010
,
0100
0001
0010
0100
0000
0100
1000
0000
0000
0001
0000
2000
,
0000
0000
0000
3010
0000
0200
0000
0000
0000
0310
0000
2000
,
0000
0000
3001
0010
0000
0010
0100
0000
0100
1000
0000
1000
,
0002
0000
0000
0000
0000
0000
0003
0000
0000
1000
0010
1000
,
0100
0000
0000
0010
0100
0010
0001
0000
0000
1000
0010
0100
,
0010
0000
0010
0100
0000
0100
0010
0000
0100
0001
0000
0100
,
0010
0000
0100
0000
0000
0100
0000
0000
0010
1000
0100
0010
,
0001
1000
0100
1000
0001
0010
0100
0000
1000
0000
0000
1000
,
0001
0000
0001
0100
0001
0010
0100
0000
1000
0001
0000
0001
,
0010
0000
0100
1000
0000
0000
0010
0000
0100
1000
0000
0000
,
0010
0000
0100
1000
0000
1000
0001
0000
0001
0100
0000
0000
,
0001
0000
0001
1000
0000
0000
0001
0000
0001
1000
0000
0000
,
0001
0000
0001
1000
0000
1000
0001
0000
0001
1000
0000
0000
,
0010
0000
0100
0010
0000
0000
0010
0000
0100
0010
0000
0000
,
0100
0000
0010
0100
0000
0100
0001
0000
0001
0010
0000
0000
,
0100
0000
0010
0001
0000
0000
0100
0000
0010
1000
0000
0000
,
0100
0000
0010
0001
0000
0001
0100
0000
0100
0010
0000
0000
,
0100
0000
0001
1000
0000
0000
0100
0000
1000
0001
0000
0000
,
1000
0000
0001
0100
0000
0100
0010
0000
0010
1000
0000
0000
,
0001
0010
0001
1000
,
0001
0001
0001
0001
,
1000
0010
1000
0100
,
1000
1000
1000
1000
,
0002
0000
0203
0000
,
0320
0000
0000
0000
0000
0000
2030
0000
0000
0000
0000
3002
,
0000
0000
0000
0000
0000
0000
0203
0000
0000
0000
0310
1000
,
0001
0000
0000
1000
0000
0001
0100
0010
1000
0100
0000
0000
,
0020
0000
0230
0000
,
2300
0000
0000
0000
0000
0000
3020
0000
0000
0000
0000
0230
,
0001
0000
0001
0000
0301
0000
1000
0000
1000
0000
0001
1000
,
0010
0000
0000
0100
0000
0010
1000
0000
0100
0000
0010
0000
,
1000
0000
0000
0000
;

//---------------dance-single - ----------------
#NOTES:
     dance-single:
     :
     Medium:
     6:
     0.401361,0.426667,0.476190,0.190476,0.247619,225.000000,50.000000,20.000000,0.000000,0.000000,0.000000,0.401361,0.426667,0.476190,0.190476,0.247619,225.000000,50.000000,20.000000,0.000000,0.000000,0.000000:
0000
0010
0000
0010
,
0000
0000
0000
0010
0000
0000
0000
0000
0000
0010
0000
0010
,
0000
0100
0000
0100
,
0000
0000
0000
0100
0000
0000
0000
0000
0000
0100
0000
0100
,
0000
0000
0000
0010
0000
0000
1000
0000
0001
0000
0000
0100
,
0000
0010
0100
0001
,
1000
0000
0000
0100
0000
2000
0000
0000
0000
0000
0000
0000
,
3000
0000
0000
0000
,
0000
0000
0000
0001
0000
0000
0010
0000
0100
0000
0000
0010
,
0000
0100
1000
0010
,
0100
0000
0000
0001
0000
1000
0000
0000
0000
0000
0000
0020
,
0000
0000
0000
0000
0000
0200
0000
0000
0000
0330
0000
0000
,
0010
0000
1000
0000
0010
0000
0100
0000
0001
0000
1000
0000
,
0000
0000
0000
0001
0000
0000
0010
0000
0100
1000
0000
0020
,
0000
0000
0000
0000
0000
0000
0000
0000
0000
0000
0000
0130
,
0000
0000
0000
0000
,
0010
0000
0010
0000
0100
0000
0010
0000
1000
0000
0001
0000
,
0000
0000
0000
1000
0000
0000
0100
0000
1000
0010
0000
0200
,
0000
0000
0000
0000
,
0302
0023
0230
2300
,
3001
1010
0001
1010
,
0001
1010
0001
1010
,
1000
0000
0000
0001
0000
0000
0100
0000
0000
0001
0000
1000
,
0000
0100
1000
0010
,
0100
1010
0100
1010
,
0100
1010
0100
1010
,
0010
0100
0001
1000
,
0100
0000
0000
0010
0000
0000
0001
0100
0001
0100
0001
0100
,
0001
1010
0001
1010
,
0001
1010
0001
1010
,
0001
0010
0100
0010
,
0001
0000
0000
1000
0000
0000
0010
0100
0010
1000
0010
1000
,
0010
1001
0010
1001
,
0010
0000
0000
1001
0000
0000
0010
0000
0000
1001
0000
0001
,
0000
0000
0000
1000
0000
1000
0000
0000
0000
0010
0000
0100
,
0000
0000
0010
1000
0000
0001
0100
0000
0010
1000
0000
0001
,
0200
0000
0000
0000
0000
0000
0300
0000
0000
0010
0000
1000
,
0001
0000
0000
0100
0000
0010
1000
0000
0000
0010
0000
0000
,
0100
0000
0001
0100
0000
0100
0010
0000
0010
1000
0000
1000
,
0001
0000
1000
0000
0000
0001
0000
0000
0000
1000
0000
0000
,
0100
0000
0000
1000
0000
0000
0010
0000
0010
0000
0000
0000
,
0100
0001
1000
0100
,
1000
1010
0010
0110
,
0110
1001
0110
1001
,
0001
1010
0001
1100
,
0001
1010
1100
1010
,
1000
0011
1000
0101
,
1000
0011
0101
1001
,
0001
1010
0001
1010
,
0001
1010
1100
1010
,
1000
0011
1000
0101
,
1000
0011
0101
0011
,
0000
1001
0000
0110
,
0000
0101
0000
1010
,
0000
1100
0000
0011
,
0000
0110
0000
1001
,
0002
0000
2003
0000
,
3020
0000
0000
0000
0000
0000
2030
0000
0000
0000
0000
0020
,
0000
0000
0000
0000
,
3030
0000
0000
0000
,
2000
0000
0000
0000
0000
0000
0020
3000
0000
0000
0000
0000
,
0230
0000
0000
0000
0000
0000
0302
0000
0000
0000
0000
0020
,
0000
0000
0000
0000
,
0033
0000
0000
0000
0000
0000
0001
0000
0010
0000
0100
0000
,
0001
0000
0000
0000
;

//---------------dance-single - ----------------
#NOTES:
     dance-single:
     :
     Easy:
     3:
     0.247619,0.244048,0.000000,0.066667,0.000000,175.000000,0.000000,7.000000,0.000000,0.000000,0.000000,0.247619,0.244048,0.000000,0.066667,0.000000,175.000000,0.000000,7.000000,0.000000,0.000000,0.000000:
0000
1000
0000
1000
,
0000
1000
0000
0010
,
0000
1000
0000
1000
,
0000
1000
0000
0100
,
0000
1000
0010
0000
,
0100
0001
1000
0100
,
1000
0010
0000
0000
,
0000
0000
0000
0000
,
0000
0100
0001
0000
,
1000
0000
0001
0010
,
0001
1000
0000
0000
,
0100
0000
0010
0000
,
0001
1000
0100
1000
,
0000
0100
1000
0010
,
0100
0000
0000
0000
,
0001
0000
0000
0000
,
0010
0000
0001
0000
,
0000
1000
0001
0100
,
0020
0000
0000
0000
,
0200
0000
0000
0330
,
0010
1000
0010
1000
,
0010
1000
0010
0010
,
0100
0001
0000
1000
,
0000
0100
1000
0010
,
0100
0001
0100
0001
,
0100
0001
0100
0100
,
0010
1000
0100
1000
,
0001
0100
0010
0010
,
1000
0001
1000
0001
,
1000
1000
0001
0001
,
0100
0000
0001
0000
,
0010
0100
1000
1000
,
0010
1000
0010
0001
,
0010
1000
0010
0100
,
0001
0000
1000
0000
,
0100
1000
0010
0100
,
0020
0000
0030
0100
,
0002
0000
0003
1000
,
0010
1000
0100
1000
,
0001
0001
0001
0000
,
1000
0001
0100
0000
,
0001
1000
0001
0100
,
0010
0000
0010
0000
,
0010
0100
0010
0100
,
0001
1000
0001
1000
,
0001
1000
0001
1000
,
0100
0010
0100
0010
,
0100
0100
0010
0001
,
1000
0010
1000
0010
,
1000
1000
1000
0100
,
1000
0001
0100
0001
,
0100
0010
1000
0100
,
0000
1000
0000
0010
,
0000
0100
0000
0001
,
0000
0010
0000
0100
,
0000
1000
0000
0001
,
0200
0000
0000
0000
,
0000
0000
0000
0000
,
0310
0000
1000
0000
,
0001
1000
0100
1000
,
0020
0000
0000
0000
,
0000
0000
0000
0000
,
0130
0000
0001
0000
,
1000
0000
0000
0000
,
0020
0030
0000
0000
0000
0000
0000
0000
0000
0000
0000
0000
0000
0000
0000
0000
;

//---------------dance-single - ----------------
#NOTES:
     dance-single:
     :
     Beginner:
     1:
     0.125170,0.182857,0.000000,0.028571,0.000000,89.000000,0.000000,3.000000,0.000000,0.000000,0.000000,0.125170,0.182857,0.000000,0.028571,0.000000,89.000000,0.000000,3.000000,0.000000,0.000000,0.000000:
// measure 0
0000
0000
0000
0000
,  // measure 1
0000
0000
0000
0000
,  // measure 2
0000
0000
0000
0000
,  // measure 3
0000
0000
0000
0000
,  // measure 4
0000
1000
1000
0000
,  // measure 5
0001
0000
1000
0000
,  // measure 6
0010
0000
0000
0000
,  // measure 7
0000
0000
0000
0000
,  // measure 8
0000
0001
0001
0000
,  // measure 9
1000
0000
0010
0000
,  // measure 10
1000
0000
0000
0000
,  // measure 11
0100
0000
1000
0000
,  // measure 12
0001
0000
0000
0000
,  // measure 13
0100
0000
0001
0000
,  // measure 14
1000
0000
0000
0000
,  // measure 15
0000
0000
0000
0000
,  // measure 16
0100
0000
1000
0000
,  // measure 17
0010
0000
0000
0000
,  // measure 18
0100
0000
0000
0000
,  // measure 19
0002
0000
0000
0003
,  // measure 20
1000
0000
1000
0000
,  // measure 21
1000
0000
1000
0000
,  // measure 22
0001
0000
0000
0000
,  // measure 23
0100
0000
0010
0000
,  // measure 24
0100
0000
0100
0000
,  // measure 25
0010
0000
0100
0000
,  // measure 26
0001
0000
0000
0000
,  // measure 27
1000
0000
0001
0001
,  // measure 28
1000
0000
1000
0000
,  // measure 29
1000
0000
1000
0000
,  // measure 30
0010
0000
0000
0000
,  // measure 31
0100
0000
0100
0100
,  // measure 32
0010
0000
0010
0000
,  // measure 33
0100
0000
0010
0000
,  // measure 34
1000
0000
0001
0000
,  // measure 35
0010
0010
0001
0001
,  // measure 36
1000
0000
0000
0000
,  // measure 37
0001
0000
0000
0000
,  // measure 38
1000
0000
0001
0000
,  // measure 39
0010
0000
0000
0000
,  // measure 40
0001
0000
0000
0000
,  // measure 41
1000
0000
0000
0000
,  // measure 42
0100
0000
0100
0000
,  // measure 43
0100
0000
0000
0000
,  // measure 44
0010
0000
0010
0000
,  // measure 45
0010
0000
0000
0000
,  // measure 46
1000
0000
1000
0000
,  // measure 47
0001
0000
1000
0000
,  // measure 48
0100
0000
0100
0000
,  // measure 49
0100
0000
0000
0000
,  // measure 50
0010
0000
0010
0000
,  // measure 51
0001
0000
0010
0000
,  // measure 52
0000
0001
0000
0001
,  // measure 53
0000
0001
0000
0001
,  // measure 54
0000
1000
0000
1000
,  // measure 55
0000
1000
0000
1000
,  // measure 56
0020
0000
0000
0000
,  // measure 57
0000
0000
0000
0000
,  // measure 58
0030
0000
0000
0000
,  // measure 59
0000
0000
0000
0000
,  // measure 60
0200
0000
0000
0000
,  // measure 61
0000
0000
0000
0000
,  // measure 62
0300
0000
0000
0000
,  // measure 63
0000
0000
0000
0000
,  // measure 64
0001
0000
0000
0000
;
