#VERSION:0.83;
#TITLE:Move That Body;
#SUBTITLE:;
#ARTIST:Expander;
#TITLETRANSLIT:;
#SUBTITLETRANSLIT:;
#ARTISTTRANSLIT:;
#GENRE:;
#ORIGIN:;
#CREDIT:;
#BANNER:Move_That_Body.png;
#BACKGROUND:Move_That_Body-background.png;
#PREVIEWVID:;
#JACKET:Move_That_Body-jacket.png;
#CDIMAGE:;
#DISCIMAGE:;
#LYRICSPATH:;
#CDTITLE:;
#MUSIC:Move That Body.mp3;
#OFFSET:-0.896000;
#SAMPLESTART:93.917236;
#SAMPLELENGTH:9.642853;
#SELECTABLE:YES;
#BPMS:0.000=98.000,
64.000=196.000,
192.000=98.000,
200.000=196.000,
264.000=98.000,
272.000=196.000;
#STOPS:264.000=0.612;
#DELAYS:;
#WARPS:;
#TIMESIGNATURES:0.000=4=4;
#TICKCOUNTS:0.000=4;
#COMBOS:0.000=1;
#SPEEDS:0.000=1.000=0.000=0;
#SCROLLS:0.000=1.000;
#FAKES:;
#LABELS:0.000=Song Start;
#BGCHANGES:;
#KEYSOUNDS:;
#ATTACKS:
;

//---------------dance-single - ----------------
#NOTEDATA:;
#CHARTNAME:;
#STEPSTYPE:dance-single;
#DESCRIPTION:;
#CHARTSTYLE:;
#DIFFICULTY:Hard;
#METER:9;
#RADARVALUES:0.661049,0.840692,0.264924,0.662310,0.419463,524.000000,494.000000,30.000000,75.000000,0.000000,0.000000,0.000000,0.000000,0.000000,0.661049,0.840692,0.264924,0.662310,0.419463,524.000000,494.000000,30.000000,75.000000,0.000000,0.000000,0.000000,0.000000,0.000000;
#CREDIT:;
#NOTES:
0000
0000
0000
0000
,
0000
0000
0000
0000
,
0001
0000
0010
0100
0010
0010
0001
1000
0001
0100
1000
0000
1000
0100
0001
0000
,
2000
0000
3010
0000
0100
0001
0010
0000
1200
0000
0320
0000
0032
0000
0000
0000
,
1003
0000
0000
0000
0001
0000
0001
0000
0100
0001
0100
0000
0001
0000
0000
0000
0100
0000
0010
0000
1000
0000
0001
0000
0000
0000
1000
0000
0200
0000
0000
0000
,
0000
0000
0300
0000
2000
0000
0000
0000
3010
0100
0010
1000
0000
0100
0000
0010
,
0001
0000
0000
0000
1000
0000
1000
0000
0010
1000
0010
0000
0100
0000
0000
0000
0010
0000
0100
0000
0001
0000
1000
0000
0000
0000
0100
0000
2000
0000
0000
0000
,
0000
0000
0000
3100
0010
0001
0100
0000
0010
0100
0001
0010
0000
0001
0000
1000
,
0100
0000
0000
0000
1000
0000
1000
0000
0010
1000
0010
0000
0100
0000
0000
0000
0010
0000
0100
0000
0001
0000
0010
0000
0000
0000
0100
0000
0020
0000
0000
0000
,
0000
0000
0030
0000
0200
0000
0000
0000
1300
0100
0001
0100
0000
1000
0000
0010
,
0100
0000
0000
0000
0010
0000
0010
0000
0100
0001
0100
0000
0010
0000
0000
0000
0100
0000
0010
0000
1000
0000
0001
0000
0000
0000
1000
0000
0200
0000
0000
0000
,
0000
0000
0000
0310
0100
1000
0001
0000
1000
0010
0001
0010
0000
0100
0000
0010
,
2010
0000
0000
0001
0000
0000
3100
0000
1002
0000
0000
0100
0000
0000
0013
0000
,
0001
0000
0010
0010
0200
0000
2300
0000
3001
0010
1000
0010
0001
0010
0100
1000
,
2001
0000
0000
0010
0000
3001
1001
0000
1002
0000
0000
0100
0000
1003
1001
0000
,
0001
1000
0001
1000
0200
0000
0310
0000
1001
0000
0110
0000
1002
0000
2003
0000
,
3010
0100
0001
0020
0000
0130
0110
0000
,
0100
1000
0010
0200
0000
0310
0110
0000
,
0010
0010
1000
0100
2000
3010
2000
3001
,
0020
0000
0000
0130
0000
0000
0020
0000
0000
0031
0000
0000
1000
0000
0010
0000
1000
0000
0001
0000
0100
0000
0001
0000
,
1000
0001
0010
0200
0000
0310
0110
0000
,
0010
0001
0100
0020
0000
0130
0110
0000
,
0010
0100
0010
0100
0002
0000
1003
0000
,
1010
0101
0011
0010
,
0001
0000
0000
0000
0100
0000
0000
0000
0010
0000
0100
0010
0100
0000
0010
0000
,
0000
0100
0001
1000
0100
1000
0010
0000
,
0000
0000
0010
0000
0100
0010
0100
0000
0010
0000
1000
0000
0100
0000
0010
0000
,
0000
0100
1000
0001
0100
0001
0010
0000
,
0100
0000
0000
0000
1000
0000
0000
0000
0010
0000
0100
0010
0100
0000
0001
0000
,
0000
0010
0100
1000
0001
0100
0010
1000
,
0000
0000
0100
0000
0010
0100
0010
0000
0100
0000
0010
0000
0001
0000
1000
0000
,
0100
0001
0100
0010
0001
1000
0001
0000
,
1000
0000
0000
0000
0100
0000
0000
0000
1000
0000
0001
0100
0001
0000
1000
0000
,
0000
0010
0100
0001
0010
1000
0010
0000
,
0000
0000
0100
0000
0010
0001
0010
0000
0001
0000
0100
0000
0001
0000
1000
0000
,
0000
0100
1000
0010
1000
0001
0100
0000
,
0010
0000
1000
0000
0100
1000
0000
0001
,
0000
1000
0010
1000
0100
0010
0001
0010
,
0000
0000
0001
0000
0100
0000
0010
0000
1000
0100
1000
0000
0100
0000
0010
0000
,
0000
0010
0100
1000
0001
0010
0100
1000
,
0001
0000
0001
0000
0001
0000
1000
0000
1000
0001
0000
0001
,
1000
0100
1000
0001
0200
0000
0320
0000
,
2030
3000
2000
3000
0020
0030
0020
0030
,
0110
0000
2000
0000
3002
0003
0200
0300
,
0010
0000
0100
0000
0001
0000
1000
0000
0100
0010
0000
0010
,
0001
0010
0001
0100
0020
0000
2030
0000
,
3200
0300
0200
0300
0020
0030
0020
0030
,
0011
0000
0001
1000
0020
0030
0020
0030
,
1000
0000
0010
0000
0101
0000
1010
0000
0000
1000
0000
0001
1000
0010
0100
0010
,
0100
0000
0001
1000
0100
0000
1000
0000
0001
0000
0010
0000
1000
0000
0100
0000
,
1001
0000
1010
0000
1000
0100
1000
0001
,
0010
0001
0100
0010
1000
0100
0010
0100
,
2000
3020
0032
0023
0230
0302
2003
3200
,
0310
0100
1000
0100
0010
0010
0100
1000
,
0001
0000
0100
0010
1000
0001
0010
0100
,
2000
0000
3001
0010
0200
0000
0310
0010
,
0001
0000
1000
0010
0200
0000
0302
0000
,
1003
0001
0100
0000
0010
0000
0100
0001
,
1001
0000
0101
0000
0001
0010
0001
1000
,
0100
1000
0010
0100
0001
0010
0100
0010
,
0002
0203
2300
3200
0320
2030
3002
0023
,
0130
0000
0000
0010
0000
0000
0001
0000
0000
1000
0000
0000
0001
0000
0100
0000
0010
0000
1000
0000
0000
0000
0000
0000
,
0100
0000
1000
0000
0001
1000
0100
0010
,
0002
0000
1003
0100
0020
0000
0130
0100
,
1000
0000
0001
0100
0020
0000
2030
0000
,
3002
0023
2030
3020
,
0030
0000
0000
0000
0001
0000
1000
0100
1000
1000
0010
1000
0001
0100
0020
0000
,
0130
0001
2000
0000
3001
0000
0011
0000
0001
0100
0110
0000
1010
0000
0101
0000
,
1001
0000
0000
0000
;

//---------------dance-single - ----------------
#NOTEDATA:;
#CHARTNAME:;
#STEPSTYPE:dance-single;
#DESCRIPTION:;
#CHARTSTYLE:;
#DIFFICULTY:Medium;
#METER:7;
#RADARVALUES:0.447848,0.570470,0.158954,0.105970,0.026492,355.000000,337.000000,18.000000,12.000000,0.000000,0.000000,0.000000,0.000000,0.000000,0.447848,0.570470,0.158954,0.105970,0.026492,355.000000,337.000000,18.000000,12.000000,0.000000,0.000000,0.000000,0.000000,0.000000;
#CREDIT:;
#NOTES:
0000
0000
0000
0000
,
0000
0000
0000
0000
,
1000
0100
1000
0010
,
0100
0001
0010
0001
1001
1001
1001
0000
,
0001
0100
0010
0000
0100
0010
1000
0200
,
0000
0000
1300
0000
0100
1000
0010
0000
,
0100
0000
0101
0000
0001
0010
0100
0020
,
0000
0000
0130
1000
0001
0100
0001
1000
,
0100
0010
0001
0010
0001
0100
0010
2000
,
0000
0000
3200
0000
1300
0010
0100
0000
,
0010
0100
0001
0001
1000
0100
1000
0002
,
0000
0000
0103
0001
0010
0001
0100
0010
,
1000
0000
0000
0100
0000
0000
0010
0000
0100
0000
0000
1000
0000
0000
0010
0000
,
0100
0000
0001
1000
0001
0000
1000
0000
0001
0000
0100
0000
0010
0000
1000
0000
,
0001
0000
0000
0010
0000
0000
0100
0000
0010
0000
0000
0100
0000
0000
1000
0000
,
0100
1000
0010
0100
0101
0010
2010
0000
,
3001
0000
0000
2000
0000
0000
3100
0000
,
1000
0000
0000
0020
0000
0000
0130
0000
,
0001
0100
0010
1000
,
0100
0000
1000
0000
0001
0100
0010
1000
,
0001
0000
0000
0200
0000
0000
1300
0000
,
0100
0000
0000
0020
0000
0000
1030
0000
,
0100
0001
0100
0001
0100
0000
0010
0000
,
1010
0101
1010
0000
,
1000
0000
0001
0000
0100
0010
0100
0000
,
0010
0000
1000
0000
0100
0010
0100
0000
,
0010
0000
0001
0000
0100
0010
0100
0000
,
0010
0000
1000
0010
0000
0010
0100
0000
,
0001
0000
0100
0000
0010
1000
0010
0000
,
1000
0000
0010
0000
0100
0001
0100
0000
,
0001
0000
0010
0000
0100
1000
0100
0000
,
1000
0000
0010
0100
0000
0100
0010
0000
,
0100
0000
0001
0000
0010
1000
0100
0000
,
0010
0000
0001
0000
0100
1000
0010
0000
,
0100
0000
0001
0000
1000
0100
0001
0000
,
0100
0000
1000
0000
0010
0100
0001
0000
,
1000
0000
0100
0000
1000
0010
0100
0000
,
0001
0000
0010
0000
0100
0010
0001
0000
,
0010
0000
0100
0000
1000
0100
0001
0000
,
0100
0000
1000
0000
0010
0100
0001
0000
,
0102
0000
0010
0000
,
0103
0001
0010
0100
,
1000
1000
0100
0100
,
1000
0100
0010
0001
,
2001
0000
0100
0000
,
3010
0100
0001
1000
,
0010
0010
0100
0100
,
0010
0100
1000
0001
,
0010
0001
0100
0010
0000
0100
0010
1000
,
0001
0010
0100
1000
0001
0100
1000
0100
,
0010
1000
0010
0100
,
0001
0010
0100
1000
,
0100
1000
0100
0000
0010
0100
0010
0000
,
0001
0010
0001
0000
0010
0010
0010
0000
,
0100
0000
1000
0000
0010
0100
0001
0000
,
1000
0000
0001
0000
0100
0010
1000
0000
,
0010
0100
0001
1000
,
1001
0110
1001
0110
,
0001
0000
0100
0000
0010
1000
0010
0000
,
0100
0000
0001
0000
0010
0100
0010
0000
,
1000
0100
0010
0000
0010
0001
0010
0000
,
0100
0000
1000
0000
0010
0010
0010
0000
,
0100
0000
0001
0000
0100
0010
1000
0000
,
0010
0000
0100
0000
0001
1000
0010
0000
,
1000
0000
0100
0000
1000
0010
0100
0000
,
0010
0000
0100
0000
0010
1000
0100
0000
,
0000
0000
0010
0001
0100
1000
0100
0010
,
1000
0000
0001
0000
0010
0000
0001
0000
1000
0010
0100
0000
1001
0000
0110
0000
,
1001
0000
0000
0000
;

//---------------dance-single - ----------------
#NOTEDATA:;
#CHARTNAME:;
#STEPSTYPE:dance-single;
#DESCRIPTION:;
#CHARTSTYLE:;
#DIFFICULTY:Easy;
#METER:5;
#RADARVALUES:0.349447,0.450371,0.123631,0.061816,0.000000,277.000000,263.000000,14.000000,7.000000,0.000000,0.000000,0.000000,0.000000,0.000000,0.349447,0.450371,0.123631,0.061816,0.000000,277.000000,263.000000,14.000000,7.000000,0.000000,0.000000,0.000000,0.000000,0.000000;
#CREDIT:;
#NOTES:
0000
0000
0000
0000
,
0000
0000
0000
0000
,
1000
0100
1000
0010
,
0100
0000
0001
0000
1000
0001
1000
0000
,
0001
0101
0100
0010
,
1000
1100
0100
1000
,
0010
0110
0100
0001
,
1000
0000
1001
0000
0001
0000
0010
0100
,
0010
0011
0010
0100
,
1000
1010
0010
1000
,
0001
0101
0001
0010
,
0100
0110
0010
0001
,
1000
0000
0000
0001
1000
0000
0000
0001
,
0100
0000
0010
0000
1000
0000
0010
0100
,
0001
1000
0100
1000
,
0010
0000
0100
0001
0100
0010
1000
0000
,
0001
0000
0000
2000
0000
0000
0000
3000
,
0001
0000
0000
2000
0000
0000
0000
0000
,
3001
0001
1000
0010
,
0100
0000
0001
0000
0010
0100
0010
0100
,
2000
0000
0000
3010
0000
0000
0100
0000
,
0002
0000
0000
1003
0000
0000
0200
0000
,
0310
0100
0010
0001
,
1001
0110
1001
0000
,
0001
1000
0010
1000
,
0000
0001
1000
0001
,
0000
1000
0100
0100
,
0000
1000
0010
0100
,
0010
0100
0001
1000
,
0100
0010
0100
0100
,
0000
0010
0100
1000
,
0100
1000
0010
0100
,
0001
0010
0001
1000
,
0100
1000
0010
0010
,
0000
0100
0001
0001
,
1000
0001
0100
0001
,
0010
0100
1000
0100
,
1000
0010
0100
0100
,
0000
0010
0100
0001
,
0000
1000
0001
0100
,
0001
0000
0010
0000
,
0100
1000
0100
1000
,
0010
0010
0100
0100
,
0010
0100
0001
1000
,
0002
0000
2003
0000
,
3100
1000
0010
0100
,
0001
0001
1000
1000
,
0010
0100
0001
1000
,
0001
1000
0100
1000
,
0010
0000
0100
0000
0010
0100
0001
1000
,
0001
0100
0001
1000
,
0100
1000
0001
0100
,
0001
0001
1000
1000
,
0001
0000
1000
0000
0010
1000
0010
0000
,
1000
0010
0100
0001
,
0010
0100
1000
0100
,
1000
0010
0100
0001
,
0010
0000
0100
0000
1000
0001
1000
0000
,
0001
0010
0100
1000
,
0100
1000
0010
0100
,
0010
1000
0001
0100
,
0010
0000
1000
0000
0001
1000
0100
0000
,
1000
1000
0010
0100
,
0001
0001
0100
0010
,
1000
0010
0100
0001
,
0010
0000
0100
0000
1000
0001
1000
0000
,
0001
0100
0001
0010
,
0100
0000
1000
0100
1000
0001
1001
0110
,
1001
0000
0000
0000
;

//---------------dance-single - ----------------
#NOTEDATA:;
#CHARTNAME:;
#STEPSTYPE:dance-single;
#DESCRIPTION:;
#CHARTSTYLE:;
#DIFFICULTY:Beginner;
#METER:2;
#RADARVALUES:0.142554,0.210173,0.026492,0.017662,0.000000,113.000000,110.000000,3.000000,2.000000,0.000000,0.000000,0.000000,0.000000,0.000000,0.142554,0.210173,0.026492,0.017662,0.000000,113.000000,110.000000,3.000000,2.000000,0.000000,0.000000,0.000000,0.000000,0.000000;
#CREDIT:;
#NOTES:
0000
0000
0000
0000
,
0000
0000
0000
0000
,
0000
0000
0000
0000
,
0000
0000
0000
0000
,
1000
0000
0100
0000
,
1000
0000
0010
0000
,
0100
0000
0001
0000
,
0010
0000
0001
0001
,
1000
0000
0010
0000
,
1000
0000
0100
0000
,
0010
0000
0001
0001
,
1000
0000
0010
0000
,
0100
0000
0100
0000
,
0200
0000
0300
0000
,
0010
0000
0010
0000
,
0010
0000
0100
0010
,
1000
0000
0000
0001
,
0001
0000
0000
1000
,
1000
0000
0001
0000
,
0100
0000
0020
0000
,
0130
0000
0000
0000
,
0100
0000
0000
0000
,
0010
0000
1000
0000
,
0001
0001
0001
0000
,
1000
0000
0000
0000
,
0001
0000
0000
0000
,
0100
0000
0000
0000
,
0010
0000
0000
0000
,
0100
0000
0000
0000
,
0010
0000
0000
0000
,
1000
0000
0000
0000
,
0001
0000
0001
0000
,
1000
0000
0000
0000
,
0010
0000
0000
0000
,
1000
0000
0000
0000
,
0100
0000
0100
0000
,
0100
0000
0000
0000
,
0010
0000
0000
0000
,
0001
0000
0000
0000
,
0001
0000
0001
0000
,
0100
0000
0000
0000
,
0010
0000
0000
0000
,
1000
1000
0001
0001
,
0000
1000
0000
0000
,
0001
0000
0000
0000
,
0100
0000
0000
0000
,
0010
0010
0100
0100
,
0000
0010
0000
0100
,
0100
0010
0000
0000
,
0010
0000
1000
0001
,
1001
0000
0000
0000
,
0001
0000
0000
0000
,
0100
0000
0010
0000
,
1000
0000
0001
0001
,
0001
0000
0000
0000
,
1000
0000
0000
0000
,
0100
0000
0000
0000
,
1000
0000
0001
0000
,
1001
0000
0000
0000
,
0100
0000
0000
0000
,
0010
0000
0010
0000
,
0100
0000
0010
0010
,
0010
0000
0000
0000
,
0100
0000
0000
0000
,
0001
0000
0000
0000
,
1000
0000
0001
0000
,
0000
1000
0000
0001
,
0000
0100
0010
1000
,
1001
0000
0000
0000
;

//---------------dance-single - ----------------
#NOTEDATA:;
#CHARTNAME:;
#STEPSTYPE:dance-single;
#DESCRIPTION:;
#CHARTSTYLE:;
#DIFFICULTY:Challenge;
#METER:11;
#RADARVALUES:0.802341,1.140940,0.388555,0.724126,0.728541,636.000000,592.000000,44.000000,82.000000,0.000000,0.000000,3.000000,0.000000,0.000000,0.802341,1.140940,0.388555,0.724126,0.728541,636.000000,592.000000,44.000000,82.000000,0.000000,0.000000,3.000000,0.000000,0.000000;
#CREDIT:;
#NOTES:
// measure 0
0000
0000
0000
0000
,  // measure 1
0000
0000
0000
0000
,  // measure 2
1001
0000
1000
0001
0010
0010
0001
1000
0100
2000
0010
0000
3001
0200
0010
0300
,  // measure 3
0102
0000
0013
0000
0100
1000
0010
0000
0101
0000
0011
0000
0202
0000
0303
0000
,  // measure 4
1001
0000
0000
0000
1000
0000
1000
0000
0001
0100
0010
0000
0100
0000
0000
0000
0001
0000
0100
0000
0001
0000
0020
0000
0000
0000
0130
0000
2000
0000
0000
0000
,  // measure 5
0001
0000
0000
0000
3200
0000
0000
0000
0310
0100
1000
0010
0000
0100
0000
0001
,  // measure 6
0011
0000
0000
0000
0001
0000
1000
0000
0100
0010
0100
0000
1000
0000
0000
0000
0100
0000
0010
0000
0100
0000
2000
0000
0000
0000
3001
0000
0020
0000
0000
0000
,  // measure 7
0001
0000
0000
0000
0130
0000
1000
0000
0100
0000
0010
0000
0100
0000
0000
0000
1000
0000
0010
0000
0100
0000
0001
1000
0001
0000
1000
0000
0000
0000
0100
0000
,  // measure 8
1100
0000
0000
0000
0100
0000
0100
0000
0010
0001
1000
0000
0010
0000
0100
0000
0001
0000
1000
0000
0010
0000
0200
0000
0000
0000
0301
0000
2000
0000
0000
0000
,  // measure 9
0100
0000
0000
0000
3020
0000
0000
0000
0130
0001
0010
0001
0000
1000
0000
0100
,  // measure 10
0010
0000
0000
0000
0100
0000
0100
0000
0010
0001
1000
0000
0010
0000
0000
0000
0100
0000
0001
0000
0010
0000
0100
0000
0000
0000
1000
0000
0002
0000
0000
0000
,  // measure 11
0000
0000
0000
0000
0000
0000
0103
0000
0010
0000
1000
0000
0100
0000
0000
0000
0010
0000
0001
0000
0010
0000
0100
1000
0100
0000
0010
0000
0000
0000
0001
0000
,  // measure 12
1000
0000
0000
0201
0000
0000
0010
0000
0301
0000
0000
0021
0000
0000
0100
0000
,  // measure 13
0031
0000
0000
0000
2000
0000
3002
0000
0203
0000
0300
0000
0200
0000
0000
0000
0310
0000
1000
0000
0010
0000
0100
0000
0001
0100
0010
1000
0001
0010
0100
1000
,  // measure 14
0001
0100
0001
0020
0000
0130
0110
0000
0100
1000
0010
0200
0000
0310
0110
0000
,  // measure 15
0200
0000
0302
0000
0023
0000
0032
0000
2003
0000
0000
0000
3001
1000
0001
1000
0200
0300
0200
0300
0201
0300
0200
0300
1200
0300
0000
0000
0200
0000
0300
0000
,  // measure 16
0010
0001
0100
0020
0000
1030
0100
0001
,  // measure 17
0100
0010
0001
2000
0000
3010
0100
0001
,  // measure 18
1000
1000
0010
1000
0100
0100
0010
0100
,  // measure 19
0010
0000
0000
0001
0000
0000
0010
0000
0000
0100
0000
0000
1000
0000
0100
0000
0010
0000
0001
0000
0100
0000
0010
0000
,  // measure 20
1000
0100
0001
0200
0000
0310
0100
1000
,  // measure 21
0010
0001
0010
0200
0000
0310
1000
0001
,  // measure 22
1000
0000
1000
0000
0001
0000
0001
0000
0100
0000
0010
0000
1000
0001
1000
0001
,  // measure 23
0010
0000
0000
0000
1100
0000
0000
0000
0011
0000
0001
0100
0010
0000
0000
0000
,  // measure 24
0101
0000
0000
0000
0011
0000
0000
0000
0110
0000
0100
1000
0001
0000
1001
0000
,  // measure 25
0000
1000
0100
0010
0100
1000
0001
0000
,  // measure 26
0000
0000
0100
0000
0010
1000
0100
0000
0010
0000
0001
0100
0010
0000
1001
0000
,  // measure 27
0000
0000
0001
0100
0010
0000
1000
0000
0001
0000
0001
0000
0010
0000
0000
0000
,  // measure 28
0120
0000
0130
0000
2000
0000
3010
0000
0100
0001
0010
0000
0100
0000
1100
0000
,  // measure 29
0000
0000
1000
0100
0010
0000
0100
0000
0010
0000
0001
0100
0010
0000
1000
0000
,  // measure 30
0001
0000
1000
0000
0010
1000
0010
0000
0100
0000
0001
0100
0010
0000
0001
1000
,  // measure 31
0100
0010
0001
0100
0010
1000
0001
0010
0100
1000
0100
0010
0001
0100
0010
1000
,  // measure 32
0100
0000
0000
0000
0011
0000
0000
0000
1100
0000
1000
0010
0100
0000
0010
0000
,  // measure 33
1000
1000
0100
1000
0001
0100
0001
0000
,  // measure 34
0010
0000
0100
0000
1000
0001
0100
0000
0001
0000
0010
0000
0100
0010
0001
1000
,  // measure 35
0000
0000
0001
0100
0001
0000
0100
0000
0010
0000
1000
0000
0100
0000
0000
0000
,  // measure 36
0010
0000
0001
0000
1000
0000
0100
0000
1000
0000
0001
0000
0100
0001
0010
0000
,  // measure 37
0000
0000
0100
1000
0001
0000
1000
0000
0001
0000
0010
0000
0100
0000
1000
0000
,  // measure 38
0001
0000
0100
0000
0010
0100
0010
0000
0100
0000
0001
0000
1000
0001
0010
0001
,  // measure 39
0000
0000
0010
0100
1000
0000
0100
0010
0001
0100
0010
1000
0001
0000
1000
0000
,  // measure 40
0200
0000
0000
0300
0200
0000
0000
0300
0200
0000
0000
0000
0310
0000
0000
0000
0002
0000
0100
0000
0003
0000
0020
0000
,  // measure 41
1000
0000
0030
0100
0000
0000
0001
0000
0000
0100
0000
0000
0020
0000
0000
0000
0000
0000
0230
0000
0000
0000
0000
0000
,  // measure 42
2300
3200
0302
0203
,  // measure 43
0310
0000
0011
0000
1200
0300
1200
0300
,  // measure 44
2000
0000
0000
3000
2000
0000
0000
3000
2000
0000
0000
3000
0200
0000
0000
0000
0320
0000
0001
0030
0000
0000
0020
0000
,  // measure 45
0100
0030
0000
0010
0000
0000
0001
0000
0000
0010
0000
0000
2000
0000
0000
0000
0000
0000
3020
0000
0000
0000
0000
0000
,  // measure 46
0230
0010
0320
0001
0032
1000
2003
0000
,  // measure 47
3010
0000
1000
0000
0001
0000
0100
0000
0201
0300
0000
0000
0102
0003
0000
0000
,  // measure 48
0001
0000
0100
0000
1010
0000
0101
0000
0000
0001
0010
1000
0000
0010
0100
1000
,  // measure 49
1100
0011
0101
1010
0002
0203
2300
3020
,  // measure 50
0032
0000
0103
0000
0010
1000
0100
0001
,  // measure 51
0100
0010
0001
0100
0010
1000
0001
1000
,  // measure 52
0400
0010
0000
0010
0000
0010
0000
0010
0000
0010
0000
0010
0000
0010
0300
0000
,  // measure 53
0001
0000
0010
0000
0100
0000
0010
0000
0002
0003
0002
0003
1000
0000
0100
0000
,  // measure 54
0210
0000
0000
0000
1300
0000
0000
0000
0100
0000
0010
0001
0100
0000
0010
0000
,  // measure 55
2000
0000
3010
0100
0010
0010
0100
0010
,  // measure 56
1000
0000
0100
1000
0001
0000
0010
0000
0100
0000
1000
0010
0100
0000
0001
0000
,  // measure 57
1000
0001
0100
0001
0010
0000
0100
0000
1000
0001
0010
0001
1000
0000
0001
0000
,  // measure 58
1002
0000
2003
0000
3100
0001
0100
1000
,  // measure 59
0010
0100
0001
0010
0100
1000
0001
1000
,  // measure 60
0040
0100
0000
0100
0000
0100
0000
0100
0000
0100
0000
0100
0000
0100
0030
0000
,  // measure 61
1000
0000
0000
0100
0000
0000
0010
0000
0000
0100
0000
0000
0010
0000
0001
0000
1000
0000
0100
0000
0000
0000
0000
0000
,  // measure 62
0120
0000
0000
0000
0031
0000
0000
0000
0010
0000
0100
1000
0010
0000
0100
0000
,  // measure 63
0002
0000
0103
0010
0100
0100
0010
0100
,  // measure 64
0001
0000
0010
0001
1000
0000
0100
0000
0010
0000
0001
0100
0010
0000
1000
0000
,  // measure 65
0001
1000
0010
1000
0100
0000
0010
0000
0001
1000
0100
1000
0001
0000
1000
0000
,  // measure 66
0040
0000
0030
0000
0201
0000
0000
0301
1000
0100
0100
0010
0100
1000
0020
0000
,  // measure 67
0130
0001
1000
0100
0120
0000
0031
0000
0010
0100
1000
0000
1001
0000
0110
0000
,  // measure 68
1001
0000
0000
0000
;
