#VERSION:0.83;
#TITLE:Moon of Noon;
#SUBTITLE:;
#ARTIST:Sampling Masters MEGA;
#TITLETRANSLIT:;
#SUBTITLETRANSLIT:;
#ARTISTTRANSLIT:;
#GENRE:;
#ORIGIN:;
#CREDIT:;
#BANNER:Moon of Noon.png;
#BACKGROUND:Moon of Noon-bg.png;
#PREVIEWVID:;
#JACKET:Moon of Noon-jacket.png;
#CDIMAGE:;
#DISCIMAGE:;
#LYRICSPATH:;
#CDTITLE:CDtitle.png;
#MUSIC:Moon of Noon.ogg;
#OFFSET:-0.101000;
#SAMPLESTART:14.502001;
#SAMPLELENGTH:9.599998;
#SELECTABLE:YES;
#BPMS:0.000=200.000,
208.000=133.333,
240.000=200.000;
#STOPS:;
#DELAYS:;
#WARPS:;
#TIMESIGNATURES:0.000=4=4;
#TICKCOUNTS:0.000=4;
#COMBOS:0.000=1;
#SPEEDS:0.000=1.000=0.000=0;
#SCROLLS:0.000=1.000;
#FAKES:;
#LABELS:0.000=Song Start;
#BGCHANGES:;
#KEYSOUNDS:;
#ATTACKS:
;

//---------------dance-single - ----------------
#NOTEDATA:;
#CHARTNAME:;
#STEPSTYPE:dance-single;
#DESCRIPTION:;
#CHARTSTYLE:;
#DIFFICULTY:Hard;
#METER:9;
#RADARVALUES:0.648425,0.783563,0.227792,0.016874,0.244666,538.000000,511.000000,27.000000,2.000000,0.000000,0.000000,0.000000,0.000000,0.000000,0.648425,0.783563,0.227792,0.016874,0.244666,538.000000,511.000000,27.000000,2.000000,0.000000,0.000000,0.000000,0.000000,0.000000;
#CREDIT:;
#NOTES:
0000
0000
0000
0000
,
0000
0000
0000
0000
,
0000
0000
0000
0000
,
0000
0000
0000
0000
,
0001
0100
0001
0000
0100
0010
0100
0000
,
0001
0100
1000
0100
,
0010
1000
0010
0000
0100
0001
0100
0000
,
0001
0010
1000
0010
,
0001
1000
0001
0000
0100
0001
0100
0000
,
0001
0010
1000
0010
,
0001
0100
0010
0000
0100
0010
1000
0000
,
0100
0010
0001
0100
0010
0000
1000
0000
,
1001
0000
0011
1010
,
1000
0001
0010
0000
0100
0000
1000
0000
,
1001
0000
1100
0101
,
0001
0000
1000
0010
0000
0010
1000
0000
,
1001
0000
1100
0101
,
0001
1000
0100
0000
0010
0000
0001
0000
,
1001
0000
0011
1010
,
0100
0000
0000
0000
,
1000
0000
0001
0100
0001
1000
0001
0010
,
0100
0000
0010
0001
0000
0001
0100
0000
,
0100
0000
0010
1000
0001
0010
0100
0010
,
0001
0000
1000
0100
0000
0100
0010
0001
,
0010
0000
0001
0100
0010
1000
0100
1000
,
0010
0000
0100
0001
0000
0001
1000
0000
,
1000
0000
0001
0100
0001
0010
0100
0010
,
0001
0100
0001
0100
0001
0100
0001
0000
,
1000
0001
0010
0000
0100
0010
0001
0000
,
0010
0001
1000
1010
,
1000
0001
0100
0000
0010
1000
0100
0000
,
0010
0100
1000
1001
,
1000
0001
0010
0000
0100
0010
0001
0000
,
0010
0100
1000
1001
,
0001
1000
1000
0000
0010
0100
0100
0000
,
0001
0001
0100
0010
1000
0000
0010
0000
,
1001
0000
0101
1100
,
1000
0001
0010
0000
0100
0000
0010
0000
,
1001
0000
1010
0011
,
0001
0000
0001
0000
0001
1000
0001
1000
,
1001
1000
0001
0000
1001
0001
1000
0000
,
0001
0100
0010
0000
1000
0000
0010
0000
,
0100
0001
0100
0001
0100
0000
0100
0000
,
0010
0010
0100
0000
0001
1000
0001
1000
,
0001
0000
0010
0001
0100
0010
1000
0001
,
0100
0000
0001
0010
0000
0010
1000
0000
,
0010
0000
0100
0010
0001
0100
0010
1000
,
0001
0000
0001
0010
0000
1000
0010
0001
,
0100
0000
0010
0100
0001
1000
0010
0100
,
0001
0000
0001
0100
0000
0100
1000
0000
,
0100
0010
1000
0010
1000
0010
1000
0010
,
0100
0001
0010
0001
0010
0001
0010
0000
,
0001
0000
0001
0000
1000
0010
1000
0000
0100
0000
0000
0000
,
0010
0000
0010
0000
0001
0010
0001
0000
1000
0000
1000
0001
,
0100
0000
0100
0000
0100
0010
1000
0000
0001
0010
0100
1000
,
0001
0000
0100
0000
0100
0001
0010
0001
1000
0100
1000
0001
,
1000
0000
1000
0000
0001
0100
0001
0000
0010
0000
0000
0000
,
0100
0000
0100
0000
1000
0100
1000
0000
0001
0000
0001
1000
,
0010
0000
0010
0000
0010
0100
0001
0000
1000
0100
0010
0001
,
1000
0000
0010
0000
0010
1000
0100
1000
0001
0010
0001
0010
,
0100
0000
0000
0000
,
0000
0000
0000
0000
,
1000
0001
0100
1000
0100
0001
0010
0100
,
1000
0010
0001
0010
1000
0010
0100
0001
,
1000
0100
0001
0100
1000
0010
0100
0001
,
0010
0000
0000
0000
,
0100
1000
0010
0010
0100
0001
1000
1000
,
0001
0001
1000
1000
0001
0100
0010
0000
,
0100
0100
0001
0001
0100
0100
0010
0010
,
1000
0000
0000
0000
,
0001
1000
0010
0001
0010
1000
0100
0010
,
0001
0100
1000
0100
0001
0100
0010
1000
,
0001
0010
1000
0010
0001
0100
0010
1000
,
0100
0000
0000
0000
,
0010
0001
0100
0100
0010
1000
0001
0001
,
1000
1000
0001
0001
1000
0010
0100
0000
,
0001
0100
0001
0100
0001
0100
0001
0100
,
0010
1000
0010
1000
0010
1000
0010
1000
,
0100
0010
0100
0010
0001
1000
0001
1000
,
0100
0000
0000
0000
,
0010
0001
0100
0000
0010
1000
0100
0000
,
1000
0100
0001
0100
,
1000
0010
0100
0000
0001
0100
0010
0000
,
0001
0011
1010
1001
,
1000
0001
0100
0000
0001
1000
0100
0000
,
1000
0100
0001
0100
,
0010
0100
1000
0000
1000
0100
0010
0000
,
0100
0010
0001
0100
0010
1000
0001
0000
,
1000
0000
0000
0001
0000
0000
0010
0000
0000
0000
0000
0000
0100
0000
1000
0000
0001
0000
1000
0000
0000
0000
0000
0000
,
0001
1000
0010
1000
0000
0000
0001
0100
0001
0010
0000
0000
,
0100
0000
1000
0000
1000
0000
0001
0100
0010
1000
0100
0010
,
0001
1000
0001
1000
0000
0100
0010
0000
,
2002
0000
0000
0000
0000
0000
0000
3003
;

//---------------dance-single - ----------------
#NOTEDATA:;
#CHARTNAME:;
#STEPSTYPE:dance-single;
#DESCRIPTION:;
#CHARTSTYLE:;
#DIFFICULTY:Medium;
#METER:8;
#RADARVALUES:0.527900,0.666029,0.455585,0.059057,0.050621,438.000000,384.000000,54.000000,7.000000,0.000000,0.000000,0.000000,0.000000,0.000000,0.527900,0.666029,0.455585,0.059057,0.050621,438.000000,384.000000,54.000000,7.000000,0.000000,0.000000,0.000000,0.000000,0.000000;
#CREDIT:;
#NOTES:
0000
0000
0000
0000
,
0000
0000
0000
0000
,
0000
0000
0000
0000
,
0000
0000
0000
0000
,
0001
1000
0001
1000
,
0001
0100
0010
1010
,
1000
0001
1000
0001
,
1000
0100
0010
0011
,
0001
0100
0001
0100
,
0010
1000
0100
1000
,
1100
0000
0011
0000
,
0110
0100
1000
0000
,
1001
0000
0101
0101
,
0001
0100
0010
0000
0100
0000
0010
0000
,
1010
0000
1100
1100
,
1000
0100
1000
0010
,
0110
0000
0101
0101
,
0001
1000
0010
0000
0100
0000
0010
0000
,
1001
0000
0011
0011
,
0001
0000
0000
0000
,
1000
0001
0100
0001
,
0010
0001
1000
0100
,
1000
0010
0100
0001
,
0010
0100
0010
0001
,
1000
0010
0100
0001
,
1000
0100
1000
0010
,
0100
0001
1000
0010
,
1000
0001
1000
0001
1000
0001
0200
0000
,
0310
1010
1000
1100
,
1000
1001
0110
1001
,
0001
0101
0100
0110
,
0010
1010
0101
1010
,
0001
0011
0010
0110
,
0100
1100
0110
0011
,
0001
1000
0000
0000
0001
0100
0000
0000
,
1001
0000
0000
0000
,
1100
0000
0011
0011
,
0001
0010
0100
0000
0010
0000
0001
0000
,
1001
0000
0101
0101
,
0100
0000
0100
0000
0010
0100
0010
0100
,
0010
1000
0001
0000
0010
1000
0001
0000
,
0100
0010
1000
0000
0100
0000
1100
0000
,
1000
0100
1000
0100
1000
0000
1000
0000
,
0001
1000
0001
0000
0100
0010
1000
0001
,
0100
0001
0010
0001
,
1000
0100
1000
0010
,
0100
0001
1000
0010
,
1000
0001
0010
0001
,
1000
0100
1000
0010
,
0100
0001
0010
0100
,
0010
0001
0010
0001
0010
0001
0010
0001
,
0000
0100
1000
0100
1000
0100
1000
0000
,
0001
0100
0010
1000
,
0010
0100
0001
1000
,
0100
1000
0010
0100
,
0001
0000
0000
0010
0000
0000
0001
1000
0010
0100
0001
0010
,
0100
1000
0010
0100
,
0001
0010
0001
1000
,
0100
1000
0010
0100
,
0001
0000
0000
1000
0000
0000
0001
0100
0010
1000
0001
0010
,
0100
0000
0000
0000
,
0000
0000
0000
0000
,
1000
0000
0001
0100
0010
0000
0100
0001
,
1000
0000
0100
0000
1000
0010
0100
0000
,
0001
0000
1000
0001
0010
0000
0100
0000
,
0020
0000
0000
0000
,
0030
0000
1000
0001
0000
0000
1000
0001
,
1000
0001
1000
0001
0000
0000
1000
0000
,
0001
0100
0001
0100
0001
0100
0001
0100
,
0010
0000
0000
0000
1000
0001
0100
0010
,
1000
0000
0001
0010
0100
0000
0010
0001
,
0100
0000
0010
0000
0100
0010
1000
0000
,
1000
0000
0001
1000
0100
0000
0010
0000
,
0200
0000
0000
0000
,
0300
0000
0010
0100
0000
0000
0010
0100
,
0010
0100
0010
0100
0000
0000
0010
0000
,
0001
1000
0001
1000
0001
1000
0001
1000
,
0010
0100
0010
0100
0010
0100
0010
0100
,
0001
1000
0001
1000
0010
0100
0010
0100
,
0001
0000
0000
0000
,
1000
1010
0010
0110
,
0100
0101
1010
0101
,
0001
0011
0100
1100
,
1000
0002
0203
0310
,
1000
1010
0010
0110
,
0100
0101
1010
0101
,
0001
1000
0000
0000
0001
0100
0000
0000
,
1010
0000
0000
0000
,
1000
1000
0010
0000
0100
0100
0010
0000
,
1000
1000
0001
0000
0001
0001
0010
0000
,
0100
0000
0010
0000
0001
0000
1000
0000
0010
0000
0100
0000
,
0001
0010
0100
1000
0000
1000
0100
0000
,
2002
0000
0000
0000
0000
0000
0000
3003
;

//---------------dance-single - ----------------
#NOTEDATA:;
#CHARTNAME:;
#STEPSTYPE:dance-single;
#DESCRIPTION:;
#CHARTSTYLE:;
#DIFFICULTY:Easy;
#METER:5;
#RADARVALUES:0.341086,0.470138,0.168735,0.008437,0.000000,283.000000,263.000000,20.000000,1.000000,0.000000,0.000000,0.000000,0.000000,0.000000,0.341086,0.470138,0.168735,0.008437,0.000000,283.000000,263.000000,20.000000,1.000000,0.000000,0.000000,0.000000,0.000000,0.000000;
#CREDIT:;
#NOTES:
0000
0000
0000
0000
,
0000
0000
0000
0000
,
0000
0000
0000
0000
,
0000
0000
0000
0000
,
0001
0010
0000
0010
,
0000
0100
1000
0010
,
0000
0100
0000
0100
,
0000
0010
1000
0001
,
0000
1000
0000
1000
,
0000
0001
1000
0010
,
1001
0000
0110
0000
,
1001
0000
0000
0000
,
0101
0000
0001
0001
,
1000
0010
0100
0001
,
1001
0000
1000
1000
,
0100
1000
0010
0100
,
1001
0000
0001
0001
,
0010
0001
1000
0100
,
1100
0000
0100
0100
,
1000
0000
0000
0000
,
0001
0100
0000
0010
,
0000
1000
0000
0010
,
0000
0100
0000
0001
,
0000
1000
0000
0100
,
0000
1000
0000
0010
,
0000
0100
0000
0001
,
0000
1000
0000
0001
,
0000
0100
0100
0100
,
0010
1000
0010
1000
,
0001
0010
0100
1000
,
0010
1000
0010
1000
,
0001
0010
0100
1000
,
0010
1000
0010
1000
,
0001
0010
0100
1000
,
1001
0000
0110
0000
,
1001
0000
0000
0000
,
0110
0000
0010
0010
,
0100
0001
0010
0100
,
1100
0000
0100
0100
,
1000
1000
0001
1000
,
0010
0100
0010
0100
,
0010
0010
1000
0001
,
0100
0001
0100
0001
0100
0000
0010
0000
,
0100
0010
0100
0000
0010
0000
0000
0000
,
1000
0001
0010
0001
,
0000
1000
0000
0100
,
1000
0010
1000
0010
,
0000
0100
0000
0010
,
1000
0001
1000
0001
,
0000
1000
0000
0100
,
0000
1000
1000
1000
,
0000
0001
0001
0001
,
1000
0000
0001
0000
,
0100
0000
0010
0000
,
1000
0000
0010
0000
,
0100
0000
0001
0010
,
0100
0000
0010
0000
,
0001
0000
1000
0000
,
0010
0000
1000
0000
,
0100
0000
1000
0001
,
0110
0000
0000
0000
,
0000
0000
0000
0000
,
0000
0010
1000
0010
,
0100
0001
0010
0100
,
0010
0001
1000
0010
,
0100
0000
0000
0000
,
0000
0010
0000
0010
,
0010
0010
0000
0010
,
0100
0100
0100
0100
,
0100
0000
0010
0100
,
0001
1000
0010
1000
,
0001
0010
0100
0010
,
0001
1000
0100
0010
,
0100
0000
0000
0000
,
0000
0010
0000
0001
,
0001
0001
0000
1000
,
0001
0001
0001
0001
,
0100
0100
0100
0100
,
0010
0010
1000
1000
,
1001
0000
0000
0000
,
1000
0010
0100
0010
,
1000
0001
0010
0100
,
0010
0001
0100
0010
,
1000
1001
0110
1001
,
0001
1000
0010
1000
,
0001
0100
0010
1000
,
1001
0000
1010
0000
,
0101
0000
0000
0000
,
0001
1000
0100
1000
,
0010
0100
0001
0010
,
0100
0000
0010
0000
,
0001
0010
0100
1000
0000
0100
1000
0000
,
0020
0000
0000
0000
0000
0000
0000
0030
;

//---------------dance-single - ----------------
#NOTEDATA:;
#CHARTNAME:;
#STEPSTYPE:dance-single;
#DESCRIPTION:;
#CHARTSTYLE:;
#DIFFICULTY:Beginner;
#METER:3;
#RADARVALUES:0.186814,0.349282,0.109678,0.000000,0.000000,155.000000,142.000000,13.000000,0.000000,0.000000,0.000000,0.000000,0.000000,0.000000,0.186814,0.349282,0.109678,0.000000,0.000000,155.000000,142.000000,13.000000,0.000000,0.000000,0.000000,0.000000,0.000000,0.000000;
#CREDIT:;
#NOTES:
0000
0000
0000
0000
,
0000
0000
0000
0000
,
0000
0000
0000
0000
,
0000
0000
0000
0000
,
1000
0000
0000
0000
,
0001
0000
0000
0000
,
1000
0000
0000
0000
,
0001
0000
0000
0000
,
0100
0000
0000
0000
,
0010
0000
0000
0000
,
0100
0000
0100
0000
,
0100
0000
0000
0000
,
1001
0000
1000
1000
,
0001
0000
0000
0000
,
1001
0000
0010
0010
,
0100
0000
0000
0000
,
1001
0000
1000
1000
,
0001
0000
0000
0000
,
0110
0000
0100
0100
,
0100
0000
0000
0000
,
0010
0000
0000
0000
,
1000
0000
0000
0000
,
0001
0000
0000
0000
,
0100
0000
0000
0000
,
0001
0000
0000
0000
,
0010
0000
0000
0000
,
0001
0000
0000
0000
,
1000
0000
1000
0000
,
0001
0000
0000
0000
,
0010
0000
0000
0000
,
0001
0000
0000
0000
,
1000
0000
0000
0000
,
0100
0000
0000
0000
,
1000
0000
0000
0000
,
0001
0000
1000
0000
,
1001
0000
0000
0000
,
0110
0000
0010
0010
,
0100
0000
0000
0000
,
1001
0000
1000
1000
,
0001
0000
0000
0000
,
1000
0000
1000
0000
,
0001
0000
1000
0000
,
0010
0010
0010
0000
,
0100
0100
0100
0000
,
0010
0000
0000
0000
,
1000
0000
0000
0000
,
0001
0000
0000
0000
,
0010
0000
0000
0000
,
0001
0000
0000
0000
,
1000
0000
0000
0000
,
0100
0000
0000
0000
,
0100
0000
0000
0000
,
1000
0000
0000
0000
,
0001
0000
0000
0000
,
0100
0000
0000
0000
,
0001
0000
0010
0000
,
0100
0000
0000
0000
,
0010
0000
0000
0000
,
0001
0000
0000
0000
,
1000
0000
0001
0000
,
0110
0000
0000
0000
,
0000
0000
0000
0000
,
0010
0000
0000
0000
,
1000
0000
0000
0000
,
0001
0000
1000
0000
,
0001
0000
0000
0000
,
0100
0000
0000
0100
,
0100
0100
0000
0100
,
0010
0010
0010
0010
,
0010
0000
0000
0000
,
1000
0000
0000
0000
,
0001
0000
0000
0000
,
0010
0000
0000
0000
,
0001
0000
0000
0000
,
0000
1000
0000
0001
,
0001
0001
0000
1000
,
0001
0001
0001
0001
,
1000
1000
1000
1000
,
0010
0010
0100
0100
,
0100
0000
0000
0000
,
0000
0010
0000
0010
,
0000
1000
1000
1000
,
0000
0010
0000
0010
,
0000
0100
0100
0100
,
0000
0001
0000
0001
,
0000
1000
1000
1000
,
0001
0000
1000
0000
,
0010
0000
0000
0000
,
0110
0000
1001
0000
,
0110
0000
1001
0000
,
0010
0000
0000
0000
,
0100
0000
0000
0000
,
1001
0000
0000
0000
;

//---------------dance-single - ----------------
#NOTEDATA:;
#CHARTNAME:;
#STEPSTYPE:dance-single;
#DESCRIPTION:;
#CHARTSTYLE:;
#DIFFICULTY:Challenge;
#METER:10;
#RADARVALUES:0.777387,0.940276,0.497768,0.101241,0.333252,645.000000,586.000000,59.000000,12.000000,0.000000,0.000000,0.000000,0.000000,0.000000,0.777387,0.940276,0.497768,0.101241,0.333252,645.000000,586.000000,59.000000,12.000000,0.000000,0.000000,0.000000,0.000000,0.000000;
#CREDIT:;
#NOTES:
// measure 0
0000
0000
0000
0000
,  // measure 1
0000
0000
0000
0000
,  // measure 2
0000
0000
0000
0000
,  // measure 3
0000
0000
0000
0000
,  // measure 4
0001
0100
0010
0000
0100
0001
1000
0000
,  // measure 5
0001
1000
1100
0000
0101
0000
1001
0000
,  // measure 6
0001
1000
0010
0000
0100
0001
0010
0000
,  // measure 7
0100
0010
0011
0000
1010
0000
1001
0000
,  // measure 8
1000
0001
0100
0000
0001
1000
0100
0000
,  // measure 9
0010
0001
0101
0000
0011
0000
1100
0000
,  // measure 10
1000
0001
0001
0000
1000
0010
0000
0100
,  // measure 11
0001
0000
0001
0000
0010
0000
0100
0000
0010
0000
0001
1000
0001
0000
0000
0000
,  // measure 12
1020
0000
0001
1030
,  // measure 13
1000
0100
0001
0000
0100
0000
1000
0000
,  // measure 14
0120
0000
1000
0031
,  // measure 15
0100
0000
0010
1000
0000
0001
0100
0000
,  // measure 16
0021
0000
0001
1030
,  // measure 17
1000
0010
0001
0000
0011
0000
1010
0000
,  // measure 18
0120
0000
1000
0031
,  // measure 19
0100
0000
0010
0100
0000
0001
1000
0000
,  // measure 20
0100
0000
1000
0001
0100
0010
0100
0001
,  // measure 21
1000
0000
0001
0100
0000
0001
1000
0000
,  // measure 22
0100
0000
1000
0100
1000
0010
0100
0001
,  // measure 23
0010
0000
0100
0010
0000
0001
0010
0010
,  // measure 24
0100
0000
1000
0100
1000
0001
0100
0010
,  // measure 25
0100
0000
0001
0010
0000
0100
1000
0000
,  // measure 26
0001
0000
1000
0001
0010
0001
0100
0001
,  // measure 27
1000
1000
0001
0001
0001
0001
0200
0300
,  // measure 28
0010
1000
0100
0000
0010
0001
0100
0000
,  // measure 29
0100
0001
0011
0000
1010
0000
1001
0000
,  // measure 30
0001
1000
0010
0000
1000
0100
0010
0000
,  // measure 31
0100
1000
1100
0000
0101
0000
1001
0000
,  // measure 32
0001
1000
0010
0000
0100
0001
0010
0000
,  // measure 33
0100
1000
1100
0000
0011
0000
0101
0000
,  // measure 34
0101
0100
0100
0000
1010
0010
0010
0000
,  // measure 35
1001
0000
1000
0000
1000
0000
0001
0000
0100
0000
0010
0100
0010
0000
0000
0000
,  // measure 36
0102
0000
0010
0100
,  // measure 37
1003
0100
0001
0000
0101
0000
1100
0000
,  // measure 38
2010
0000
0100
3010
,  // measure 39
0100
0000
0100
0000
0100
0100
0100
0100
,  // measure 40
0100
0010
1000
0000
0100
0010
0001
0000
,  // measure 41
0010
0001
0100
0000
0101
0000
1010
0000
,  // measure 42
0001
0001
0001
0001
1000
0000
1000
0000
,  // measure 43
0001
0000
0001
0000
0001
0000
0000
0000
0100
0010
0100
0010
0100
0010
0100
0010
,  // measure 44
0100
0000
0001
0100
0010
0100
0001
1000
,  // measure 45
0001
0000
0001
0010
0000
0010
1000
0000
,  // measure 46
0001
0000
1000
0001
0100
0001
1000
0100
,  // measure 47
1000
0000
0001
0100
0000
0100
1000
0000
,  // measure 48
0001
0000
1000
0010
0100
0010
1000
0001
,  // measure 49
1000
0000
1000
0100
0000
0100
0001
0000
,  // measure 50
1000
0010
0010
0010
0010
0010
0010
0010
,  // measure 51
0100
0000
0001
0000
0001
0000
0001
0000
0001
0000
0001
0000
0001
1000
0001
1000
,  // measure 52
0001
0000
0011
0000
0001
0100
0010
0000
1010
0000
0000
0000
,  // measure 53
1100
0000
0101
0000
0001
0100
0010
0000
0110
0000
0100
0001
,  // measure 54
0010
0000
0110
0000
0100
1000
0010
0000
0010
0100
0001
1000
,  // measure 55
0001
0000
1010
0000
1000
0100
1000
0010
0001
0010
1000
0100
,  // measure 56
0001
0000
0101
0000
0100
0010
0001
0000
0011
0000
0000
0000
,  // measure 57
0001
0000
0101
0000
0100
0010
1000
0000
1001
0000
1000
0001
,  // measure 58
0100
0000
0110
0000
0010
0100
0001
0000
1000
0001
0010
0100
,  // measure 59
0010
0000
0011
0000
0001
0100
0001
0010
1000
0010
0001
0100
,  // measure 60
0010
0000
0000
0000
,  // measure 61
1000
0000
0010
0000
0100
0000
0001
0000
1000
0010
0100
0001
1000
0000
0010
0000
,  // measure 62
1000
1000
0001
0010
0010
0001
1000
1000
,  // measure 63
0001
0100
0100
0010
1000
1000
0100
0010
,  // measure 64
0010
0100
1000
1000
0001
0100
0100
0010
,  // measure 65
1000
0100
0010
0001
1000
0100
0010
0001
,  // measure 66
1000
0001
0100
0100
0001
1000
0010
0010
,  // measure 67
0010
0010
0010
0010
1000
0001
0100
0000
,  // measure 68
0001
0001
0001
0001
0001
0001
0001
0001
,  // measure 69
1000
0100
0001
0100
1000
0000
0001
0001
,  // measure 70
0001
0001
1000
0100
0100
1000
0001
0001
,  // measure 71
1000
0010
0010
0100
0001
0001
0010
0100
,  // measure 72
0100
0010
0001
0001
1000
0010
0010
0100
,  // measure 73
0001
0010
0100
1000
0001
0010
0100
1000
,  // measure 74
0001
1000
0010
0010
1000
0001
0100
0100
,  // measure 75
0100
0100
0100
0100
0001
1000
0010
0000
,  // measure 76
1000
1000
1000
1000
1000
1000
1000
1000
,  // measure 77
0100
0100
0100
0100
0100
0100
0100
0100
,  // measure 78
0010
0010
0010
0010
0001
0001
0001
0001
,  // measure 79
1001
0000
0000
0000
0000
0000
0000
0000
1000
0000
0001
0000
0100
0010
1000
0001
,  // measure 80
0010
1000
0010
0000
0100
0010
0001
0000
,  // measure 81
0001
0100
1100
0000
0101
0000
1001
0000
,  // measure 82
0001
1000
0010
0000
1000
0010
0001
0000
,  // measure 83
0010
0100
0002
2003
3020
2030
3001
0000
,  // measure 84
1000
0100
0010
0000
0100
1000
0010
0000
,  // measure 85
0001
0010
1010
0000
0011
0000
1001
0000
,  // measure 86
1010
0010
0010
0000
0101
0100
0100
0000
,  // measure 87
0110
0000
0010
0000
1000
0000
0001
0000
0010
0000
0100
1000
0001
0000
0000
0000
,  // measure 88
1000
0000
0000
0001
0000
0000
0020
0000
0000
0000
0000
0000
0031
0000
0100
0000
0010
0000
1000
0000
0001
0000
0010
0000
,  // measure 89
0100
0010
0001
0100
0010
1000
0001
0010
0001
1000
0010
1000
,  // measure 90
0001
0000
1100
0000
1100
0000
0001
1000
0100
0001
0100
1000
,  // measure 91
0010
1000
0100
1000
0000
0001
0100
0000
,  // measure 92
0110
0000
0000
0000
0000
0000
1000
0001
0100
0000
0010
1000
0001
0000
1000
0000
;
