#TITLE:Mirai Sekai pt 2: Neo Tokyo;
#SUBTITLE:;
#ARTIST:Varien & 7 Minutes Dead;
#TITLETRANSLIT:;
#SUBTITLETRANSLIT:;
#ARTISTTRANSLIT:;
#GENRE:;
#CREDIT:;
#BANNER:Mirai Sekai pt 2 Neo Tokyo.png;
#BACKGROUND:Mirai Sekai pt 2 Neo Tokyo-bg.png;
#LYRICSPATH:;
#CDTITLE:;
#MUSIC:Mirai Sekai pt 2 Neo Tokyo.ogg;
#OFFSET:-8.136002;
#SAMPLESTART:21.469334;
#SAMPLELENGTH:21.333336;
#SELECTABLE:YES;
#BPMS:0.000000=90.000000
;
#STOPS:
;
#BGCHANGES:;
#KEYSOUNDS:;
#ATTACKS:;

//---------------dance-single - ----------------
#NOTES:
     dance-single:
     :
     Hard:
     6:
     0.258568,0.372811,0.036055,0.180276,0.111771,251.000000,246.000000,5.000000,25.000000,0.000000,0.000000,0.258568,0.372811,0.036055,0.180276,0.111771,251.000000,246.000000,5.000000,25.000000,0.000000,0.000000:
0000
0000
0000
0000
,
1000
1000
1000
0100
,
1000
1000
0001
0010
,
0100
0100
0100
0010
,
0001
0001
0100
0100
,
0001
0010
0001
1000
0100
0000
1000
0000
,
0001
0100
0020
2030
,
3200
1300
0100
1000
,
0010
0100
0001
0010
,
0100
1000
0010
0100
0001
0000
0010
0000
,
0100
0010
0002
1003
,
0001
0100
0010
0100
0001
0000
1000
0000
,
0100
0000
1000
0000
0001
0010
0100
0010
,
0002
0000
0000
0000
0000
0000
2003
0002
,
3000
0023
0000
0000
0000
0000
0032
0200
,
0003
0320
0000
0000
0000
0000
2030
0200
,
0000
0000
3000
2300
0000
0000
3002
0000
,
2003
3020
0000
0000
0000
0000
0000
0000
,
0000
0230
0000
0000
0000
0000
0302
0000
,
2003
3002
0203
0002
0000
0000
0000
0000
,
0000
0000
0000
0000
0000
0000
0000
0303
,
0010
1000
0100
0000
0010
0100
1000
0000
,
0001
0100
1000
0000
1000
0100
0010
0000
,
0100
0000
0001
0000
0010
0000
0100
1000
0100
0000
1000
0001
0000
0001
0100
0000
,
0100
0010
0000
0010
1000
0000
1000
0001
0000
0001
0010
0000
0010
0100
0000
0100
,
1000
0000
0001
1000
0001
0000
0100
0010
,
0100
0000
0100
0010
1000
0000
0010
0000
,
0100
0001
0000
0100
0000
0000
0010
0000
1000
0000
0100
0000
0010
0000
0000
0000
,
0100
0010
0000
0001
0000
0000
0010
0000
0001
0000
1000
0000
0010
0000
1000
0000
,
0100
0000
1000
0000
1010
0000
0000
0000
1000
0000
0000
0000
0001
0000
0010
0001
,
0100
0000
0010
0100
0001
1000
0100
0000
,
0010
0000
0100
0000
1100
0000
0000
0000
1000
0000
0000
0000
0001
0000
1000
0010
,
0100
0000
0010
0100
0001
0010
0001
0000
,
1000
0010
0011
0000
0010
0000
0100
0000
,
0001
0000
1000
0001
0100
0000
0001
1000
0100
0000
0100
0010
0001
0000
0010
0001
,
0100
0010
1010
0000
1000
0000
0010
0000
,
1000
0000
0001
0010
0001
1000
0010
0100
,
0010
1000
0000
0100
0000
0000
0010
0000
0100
0000
1000
0000
0001
0000
1000
0010
,
0100
0000
0010
0100
0001
0010
0100
0000
,
0010
0100
0000
1000
0000
0000
1000
0000
0001
0000
0000
0000
0000
0000
0001
1000
,
0010
0000
0100
0001
0010
0001
1000
0000
,
0001
0010
1000
0000
0010
0000
0100
0010
,
0001
0000
0010
0001
0100
0000
0100
0010
1000
0000
1000
0010
0100
0000
0100
0001
,
0010
0100
0010
0000
0001
0000
1000
0001
,
0100
0000
0000
0000
0000
0001
0000
1000
0000
0000
0000
0000
0010
0000
0000
0000
,
2002
0000
0000
0000
,
0000
0000
0000
0000
,
3003
0000
0000
0000
;

//---------------dance-single - ----------------
#NOTES:
     dance-single:
     :
     Medium:
     4:
     0.185427,0.237244,0.036055,0.100955,0.000000,180.000000,175.000000,5.000000,14.000000,0.000000,0.000000,0.185427,0.237244,0.036055,0.100955,0.000000,180.000000,175.000000,5.000000,14.000000,0.000000,0.000000:
0000
0000
0000
0000
,
0001
0001
0001
1000
,
0001
0001
0100
0001
,
0010
0010
0010
0001
,
1000
1000
1000
1000
,
0001
0100
0001
0010
0000
0000
0000
0000
,
0000
0000
0100
1000
,
0001
0000
0000
0000
,
0000
0000
0000
0000
,
1000
0010
0100
0001
0000
0000
0000
0000
,
0000
0000
0010
0000
,
0001
0010
1000
0010
0000
0000
0100
0000
,
0100
0000
0000
0000
0010
0001
1000
0100
,
2000
0000
0000
0000
0000
0000
3001
2000
,
0000
3002
0000
0000
0000
0000
0103
0002
,
0000
0023
0000
0000
0000
0000
0031
2000
,
0000
0000
0000
3200
0000
0000
2300
0000
,
3010
0200
0000
0000
0000
0000
0000
0000
,
0000
0302
0000
0000
0000
0000
0023
0000
,
0031
0100
1000
0200
0000
0000
0000
0000
,
0000
0000
0000
0000
,
0310
1000
0100
0000
0010
0000
0011
0000
,
0001
0100
0010
0000
1000
0000
1001
0000
,
0001
1000
0100
0000
1000
0000
1010
0000
,
0010
0100
0001
0000
0010
0000
0110
0000
,
0100
0000
1000
1000
0100
0000
0100
0100
,
0010
0000
0010
0010
0001
0000
1000
1000
,
0001
0100
1000
0000
0100
0000
0001
0000
,
0010
1000
0010
0000
0001
0000
0100
0000
,
0010
0100
0001
0000
0000
0000
0000
1000
,
0001
0000
0100
0001
0010
0000
0000
0000
,
0100
1000
0010
0000
0000
0000
0000
0100
,
0010
0000
0100
0001
1000
0000
0000
0000
,
0100
1000
0010
0000
0000
0000
0000
0000
,
0100
0010
1000
0001
,
1000
0001
0100
0000
0000
0000
0000
0000
,
0010
0000
0000
0100
0001
1000
0100
0000
,
1000
0100
0001
0000
0100
0000
0010
0001
,
0010
0000
1000
0010
0001
0000
0100
0000
,
1000
0100
0001
0000
0010
0000
0100
0000
,
1000
0000
0100
1000
0010
0000
0100
0000
,
0010
1000
0001
0000
0010
0000
0001
0000
,
1000
0100
0001
0100
1000
0100
0001
0100
,
1000
0010
0100
0000
0001
0000
1000
0000
,
0001
0000
0100
0010
1000
0000
0100
0000
,
2002
0000
0000
0000
,
0000
0000
0000
0000
,
3003
0000
0000
0000
;

//---------------dance-single - ----------------
#NOTES:
     dance-single:
     :
     Easy:
     1:
     0.080352,0.135568,0.007211,0.072111,0.000000,78.000000,77.000000,1.000000,10.000000,0.000000,0.000000,0.080352,0.135568,0.007211,0.072111,0.000000,78.000000,77.000000,1.000000,10.000000,0.000000,0.000000:
0000
0000
0000
0000
,
0000
0000
0000
0000
,
0000
0000
0000
0000
,
0000
0000
0000
0000
,
0000
0000
0000
0000
,
1000
0001
0100
0000
,
0000
0000
0010
0100
,
0010
0000
0000
0000
,
0000
0000
0000
0000
,
1000
0010
0100
0000
,
0000
0000
0001
0001
,
1000
0010
1000
0000
,
0000
0000
0100
0010
,
0002
0000
0000
0003
,
2000
0000
0000
3000
,
0020
0000
0000
0030
,
0200
0000
0000
0300
,
0020
0000
0000
0030
,
2000
0000
0000
3000
,
0002
0000
0000
0003
,
0200
0000
0000
0300
,
0010
0000
1000
0000
,
0001
0000
0100
0000
,
0010
0000
1000
0001
,
1000
0001
1000
0001
,
0010
0000
0001
0000
,
0100
0000
0010
0000
,
1000
1000
0000
0000
,
0001
0001
0000
0000
,
0100
0010
0000
0000
,
1000
0000
1000
0000
,
0001
0010
0000
0000
,
0001
0000
0001
0000
,
1000
0000
0000
0000
,
0001
1000
0010
0100
,
0001
0000
0000
0000
,
1000
0000
0010
0000
,
0100
0010
0000
0000
,
1000
0000
0001
0000
,
0100
0001
0000
0000
,
0010
0000
0001
0000
,
1000
0100
0000
0000
,
1000
0010
0100
0001
,
1000
0000
0000
0000
,
0001
0000
1000
0000
,
0220
0000
0000
0000
,
0000
0000
0000
0000
,
0330
0000
0000
0000
;

//---------------dance-single - ----------------
#NOTES:
     dance-single:
     :
     Beginner:
     1:
     0.054598,0.084730,0.014422,0.000000,0.000000,53.000000,51.000000,2.000000,0.000000,0.000000,0.000000,0.054598,0.084730,0.014422,0.000000,0.000000,53.000000,51.000000,2.000000,0.000000,0.000000,0.000000:
// measure 0
0000
0000
0000
0000
,  // measure 1
0000
0000
0000
0000
,  // measure 2
0000
0000
0000
0000
,  // measure 3
0000
0000
0000
0000
,  // measure 4
0000
0000
0000
0000
,  // measure 5
1000
0000
0000
0000
,  // measure 6
0000
0000
0001
0000
,  // measure 7
0010
0000
0000
0000
,  // measure 8
0000
0000
0000
0000
,  // measure 9
0001
0000
0000
0000
,  // measure 10
0000
0000
1000
0000
,  // measure 11
0010
0000
0000
0000
,  // measure 12
0000
0000
0100
0000
,  // measure 13
0010
0000
0000
0000
,  // measure 14
1000
0000
0000
0000
,  // measure 15
0001
0000
0000
0000
,  // measure 16
0010
0000
0000
0000
,  // measure 17
0001
0000
0000
0000
,  // measure 18
1000
0000
0000
0000
,  // measure 19
0010
0000
0000
0000
,  // measure 20
0100
0000
0000
0000
,  // measure 21
0001
0000
0001
0000
,  // measure 22
0001
0000
0000
0000
,  // measure 23
1000
0000
1000
0000
,  // measure 24
1000
0000
0000
0000
,  // measure 25
0010
0000
0000
0000
,  // measure 26
0010
0000
0000
0000
,  // measure 27
0100
0000
0000
0000
,  // measure 28
0100
0000
0000
0000
,  // measure 29
0001
0001
0000
0000
,  // measure 30
1000
0000
0000
0000
,  // measure 31
0100
0100
0000
0000
,  // measure 32
0010
0000
0000
0000
,  // measure 33
0001
0001
0000
0000
,  // measure 34
1000
0000
0001
0000
,  // measure 35
1000
0000
0000
0000
,  // measure 36
0010
0000
0000
0000
,  // measure 37
0100
0100
0000
0000
,  // measure 38
0010
0000
0000
0000
,  // measure 39
1000
1000
0000
0000
,  // measure 40
0001
0000
0000
0000
,  // measure 41
0010
0000
0000
0000
,  // measure 42
0001
0000
1000
0000
,  // measure 43
0010
0000
0000
0000
,  // measure 44
0100
0000
0010
0000
,  // measure 45
1001
0000
0000
0000
,  // measure 46
0000
0000
0000
0000
,  // measure 47
1001
0000
0000
0000
;
