#TITLE:Mirai Sekai Pt. 3: Aeon Metropolis;
#SUBTITLE:;
#ARTIST:Varien & 7 Minutes Dead;
#TITLETRANSLIT:;
#SUBTITLETRANSLIT:;
#ARTISTTRANSLIT:;
#GENRE:;
#CREDIT:;
#BANNER:Mirai Sekai pt 3 Aeon Metropolis.png;
#BACKGROUND:Mirai Sekai pt 3 Aeon Metropolis-bg.png;
#LYRICSPATH:;
#CDTITLE:;
#MUSIC:Mirai Sekai pt 3 Aeon Metropolis.mp3;
#OFFSET:-0.077000;
#SAMPLESTART:8.054999;
#SAMPLELENGTH:16.000000;
#SELECTABLE:YES;
#DISPLAYBPM:0.000000:120.000000;
#BPMS:0.000000=120.000000
,144.000000=119.000000
,160.000000=120.000000
;
#STOPS:
;
#BGCHANGES:;
#KEYSOUNDS:;
#ATTACKS:;

//---------------dance-single - ----------------
#NOTES:
     dance-single:
     :
     Hard:
     7:
     0.352538,0.454223,0.231353,0.254488,0.057838,320.000000,290.000000,30.000000,33.000000,0.000000,0.000000,0.352538,0.454223,0.231353,0.254488,0.057838,320.000000,290.000000,30.000000,33.000000,0.000000,0.000000:
0000
0000
0000
0000
,
0000
0000
0000
0000
,
0000
0000
0000
0000
,
0000
0000
0000
0000
,
1000
0000
0100
0000
0001
0000
0100
0000
0010
0000
0000
0010
0000
0000
0010
0000
,
0001
0000
0100
0000
1000
0000
0100
0000
0010
0000
0000
1000
0000
0000
0001
0000
,
1000
0010
0001
0010
0100
0001
0010
0100
,
0010
0000
0001
0000
1000
0000
0010
0100
,
0001
0000
1000
0000
0010
0000
1000
0000
0100
0000
0000
0100
0000
0000
0100
0000
,
0010
0000
0001
0000
0100
0000
0010
0000
1000
0000
0000
0001
0000
0000
0010
0000
,
0100
1000
0010
0100
0001
0000
1000
0000
,
0000
0000
0000
0000
0100
0000
0100
0000
0010
0000
0001
0000
1000
0000
0010
0100
,
0002
0000
0100
0000
0013
0100
0010
1000
,
0200
0000
0010
0000
1000
0000
0310
0001
,
0020
0000
0130
0002
0000
0013
0002
0000
,
0203
0000
0001
0000
0010
0000
0301
1000
,
0200
0000
0010
0000
1000
0000
0310
0100
,
2000
0000
3001
0200
0000
0310
0100
0001
,
0020
0100
0001
0100
,
0001
0000
0130
0020
0000
0130
0010
0001
,
1001
0000
1000
0000
0001
0100
0001
0020
,
0000
0000
0000
0000
0130
1000
0100
0020
,
0000
0000
0000
0000
0130
1000
0001
1000
,
0000
0000
0001
0000
1000
0100
0001
0100
,
0000
0000
0010
0000
0100
0010
0001
2000
,
0000
0000
0000
0000
3001
0100
0001
1000
,
0200
0000
0000
0000
2300
0000
0000
3010
,
0100
0010
0000
1000
0001
0000
0010
0100
0000
1000
0001
0000
0100
0000
0010
0000
,
1001
0000
0101
0000
0001
0100
0010
1000
,
0100
0000
1100
0000
1000
0100
1000
0010
,
0100
0000
0101
0000
0001
0100
0010
1000
,
0100
0000
1100
0000
1000
0100
0001
0100
,
0010
0000
0011
0000
0001
0100
0010
1000
,
0100
0000
1100
0000
0100
0010
0100
1000
,
0020
0000
0000
0000
0230
0000
0000
0302
,
0000
0000
0000
2003
0000
0000
3001
1000
,
0010
1000
0100
0001
,
0100
1000
0010
0001
,
0010
0100
0001
1000
,
0100
0000
1000
0000
0010
0000
0100
0001
,
0000
0100
0001
0010
,
0001
1000
0100
1000
,
0010
0100
0001
1000
,
0000
0000
0001
0100
1000
0010
0001
1000
,
1010
0000
0000
0000
0101
0000
0000
0000
0001
0000
0000
0010
0000
0000
0100
0000
,
1100
0000
0000
0000
0110
0000
0000
0000
0010
0000
0000
0001
0000
0000
0010
0000
,
1100
0011
0101
1010
,
1001
0000
1010
0000
0101
0000
0110
0100
,
0001
0000
0000
0000
0011
0000
0000
0000
0110
0000
0000
0100
0000
0000
1000
0000
,
1010
0000
0000
0000
0101
0000
0000
0000
0011
0000
0000
0010
0000
0000
0100
0000
,
1100
0110
1100
1010
,
0000
0000
0000
0000
1000
0000
1000
0000
0001
0000
0010
0000
0100
0010
0001
1000
,
0020
0000
0000
0000
0000
0130
0001
2000
,
0000
0000
0000
0000
0000
0000
3001
1000
,
0200
0000
0000
2300
0000
0000
3020
0000
,
0230
0000
0010
0000
0001
0000
0310
1000
,
0200
0000
0010
0000
1000
0000
0310
0001
,
0200
0000
0310
2000
0000
3010
0100
0001
,
0020
0100
0001
0100
,
0001
0000
0130
2000
0000
3100
0010
0001
,
2002
0000
0000
0000
,
0000
0000
0000
0000
,
3003
0000
0000
0000
;

//---------------dance-single - ----------------
#NOTES:
     dance-single:
     :
     Medium:
     5:
     0.251183,0.358597,0.107965,0.269912,0.000000,228.000000,214.000000,14.000000,35.000000,0.000000,0.000000,0.251183,0.358597,0.107965,0.269912,0.000000,228.000000,214.000000,14.000000,35.000000,0.000000,0.000000:
0000
0000
0000
0000
,
0000
0000
0000
0000
,
0000
0000
0000
0000
,
0000
0000
0000
0000
,
1000
0001
0100
0101
,
0001
1000
0100
1100
,
1000
0001
0010
0001
,
1000
0000
0100
0000
0010
0000
0100
1000
,
0100
1000
0010
1010
,
1000
0001
0010
0011
,
0001
1000
0010
0100
,
0000
0000
0001
0001
0100
0010
1000
0001
,
0020
0000
0000
0000
0000
0130
0010
0002
,
0000
0000
0000
0000
0000
0000
1003
0001
,
0200
0000
0000
0320
0000
0000
0230
0000
,
0302
0000
0000
0000
0000
0000
1003
0001
,
0200
0000
0000
0000
0000
0000
0301
1000
,
0200
0000
0000
2300
0000
3100
1000
0010
,
0200
0000
0000
0000
,
0000
0000
0000
0320
0000
0130
0010
1000
,
0001
1000
0100
1000
,
0010
0000
0100
0001
,
0000
0000
0010
0100
,
0000
0010
0001
1000
,
0000
0100
1000
0010
,
0100
0000
0010
0100
,
0002
0000
0000
0000
2003
0000
0000
3020
,
0000
0000
0000
2030
0000
0000
3100
1000
,
0010
0000
1000
0000
0010
1000
0010
0200
,
0000
0000
0000
0000
0310
0100
0001
2000
,
0000
0000
0000
0000
3001
0010
0100
2000
,
0000
0000
3100
0000
1000
0100
0010
0001
,
0010
0000
0001
0000
0100
0010
1000
0002
,
0000
0000
0000
0000
1003
0001
0100
0001
,
2000
0000
0000
0000
3200
0000
0000
0320
,
0000
0000
0000
0230
0000
0000
1300
0010
,
0100
0001
0010
0001
,
0100
0010
1000
0100
,
1000
0001
0100
0010
,
1000
0000
0001
0000
0010
0000
0100
0010
,
0000
0100
0010
0001
,
1000
0010
0100
0001
,
1000
0100
1000
0010
,
0000
0000
0100
0100
0010
0100
0001
1000
,
0001
1001
1000
1010
,
1000
1001
0001
0011
,
0001
1001
1000
1010
,
1000
0000
0010
0000
0100
0000
0010
1000
,
0001
1000
1100
1000
,
0001
0100
0101
0001
,
1000
0100
1100
1100
,
0000
0000
0100
0010
0001
1000
0010
0100
,
0002
0000
0000
0000
0000
1003
0001
0200
,
0000
0000
0000
0000
0000
0000
0310
1000
,
0200
0000
0000
2300
0000
0000
3002
0000
,
0200
0000
0000
0000
0000
0003
0301
0100
,
0020
0000
0000
0000
0000
0000
0130
0001
,
2000
0000
0000
3002
0000
0013
0100
1000
,
0200
0000
0000
0000
,
0000
0000
0000
0320
0000
0130
1000
0010
,
0200
0000
0000
0000
,
0000
0000
0000
0000
,
0300
0000
0000
0000
;

//---------------dance-single - ----------------
#NOTES:
     dance-single:
     :
     Easy:
     2:
     0.157540,0.215158,0.023135,0.177371,0.000000,143.000000,140.000000,3.000000,23.000000,0.000000,0.000000,0.157540,0.215158,0.023135,0.177371,0.000000,143.000000,140.000000,3.000000,23.000000,0.000000,0.000000:
0000
0000
0000
0000
,
0000
0000
0000
0000
,
0000
0000
0000
0000
,
0000
0000
0000
0000
,
1000
0001
0100
0000
,
0001
1000
0010
0000
,
1000
0001
0010
0001
,
1000
0001
1000
0100
,
1000
0010
0100
0000
,
0010
1000
0100
0000
,
0010
0001
0100
0010
,
0000
0100
0100
0010
,
2000
0000
0000
3000
,
0002
0000
0000
0003
,
0200
0000
0000
0300
,
0020
0000
0000
1030
,
0002
0000
0000
1003
,
0002
0000
0000
0103
,
0020
0000
0000
0000
,
0000
0000
1030
0001
,
1001
0000
0000
0000
,
0000
0000
0000
0000
,
0000
0000
0000
0000
,
0000
0000
0000
0000
,
0010
0000
1000
0000
,
0001
0000
0100
0000
,
0001
0000
1000
0000
,
0001
0100
0010
1000
,
0000
0001
1000
0010
,
2000
0000
3010
0100
,
0001
0010
0001
1000
,
0100
1000
0010
0100
,
0000
0010
1000
0001
,
0020
0000
0031
0010
,
0200
0000
2300
0000
,
3020
0000
0230
0000
,
0301
0000
1000
0000
,
0010
0000
0100
0000
,
0001
0000
1000
0000
,
0100
1000
0010
0100
,
0000
0001
1000
0001
,
0100
0001
0010
0001
,
1000
0100
0010
0001
,
0000
1000
0001
0100
,
0001
1000
0010
0000
,
1000
0010
0100
0000
,
0010
0100
0001
0100
,
0010
1000
0001
0010
,
0000
0100
0010
0001
,
1000
0001
0100
0001
,
1000
0100
0010
0100
,
0000
1000
0001
0100
,
0020
0000
0000
0030
,
0200
0000
0000
0300
,
0002
0000
0000
0003
,
2002
0000
3003
0001
,
2000
0000
0000
3001
,
2000
0000
3001
1000
,
0020
0000
0000
0000
,
0000
0000
0130
0010
,
2002
0000
0000
0000
,
0000
0000
0000
0000
,
3003
0000
0000
0000
;

//---------------dance-single - ----------------
#NOTES:
     dance-single:
     :
     Beginner:
     1:
     0.071609,0.115676,0.007712,0.000000,0.000000,65.000000,64.000000,1.000000,0.000000,0.000000,0.000000,0.071609,0.115676,0.007712,0.000000,0.000000,65.000000,64.000000,1.000000,0.000000,0.000000,0.000000:
// measure 0
0000
0000
0000
0000
,  // measure 1
0000
0000
0000
0000
,  // measure 2
0000
0000
0000
0000
,  // measure 3
0000
0000
0000
0000
,  // measure 4
1000
0000
0000
0000
,  // measure 5
0001
0000
0000
0000
,  // measure 6
0100
0000
0000
0000
,  // measure 7
0010
0000
0000
0000
,  // measure 8
1000
0000
0000
0000
,  // measure 9
0001
0000
0000
0000
,  // measure 10
0010
0000
0000
0000
,  // measure 11
0000
0001
0000
1000
,  // measure 12
0010
0000
0000
0000
,  // measure 13
0100
0000
0000
0000
,  // measure 14
0001
0000
0000
0000
,  // measure 15
1000
0000
0000
0000
,  // measure 16
0100
0000
0000
0000
,  // measure 17
0100
0000
1000
0000
,  // measure 18
0001
0000
0000
0000
,  // measure 19
0000
0000
0100
0000
,  // measure 20
0010
0000
0000
0000
,  // measure 21
0000
0000
0000
0000
,  // measure 22
0000
0000
0000
0000
,  // measure 23
0000
0000
0000
0000
,  // measure 24
1000
0000
0000
0000
,  // measure 25
0000
0000
0000
0000
,  // measure 26
0000
0000
0000
0000
,  // measure 27
0001
0000
1000
0000
,  // measure 28
0010
0000
0000
0000
,  // measure 29
0100
0000
0000
0000
,  // measure 30
0010
0000
0000
0000
,  // measure 31
1000
0000
0001
0000
,  // measure 32
1000
0000
0000
0000
,  // measure 33
0010
0000
0000
0000
,  // measure 34
1000
0000
0000
0000
,  // measure 35
0100
0000
1000
0000
,  // measure 36
0001
0000
0000
0000
,  // measure 37
1000
0000
0000
0000
,  // measure 38
0010
0000
0000
0000
,  // measure 39
0100
0000
0010
0000
,  // measure 40
1000
0000
0000
0000
,  // measure 41
0001
0000
0000
0000
,  // measure 42
0100
0000
0000
0000
,  // measure 43
0000
0010
0000
0000
,  // measure 44
1000
0000
0000
0000
,  // measure 45
0001
0000
0000
0000
,  // measure 46
0010
0000
0001
0000
,  // measure 47
1000
0000
0001
0000
,  // measure 48
0100
0000
0000
0000
,  // measure 49
0010
0000
0000
0000
,  // measure 50
1000
0000
0000
0000
,  // measure 51
0000
0001
0001
0000
,  // measure 52
0100
0000
0000
0000
,  // measure 53
0010
0000
0000
0000
,  // measure 54
1000
0000
0000
0000
,  // measure 55
0001
0000
0000
0010
,  // measure 56
0001
0000
0000
0010
,  // measure 57
0001
0000
1000
0000
,  // measure 58
0010
0000
0000
0000
,  // measure 59
0000
0000
0100
0000
,  // measure 60
1001
0000
0000
0000
;
