#TITLE:Mirai Sekai Pt 1: Neo Seoul;
#SUBTITLE:;
#ARTIST:Varien & 7 Minutes Dead;
#TITLETRANSLIT:;
#SUBTITLETRANSLIT:;
#ARTISTTRANSLIT:;
#GENRE:;
#CREDIT:;
#BANNER:Mirai Sekai Pt 1 Neo Seoul.png;
#BACKGROUND:Mirai Sekai Pt 1 Neo Seoul-bg.png;
#LYRICSPATH:;
#CDTITLE:;
#MUSIC:Mirai Sekai Pt 1 Neo Seoul.ogg;
#OFFSET:-0.020000;
#SAMPLESTART:86.419998;
#SAMPLELENGTH:19.200005;
#SELECTABLE:YES;
#BPMS:0.000000=100.000000
;
#STOPS:
;
#BGCHANGES:;
#KEYSOUNDS:;
#ATTACKS:;

//---------------dance-single - ----------------
#NOTES:
     dance-single:
     :
     Hard:
     7:
     0.339825,0.498776,0.038367,0.452735,0.283919,310.000000,305.000000,5.000000,59.000000,0.000000,0.000000,0.339825,0.498776,0.038367,0.452735,0.283919,310.000000,305.000000,5.000000,59.000000,0.000000,0.000000:
0000
0000
0000
0000
,
0000
0000
0000
0000
,
0000
0000
0000
0000
,
0000
0000
0000
0000
,
1001
0001
0010
0001
,
1001
1000
1000
0100
,
1001
0001
1000
0010
,
1000
0100
0010
0001
,
1000
0010
1000
0001
,
1000
0100
1000
0001
,
1000
0001
0200
0000
0300
0000
0000
0000
,
0000
0000
0010
0000
,
1000
0000
0001
0100
0001
0000
0000
0000
0100
0000
0010
1000
0010
0000
0000
0000
,
1000
0000
0001
0010
0001
0000
0000
0000
0001
0000
1000
0010
1000
0000
0000
0000
,
0001
0000
1000
0100
1000
0000
0000
0000
1000
0000
0010
0100
0010
0000
0000
0000
,
0100
0000
0001
0100
0001
0000
0000
0000
0100
0000
0010
0100
0010
0000
0000
0000
,
1000
0000
0001
0100
0001
0000
0100
0010
0100
0000
0010
1000
0010
0000
1000
0000
,
0001
0000
1000
0100
1000
0000
0100
0010
0100
0000
0010
0001
0010
0000
0100
0000
,
2000
0100
0001
0010
,
3002
0100
0023
0100
,
0032
0000
1003
0010
0100
0000
0010
0000
1000
0000
0001
0100
0010
0000
0000
0000
,
0100
0000
0010
1000
0100
0000
0010
0000
0001
0000
0010
0100
2000
0000
3200
0000
,
0320
0000
0130
1000
0010
0000
0100
0000
0001
0000
1000
0001
0010
0000
0000
0000
,
0001
0000
1000
0001
0100
0000
0010
0000
1000
0000
0001
0000
0100
0000
0010
0000
,
2000
0000
0010
0000
0100
0000
3010
0100
,
0002
0010
0100
2003
,
3002
0000
0000
0000
0010
0000
0000
0000
2003
0000
0000
0000
3001
1000
0001
1000
,
0100
0010
0001
1000
0100
0010
0001
1000
0100
0010
0100
0000
0000
0000
0000
0000
,
1000
0001
1000
0001
0100
0000
0000
0000
0001
0000
0000
0010
0100
0000
1000
0000
,
0001
0100
0001
0000
0100
0001
0000
0001
0010
0000
0100
0000
1000
0100
1000
0000
,
0001
0100
0001
0100
0010
0000
0000
0100
0001
0000
0000
0001
1000
0000
0000
1000
,
0100
0000
0010
0000
0001
0000
0100
0000
1000
0000
0100
0000
0010
1000
0001
0000
,
1000
0010
0100
0001
0010
0000
0000
0100
1000
0000
0000
1000
0001
0000
0000
0001
,
0100
0010
1000
0000
0010
1000
0000
1000
0100
0000
0010
0000
0100
1000
0010
0000
,
0100
0001
0010
0001
1000
0000
0000
0001
1000
0000
0000
1000
0100
0000
0000
0100
,
0010
0001
0100
0010
1000
0001
0100
1000
0100
0000
1000
0100
0001
0010
0100
0000
,
0020
0000
0000
0032
0000
0000
2000
0000
0000
0000
0000
0000
0000
0000
3003
0000
,
0002
0000
0000
2003
0000
0000
0020
0000
0000
0000
0000
0000
0000
0000
3030
0000
,
2000
0000
0000
3002
0000
0000
0200
0000
0000
0000
0303
0000
0002
0000
0023
0000
,
0032
0023
0230
2300
0000
0000
3200
2300
,
0020
0000
0000
0000
0000
0000
0000
0000
0000
0000
3000
0000
0200
0000
0000
0030
,
0002
0000
0000
0000
0000
0000
0000
0300
2000
0000
0000
0003
0002
0000
0000
3000
,
0200
0000
0000
0000
0000
0000
0000
0000
0000
0000
0000
0003
0020
0000
0000
0300
,
0200
0000
0000
0000
0000
0000
0000
0000
0330
0000
0010
0100
0001
1000
0010
0100
,
0002
0000
0000
2003
0000
0000
0020
0000
0000
3030
1000
0001
0000
0001
0100
0000
,
0020
0000
0000
2030
0000
0000
0200
0000
0000
3300
0100
0010
0000
0010
0001
0000
,
0200
0000
0000
0302
0000
0000
2000
0000
0000
0000
0000
0003
3002
0000
0023
0000
,
0200
0000
0000
0000
0000
0000
0000
0030
0020
0000
0000
0000
0000
0000
0000
0300
,
0002
0000
0000
0000
0000
0000
0000
0000
0000
0000
0000
0030
2003
0000
3002
0000
,
0200
0000
0000
0000
0000
0000
0000
0303
0002
0000
0000
0000
2003
0000
0000
3000
,
0120
0000
0000
0000
0100
0000
0130
0010
,
0200
0010
0001
0310
,
1001
0000
0000
0000
;

//---------------dance-single - ----------------
#NOTES:
     dance-single:
     :
     Medium:
     5:
     0.258706,0.438923,0.038367,0.199510,0.107429,236.000000,231.000000,5.000000,26.000000,0.000000,0.000000,0.258706,0.438923,0.038367,0.199510,0.107429,236.000000,231.000000,5.000000,26.000000,0.000000,0.000000:
0000
0000
0000
0000
,
0000
0000
0000
0000
,
0000
0000
0000
0000
,
0000
0000
0000
0000
,
1001
0001
0010
0001
,
1001
1000
0100
1000
,
1001
0001
1000
0001
,
1001
1000
0001
1000
,
0001
0100
0001
0010
,
0001
0000
0000
0000
1000
0000
0000
0001
0000
0000
0000
0000
0100
0000
0000
0000
,
0020
0000
0030
0000
,
0000
0000
0100
0000
,
0010
1000
0100
0000
0010
0001
0100
0000
,
0010
1000
0100
0000
0010
0001
0100
0000
,
0001
1000
0010
0000
1000
0001
0010
0000
,
0001
1000
0010
0000
1000
0001
0010
0000
,
0001
0100
1000
0000
1000
0100
0001
0000
,
0001
0100
1000
0000
1000
0100
0010
1000
,
0100
0001
0100
0000
0100
1000
0100
0000
,
0100
0001
0100
0000
0100
0010
0001
1000
,
0020
1000
0130
0001
,
0010
0000
0001
0000
1000
0000
0100
1000
,
0002
0010
0103
0001
,
0010
0000
0100
0000
0010
0000
0001
1000
,
0020
0000
1000
0000
0100
0000
1030
0001
,
0020
0100
0001
0230
,
0320
0000
0001
0000
0230
0000
0310
0001
,
1000
0100
0010
0001
1000
0200
0000
0300
,
1000
0001
1000
0001
1000
0000
0000
0000
0010
0000
0000
0000
0100
0000
0000
0000
,
0001
0010
0001
0010
0001
0000
0000
0000
1000
0000
0000
0000
0010
0000
0000
0000
,
0100
0001
0100
0001
0100
0000
0000
0000
0010
0000
0000
0000
1000
0000
0000
0000
,
0001
1000
0001
1000
0001
0000
0000
0000
1000
0000
0000
0000
0100
0010
0001
0000
,
1000
0001
0100
0001
1000
0000
0000
0000
0010
0000
0000
0000
0100
0000
0000
0000
,
0010
1000
0001
0010
0100
0000
0000
0000
0010
0000
0000
0000
0001
0000
0000
0000
,
1000
0001
0100
0001
0010
0000
0000
0000
0001
0000
0000
0000
0100
0000
0000
0000
,
0010
1000
0010
0100
0001
0100
0010
1000
0001
0000
1000
0100
0010
0100
1000
0000
,
0001
0000
0000
0100
0000
0000
0020
0000
0000
0000
0000
0000
0000
0000
0000
0000
,
0130
0000
0000
0001
0000
0000
2000
0000
0000
0000
0000
0000
0000
0000
0000
0000
,
3100
0000
0000
1000
0000
0000
0020
0000
0000
0000
0000
0000
0130
0000
1000
0000
,
0100
0001
0010
0100
0000
0000
0010
0001
,
0200
0000
0000
0010
,
0320
0000
1000
1000
,
2030
0000
0000
0001
,
0002
0000
0000
3003
,
0001
0000
0000
0100
0000
0000
0020
0000
0000
0000
0000
0000
0100
0000
0000
0000
,
1030
0000
0000
0100
0000
0000
0020
0000
0000
0000
0000
0000
0001
0000
0000
0000
,
0130
0000
0000
0010
0000
0000
0002
0000
0000
0000
0000
0000
1003
0000
0001
0000
,
2000
0000
3020
0000
,
0230
0000
0000
0000
0000
0000
0310
1000
,
0200
0000
2300
3002
,
2000
0000
0003
0000
,
3100
0010
0100
0010
,
1001
0000
0000
0000
;

//---------------dance-single - ----------------
#NOTES:
     dance-single:
     :
     Easy:
     2:
     0.134834,0.219461,0.007673,0.199510,0.000000,123.000000,122.000000,1.000000,26.000000,0.000000,0.000000,0.134834,0.219461,0.007673,0.199510,0.000000,123.000000,122.000000,1.000000,26.000000,0.000000,0.000000:
0000
0000
0000
0000
,
0000
0000
0000
0000
,
0000
0000
0000
0000
,
0000
0000
0000
0000
,
1000
0000
0000
0000
,
0001
0000
0000
0000
,
0100
0000
0100
0000
,
0100
0000
0000
0000
,
0010
0000
0000
0000
,
0000
0000
0000
0000
,
2000
0000
3000
0000
,
0000
0000
0001
0000
,
1000
0000
0010
0000
,
0100
0000
0001
0000
,
0010
0000
0001
0000
,
1000
0000
0010
0000
,
1000
0001
1000
0001
,
0100
0010
0100
0010
,
2000
0000
0000
3000
,
0100
0000
0010
0000
,
0002
0000
0000
0000
,
0000
0000
0000
0000
0003
0000
1000
0010
,
2000
0000
0000
0000
,
0000
0000
0000
0000
0000
0000
3001
0100
,
0020
0000
0000
0000
0000
0000
0130
0001
,
2000
0000
0000
0001
,
3002
0000
0200
0000
,
0000
0000
0000
0000
0000
0303
0000
0000
,
0001
0010
0100
1000
,
0100
1000
0010
0100
,
0001
0001
1000
0001
,
0100
0000
0001
0000
0010
0000
0100
1000
,
0100
1000
0010
0100
,
0001
1000
0010
1000
,
0001
0100
0001
0010
,
0100
0000
0010
0000
0001
1000
0001
1000
,
0001
0100
0020
0000
,
1030
0001
2000
0000
,
3100
1000
0200
1300
,
0100
0010
0000
0100
,
2000
0000
0000
3001
,
0002
0000
1003
0001
,
0200
0000
0000
0310
,
2000
0000
0000
0000
,
3001
1000
0200
1300
,
0100
0010
0002
1003
,
0001
0000
0100
0000
0020
0000
1030
0010
,
0200
0000
0302
0000
,
0023
0000
0000
0000
0000
0000
0130
0010
,
0002
0000
2003
3002
,
0203
0000
0000
0000
0000
0000
0301
1000
,
0020
0000
0000
0030
,
1001
0000
0000
0000
;

//---------------dance-single - ----------------
#NOTES:
     dance-single:
     :
     Beginner:
     1:
     0.088793,0.139657,0.046041,0.000000,0.000000,81.000000,75.000000,6.000000,0.000000,0.000000,0.000000,0.088793,0.139657,0.046041,0.000000,0.000000,81.000000,75.000000,6.000000,0.000000,0.000000,0.000000:
// measure 0
0000
0000
0000
0000
,  // measure 1
0000
0000
0000
0000
,  // measure 2
0000
0000
0000
0000
,  // measure 3
0000
0000
0000
0000
,  // measure 4
0010
0000
0000
0000
,  // measure 5
1000
0000
0000
0000
,  // measure 6
0100
0000
0000
0000
,  // measure 7
0100
0000
0000
0000
,  // measure 8
1000
0000
0000
0000
,  // measure 9
1000
0000
0000
0000
,  // measure 10
0001
0000
0000
0000
,  // measure 11
0000
0000
0000
0000
,  // measure 12
0010
0000
0000
0000
,  // measure 13
0001
0000
0000
0000
,  // measure 14
1000
0000
0000
0000
,  // measure 15
0010
0000
0000
0000
,  // measure 16
1000
0000
1000
0000
,  // measure 17
1000
0000
0000
0001
,  // measure 18
0001
0000
0000
0000
,  // measure 19
0100
0000
0010
0000
,  // measure 20
1000
0000
0000
0000
,  // measure 21
0000
0000
0000
0001
,  // measure 22
1000
0000
0000
0000
,  // measure 23
0000
0000
0000
1000
,  // measure 24
0001
0000
0000
0001
,  // measure 25
0010
0000
0000
0100
,  // measure 26
0100
0000
1000
0000
,  // measure 27
0010
0000
1000
0000
,  // measure 28
1001
0000
0000
0000
,  // measure 29
0010
0000
0010
0000
,  // measure 30
1001
0000
0000
0000
,  // measure 31
0100
0000
0100
0000
,  // measure 32
0110
0000
0000
0000
,  // measure 33
1000
0000
1000
0000
,  // measure 34
0110
0000
0000
0000
,  // measure 35
0001
0000
1000
0001
,  // measure 36
0100
0000
0000
0000
,  // measure 37
0010
0000
0000
0000
,  // measure 38
1000
0000
0000
0001
,  // measure 39
0001
0001
0000
1000
,  // measure 40
1000
0000
0000
0010
,  // measure 41
0010
0000
0100
0100
,  // measure 42
0100
0000
0000
0010
,  // measure 43
0010
0000
0000
0000
,  // measure 44
1000
0000
0000
0001
,  // measure 45
1000
0000
0000
0001
,  // measure 46
0100
0000
0000
0010
,  // measure 47
0010
0000
1000
0000
,  // measure 48
0001
0000
0000
0010
,  // measure 49
0010
0000
0001
1000
,  // measure 50
1001
0000
0000
0010
,  // measure 51
0010
0000
0000
0000
,  // measure 52
1001
0000
0000
0000
;
