#VERSION:0.83;
#TITLE:Miracle 5ympho X;
#SUBTITLE:;
#ARTIST:USAO;
#TITLETRANSLIT:;
#SUBTITLETRANSLIT:;
#ARTISTTRANSLIT:;
#GENRE:;
#ORIGIN:;
#CREDIT:;
#BANNER:Miracle 5ympho X.png;
#BACKGROUND:Miracle 5ympho X-bg.png;
#PREVIEWVID:;
#JACKET:Miracle 5ympho X-jacket.png;
#CDIMAGE:;
#DISCIMAGE:;
#LYRICSPATH:;
#CDTITLE:;
#MUSIC:Miracle 5ympho X.mp3;
#OFFSET:-1.272999;
#SAMPLESTART:10.399713;
#SAMPLELENGTH:10.857142;
#SELECTABLE:YES;
#BPMS:0.000=210.000,
186.000=140.000,
187.000=105.000,
187.500=52.500,
191.000=210.000,
331.000=105.000,
331.500=52.500,
331.750=210.000;
#STOPS:28.000=0.857,
125.000=0.857,
190.875=1.000,
331.750=0.500;
#DELAYS:;
#WARPS:;
#TIMESIGNATURES:0.000=4=4;
#TICKCOUNTS:0.000=4;
#COMBOS:0.000=1;
#SPEEDS:0.000=1.000=0.000=0;
#SCROLLS:0.000=1.000;
#FAKES:;
#LABELS:0.000=Song Start;
#BGCHANGES:;
#KEYSOUNDS:;
#ATTACKS:
;

//---------------dance-single - ----------------
#NOTEDATA:;
#CHARTNAME:;
#STEPSTYPE:dance-single;
#DESCRIPTION:;
#CHARTSTYLE:;
#DIFFICULTY:Hard;
#METER:11;
#RADARVALUES:0.759418,1.219894,0.334736,0.215187,0.545939,667.000000,625.000000,42.000000,27.000000,0.000000,0.000000,4.000000,0.000000,0.000000,0.759418,1.219894,0.334736,0.215187,0.545939,667.000000,625.000000,42.000000,27.000000,0.000000,0.000000,4.000000,0.000000,0.000000;
#CREDIT:;
#NOTES:
// measure 0
0000
0000
0000
0000
,  // measure 1
0000
0000
0000
0000
,  // measure 2
0000
0000
0000
0000
,  // measure 3
0000
0000
0000
0000
,  // measure 4
0001
0001
1000
1000
,  // measure 5
0010
0010
0100
0100
,  // measure 6
0001
0000
0100
0000
0010
0000
1000
0001
,  // measure 7
2002
3003
1000
1000
1000
0000
0001
0000
,  // measure 8
0100
1000
0100
0010
,  // measure 9
1000
0000
0001
0001
0001
0000
0010
0000
,  // measure 10
0100
0000
0100
0000
0100
0000
0000
0000
1000
0000
0000
0000
0001
1000
0001
0000
,  // measure 11
0100
0000
0010
1000
0001
0000
0001
0000
0001
0000
0000
0000
1000
0000
0000
0000
,  // measure 12
0010
0100
0001
0010
,  // measure 13
0001
0000
1000
1000
1000
0001
0010
0001
,  // measure 14
0100
0001
1000
0001
0010
0001
1000
0001
,  // measure 15
0100
0001
0010
0000
0000
0000
0000
0000
,  // measure 16
0000
0000
1000
0100
0001
0100
0010
0000
,  // measure 17
0001
0000
0100
1000
0100
0010
1000
0000
,  // measure 18
0001
0000
0100
0010
0001
1000
0001
0000
,  // measure 19
0100
0000
0010
1000
0100
0010
0100
0000
,  // measure 20
0010
0000
0001
1000
0100
1000
0001
0000
,  // measure 21
1000
0000
0010
1000
0001
0100
0001
0000
,  // measure 22
1000
0000
0001
0010
1000
0010
0100
0000
,  // measure 23
1000
0000
0001
0100
1000
0100
0010
0000
,  // measure 24
1000
0000
0001
0000
0010
0000
0001
0100
,  // measure 25
0010
0000
1000
0000
0100
0000
1000
0001
,  // measure 26
0100
0010
1010
1000
,  // measure 27
1001
0001
0011
0010
,  // measure 28
0110
0000
0100
0000
1000
0000
0010
0100
,  // measure 29
0001
0000
1000
0000
0001
0000
0100
0010
,  // measure 30
1000
0011
0100
1010
,  // measure 31
0100
1001
0102
0100
,  // measure 32
0100
0000
0103
0001
0000
0010
0000
0100
,  // measure 33
1000
1001
2100
0100
,  // measure 34
0100
0000
3100
0010
0000
0001
0000
1000
,  // measure 35
0001
1001
0101
1010
,  // measure 36
0101
0000
0001
1001
0000
0101
0000
1000
,  // measure 37
1010
0110
1001
1001
,  // measure 38
1001
0000
0001
1000
0010
2000
0002
3003
,  // measure 39
0001
1000
0000
1000
0001
0000
0000
0000
0210
0000
0000
0000
0000
0000
0040
0000
,  // measure 40
0000
0000
0000
0330
0000
1000
0000
0010
,  // measure 41
0100
0000
0001
0000
0120
0000
0000
0400
,  // measure 42
0000
0000
0000
0330
0000
0100
0000
0010
,  // measure 43
1000
1000
1000
0000
2001
0000
0000
0004
,  // measure 44
0000
0000
0000
3003
0000
1000
0000
0010
,  // measure 45
0100
0000
0001
0000
1002
0000
0000
4000
,  // measure 46
0000
0000
0000
0000
0000
0000
0000
0000
0000
0000
0000
0000
3003
0000
0000
0000
1000
0000
0000
0000
0001
0000
0000
0000
0000
0020
0000
0000
0200
0000
0000
0000
,  // measure 47
0000
0000
0000
0000
0000
0000
0000
0000
0000
0030
0300
0000
1000
0001
1000
0001
,  // measure 48
1000
0001
1000
0001
1000
0001
1000
0001
1000
0001
1000
0001
1000
0001
1000
0001
,  // measure 49
1000
0001
1000
0000
0001
0000
0000
0100
0000
0000
0010
0000
0100
0010
0100
0010
,  // measure 50
0100
0010
0100
0010
0100
0010
0100
0010
0100
0010
0100
0010
0100
0000
0000
0000
,  // measure 51
0101
0000
0000
0000
1100
0000
0000
0000
0101
0000
0000
0000
0001
0010
0001
0010
,  // measure 52
0001
0010
0001
0010
0001
0010
0001
0010
0001
0010
0001
0010
0001
0010
0001
0010
,  // measure 53
0001
0010
0001
0010
0001
0000
0000
0001
0000
0000
1000
0000
0010
1000
0010
1000
,  // measure 54
0010
1000
0010
1000
0010
1000
0010
1000
0010
1000
0010
1000
0010
0000
0000
0000
,  // measure 55
1010
0000
0000
0000
1100
0000
0100
0000
1100
0000
1000
0000
0001
0100
0001
0100
,  // measure 56
0001
0100
0001
0100
0001
0100
0001
0100
0001
0100
0001
0100
0001
0100
0001
0100
,  // measure 57
0001
0100
0001
0100
0001
0000
0000
1000
0000
0000
0001
0000
1000
0010
1000
0010
,  // measure 58
1000
0010
1000
0010
1000
0010
1000
0010
1000
0010
1000
0010
1000
0000
0000
0000
,  // measure 59
0101
0000
0000
0000
0001
0000
0000
0000
1100
0000
0000
0000
0100
0010
0100
0010
,  // measure 60
0100
0010
0100
0010
0100
0010
0100
0010
0100
0010
0100
0010
0100
0010
0100
0010
,  // measure 61
0100
0010
0100
0010
0100
0000
0000
1000
0000
0000
0010
0000
1000
0100
1000
0100
,  // measure 62
0010
0100
0010
0100
0010
0001
0010
0001
0010
0100
0010
0100
1000
0000
0000
0000
,  // measure 63
0000
0000
0000
0000
0000
0000
0001
1000
,  // measure 64
0100
0000
0000
0010
0000
0000
0001
0000
0000
1000
0000
0000
0010
0000
1000
0010
,  // measure 65
1000
0000
0001
0000
0000
1000
0000
0100
0000
1000
0000
0001
1000
0000
0010
0000
,  // measure 66
0100
0000
0000
0001
0000
0000
0010
0001
0000
0010
0001
0010
0001
0000
1000
0001
,  // measure 67
1000
0000
0001
0000
0000
0100
0000
0010
0000
0000
1000
0000
0001
0000
1000
0000
,  // measure 68
0100
0000
0000
0010
0000
0000
0001
0000
0000
1000
0000
0000
0001
0000
1000
0010
,  // measure 69
1000
0000
0010
0000
0000
0100
0000
0001
0000
0010
0000
0000
0100
0000
1000
0000
,  // measure 70
0001
0000
0000
1000
0000
0000
0010
0100
0000
0001
1000
0001
1000
0001
1000
0001
,  // measure 71
1000
0001
1000
0001
1000
0001
1000
0001
1000
0001
1000
0000
0000
0000
0001
0100
,  // measure 72
0000
0000
0010
0000
0000
0000
1000
0100
0000
0000
0010
0000
0000
0000
0001
0100
,  // measure 73
0000
0000
0010
0000
0000
0000
1000
0001
0000
0000
0100
0000
0000
0000
0010
1000
,  // measure 74
0000
0000
0100
0000
0000
0000
0010
0001
0000
0000
0100
0000
0000
0000
0010
1000
,  // measure 75
0000
0000
0001
0000
0000
0000
0010
0100
0000
0000
1000
0000
0001
0000
0100
0010
,  // measure 76
0000
0000
1000
0000
0001
0000
0010
0100
0000
0000
1000
0000
0100
0000
0010
0001
,  // measure 77
0000
0000
1000
0000
0010
0000
0100
0001
0000
0000
0010
0000
0100
0000
1000
0001
,  // measure 78
0000
0000
0100
0000
0010
0000
1000
0010
0000
0000
0100
0000
0001
0000
1000
0000
,  // measure 79
0100
1000
0010
0001
0010
0100
0001
0000
,  // measure 80
0000
0000
0000
1000
0100
0001
0200
0000
,  // measure 81
0000
2300
0000
0000
0020
3000
0200
0030
,  // measure 82
0000
0000
0002
0000
0300
0000
0000
0000
2000
0000
0003
0000
0002
0000
0000
3003
,  // measure 83
1001
1001
1001
0001
0100
0010
1000
0100
,  // measure 84
0010
0100
1000
0010
0100
0001
0010
0100
,  // measure 85
1100
1100
1100
0100
0010
0001
1000
0100
,  // measure 86
0010
0000
0100
0000
1000
0000
0001
0000
1000
0010
1000
0010
1000
0010
1000
0010
,  // measure 87
1000
1010
1010
0010
0100
0001
0010
0001
,  // measure 88
0100
0010
1000
0100
0010
0001
1000
0010
,  // measure 89
0200
0310
1000
0200
0310
0200
1300
0200
,  // measure 90
0310
0200
0301
0200
1300
0200
0310
0200
,  // measure 91
1300
0000
0000
0000
0000
1000
0100
1000
,  // measure 92
0001
0000
0000
0100
0000
0000
0010
0000
,  // measure 93
1000
0000
0000
0001
0000
0000
1000
0000
,  // measure 94
0100
0000
0000
0010
0000
0000
0001
0000
,  // measure 95
1000
0000
0000
0000
0000
0001
0010
1000
,  // measure 96
0010
0000
0000
0100
0000
0000
1000
0000
,  // measure 97
0001
0000
0000
0100
0000
0000
1000
0000
,  // measure 98
0010
0000
0000
0001
0000
0000
1000
0000
;

//---------------dance-single - ----------------
#NOTEDATA:;
#CHARTNAME:;
#STEPSTYPE:dance-single;
#DESCRIPTION:;
#CHARTSTYLE:;
#DIFFICULTY:Medium;
#METER:8;
#RADARVALUES:0.447453,0.550920,0.223157,0.127518,0.047819,393.000000,365.000000,28.000000,16.000000,0.000000,0.000000,16.000000,0.000000,0.000000,0.447453,0.550920,0.223157,0.127518,0.047819,393.000000,365.000000,28.000000,16.000000,0.000000,0.000000,16.000000,0.000000,0.000000;
#CREDIT:;
#NOTES:
// measure 0
0000
0000
0000
0000
,  // measure 1
0000
0000
0000
0000
,  // measure 2
0000
0000
0000
0000
,  // measure 3
0000
0000
0000
0000
,  // measure 4
1000
1000
0001
0001
,  // measure 5
0100
0100
0010
0010
,  // measure 6
1000
0010
0100
0001
,  // measure 7
1001
0000
0001
0100
0001
0000
0100
0000
,  // measure 8
0010
1000
0010
0100
,  // measure 9
0001
0000
1000
0001
1000
0000
0001
0000
,  // measure 10
0100
0010
1000
0000
0010
0000
0100
0010
,  // measure 11
1000
0001
0100
0010
0100
0000
0010
0000
,  // measure 12
1000
0001
0010
0100
,  // measure 13
1000
0000
0100
0000
1000
0010
0000
0100
,  // measure 14
0000
0010
0000
1000
0000
0001
0000
0010
,  // measure 15
0000
0100
0000
0000
0000
0000
0000
0000
,  // measure 16
0000
2000
0000
3001
,  // measure 17
0100
2000
0000
3000
,  // measure 18
0100
0010
1000
0010
,  // measure 19
0100
0001
0000
1000
,  // measure 20
0100
0020
0000
0130
,  // measure 21
0010
0002
0000
0003
,  // measure 22
0001
0100
1000
0100
,  // measure 23
0010
1000
0010
0001
,  // measure 24
0010
0200
0000
0301
,  // measure 25
1000
0200
0000
0300
,  // measure 26
1000
0100
0100
1000
,  // measure 27
0010
0100
0100
0001
,  // measure 28
0010
0002
0000
1003
,  // measure 29
1000
0020
0030
0100
,  // measure 30
0001
0010
0000
0100
,  // measure 31
0000
1001
0001
1000
,  // measure 32
0010
0000
0100
0001
0000
0010
0000
1000
,  // measure 33
0010
0100
1000
0100
,  // measure 34
0010
0000
0001
1000
0000
0001
0000
1000
,  // measure 35
0010
0100
0001
1000
,  // measure 36
0100
0000
0010
0001
0000
0010
0000
0100
,  // measure 37
0010
0001
1000
0010
,  // measure 38
0100
0000
0010
1000
0001
0100
0010
0000
,  // measure 39
1000
0001
0100
0000
2001
0000
0000
0000
,  // measure 40
3001
1000
0010
1000
0000
0001
0000
0100
,  // measure 41
0010
1000
0012
0000
,  // measure 42
0013
0100
1000
0001
0000
0100
0000
0001
,  // measure 43
1000
0001
1000
0000
2010
0000
0000
0000
,  // measure 44
3010
1000
0001
0100
0000
0010
0000
0100
,  // measure 45
0001
1000
1200
0000
,  // measure 46
1300
0100
0010
0002
2000
0000
0000
0000
,  // measure 47
0000
0000
3003
0000
0000
0000
0000
0000
0000
0000
0000
0000
0004
4000
0000
0000
,  // measure 48
0000
0000
0000
0000
,  // measure 49
0000
0000
3003
0000
1000
0000
0000
0001
0000
0000
0100
0000
0040
0400
0000
0000
,  // measure 50
0000
0000
0000
0000
0000
0330
0110
0000
,  // measure 51
0110
0000
0000
0000
1001
0000
0000
0000
1001
0000
0000
0000
0004
0040
0000
0000
,  // measure 52
0000
0000
0000
0000
,  // measure 53
0000
0000
0033
0000
0001
0000
0000
0010
0000
0000
0100
0000
4000
0040
0000
0000
,  // measure 54
0000
0000
0000
0000
0000
3030
1010
0000
,  // measure 55
0101
0000
0000
0000
0001
0000
0010
0000
0001
0000
1000
0000
0004
0400
0000
0000
,  // measure 56
0000
0000
0000
0000
,  // measure 57
0000
0000
0303
0000
0100
0000
0000
0010
0000
0000
1000
0000
0004
0040
0000
0000
,  // measure 58
0000
0000
0000
0000
0000
0033
0011
0000
,  // measure 59
1100
0000
0000
0000
0011
0000
0000
0000
1100
0000
0000
0000
4000
0004
0000
0000
,  // measure 60
0000
0000
0000
0000
,  // measure 61
0000
0000
3003
0000
1000
0000
0000
0010
0000
0000
0001
0000
0040
0400
0000
0000
,  // measure 62
0000
0000
0000
0330
,  // measure 63
0000
0000
0000
0000
0000
0000
0001
1000
,  // measure 64
0000
0010
0000
0100
0000
0010
0000
0110
,  // measure 65
0000
1001
0000
0110
0000
1001
0000
1000
,  // measure 66
0000
1000
0000
0001
0000
0001
0000
0011
,  // measure 67
0000
1100
0000
0011
0000
1100
0000
1000
,  // measure 68
0000
0010
0000
0100
0000
0001
0000
0101
,  // measure 69
0000
1010
0000
0101
0000
1010
0000
0001
,  // measure 70
0000
0010
0000
0001
0000
0100
0010
0000
,  // measure 71
0010
0000
0100
0000
0100
0000
0000
0001
,  // measure 72
0100
1000
0000
0100
0010
1000
0000
0010
,  // measure 73
1000
0001
0000
0001
0010
0100
0000
0010
,  // measure 74
0001
0100
0000
0010
0100
0001
0000
1000
,  // measure 75
0001
0100
0000
0001
0100
0010
0000
0100
,  // measure 76
0010
1000
0000
0010
0100
0001
0000
0100
,  // measure 77
0010
1000
0000
0010
0100
0010
0000
0100
,  // measure 78
0001
0100
0000
0010
0100
0001
2000
0000
,  // measure 79
0000
0000
0000
3001
,  // measure 80
0000
0000
0000
0000
1000
0001
0010
0000
,  // measure 81
0000
0100
0000
0000
1000
0000
0100
0000
,  // measure 82
0000
0010
0000
0000
0001
0000
2000
0000
,  // measure 83
3001
0100
0001
0000
0100
0000
0010
0000
,  // measure 84
1000
0010
0100
0010
,  // measure 85
1000
0010
1000
0000
0010
0000
0100
0000
,  // measure 86
0001
0100
0010
1000
0001
1000
0001
1000
,  // measure 87
0001
0100
0001
0000
0100
0000
0010
0000
,  // measure 88
1000
0010
0100
0001
,  // measure 89
1000
0000
0100
1000
0000
0010
0000
0100
,  // measure 90
0000
0001
0000
0010
0000
0100
0000
1000
,  // measure 91
0001
0000
0000
0000
0000
1000
0100
0001
,  // measure 92
0100
0000
0000
1000
0000
0000
0010
0000
,  // measure 93
0001
0000
0000
0010
0000
0000
1000
0000
,  // measure 94
0001
0000
0000
1000
0000
0000
0001
0000
,  // measure 95
0100
0000
0000
0000
0000
0010
0001
0010
,  // measure 96
1000
0000
0000
0010
0000
0000
0100
0000
,  // measure 97
0001
0000
0000
0100
0000
0000
1000
0000
,  // measure 98
0010
0000
0000
0001
0000
0000
1000
0000
;

//---------------dance-single - ----------------
#NOTEDATA:;
#CHARTNAME:;
#STEPSTYPE:dance-single;
#DESCRIPTION:;
#CHARTSTYLE:;
#DIFFICULTY:Easy;
#METER:6;
#RADARVALUES:0.365477,0.511568,0.247067,0.215187,0.000000,321.000000,290.000000,31.000000,27.000000,0.000000,0.000000,0.000000,0.000000,0.000000,0.365477,0.511568,0.247067,0.215187,0.000000,321.000000,290.000000,31.000000,27.000000,0.000000,0.000000,0.000000,0.000000,0.000000;
#CREDIT:;
#NOTES:
0000
0000
0000
0000
,
0000
0000
0000
0000
,
0000
0000
0000
0000
,
0000
0000
0000
0000
,
0001
0000
0000
0000
,
0100
0000
0000
0000
,
0010
0000
0000
0000
,
1001
0000
0001
0100
0001
0000
0100
0000
,
0010
1000
0010
0100
,
0001
0000
1000
0001
1000
0000
0001
0000
,
1000
0001
1000
0000
0001
0000
0100
0010
,
0100
0000
0001
1000
0001
0000
1000
0000
,
0010
1000
0001
0100
,
0010
0000
1000
0010
1000
0000
0100
0000
,
0010
0001
0010
0000
0100
0000
1000
0000
,
0001
0000
0000
0000
,
0000
1001
0000
0001
,
1000
0010
0000
0000
,
0100
0001
0010
0001
,
0100
0010
0000
0100
,
0010
1000
0000
0010
,
1000
0001
0000
0000
,
1000
0100
1000
0010
,
0100
0001
0010
0001
,
0010
0100
0000
0010
,
0001
1000
0000
0000
,
0001
0100
0001
1000
,
0100
1000
0001
0100
,
0001
0010
0000
0100
,
0010
0001
0000
1000
,
0010
0100
0000
0001
,
0000
1001
0001
1000
,
0001
1000
0001
1000
,
0001
1001
0010
0100
,
0010
0100
0010
0100
,
0010
0110
0100
0100
,
0001
1000
0010
1000
,
0001
1001
0001
0001
,
0100
0010
1001
0000
,
0000
0000
0002
0000
,
2003
0000
3010
0000
,
0100
0000
0020
0000
,
2030
0000
3100
0000
,
0010
0100
0010
0000
0200
0000
0000
0000
,
0320
0000
0031
0000
,
0010
0010
0002
0000
,
2003
0000
3020
0000
,
0000
0030
0000
0000
0000
0000
2002
0000
,
0000
0000
0000
0000
,
0000
3003
0101
0000
0000
0000
0220
0000
,
0000
0000
0000
0000
0000
0330
0110
0000
,
0110
0110
0110
2002
,
0000
0000
0000
0000
,
0000
3003
1010
0000
0000
0000
0202
0000
,
0000
0000
0000
0000
0000
0303
0101
0000
,
1010
0101
1010
0022
,
0000
0000
0000
0000
,
0000
0033
1001
0000
0000
0000
2200
0000
,
0000
0000
0000
0000
0000
3300
1010
0000
,
0101
1010
0101
2002
,
0000
0000
0000
0000
,
0000
3003
0101
0000
0000
0000
2020
0000
,
0000
0000
0000
3030
,
0000
0000
0000
0000
0000
0000
0000
0001
,
0000
1000
0000
0010
0000
0010
0000
1000
,
0000
0001
0000
0100
0000
0100
0000
0001
,
0000
1000
0000
0100
0000
0100
0000
1000
,
0000
0010
0000
0100
0000
0100
0000
0001
,
0000
1000
0000
0010
0000
0010
0000
1000
,
0000
0100
0000
0010
0000
0010
0000
0100
,
0000
0010
0000
0001
0000
1000
0020
0000
,
0000
0000
0000
0000
0000
0000
0000
0130
,
0000
0010
0000
0100
0000
0001
0000
1000
,
0000
0100
0000
0010
0000
0100
0000
1000
,
0000
0001
0000
0010
0000
0001
0000
0100
,
0000
0010
0000
0100
0000
0001
0000
1000
,
0000
0100
0000
0001
0000
0100
0000
1000
,
0000
0010
0000
0001
0000
0010
0000
0100
,
0000
0001
0000
1000
0000
0010
0100
0000
,
0000
0000
0000
0001
,
0000
0000
1000
0001
,
0000
0010
0000
0000
0001
0000
0100
0000
,
0000
0010
0000
0000
1000
0000
0002
0000
,
1003
0010
1000
0000
0010
0000
0100
0000
,
0001
0010
0100
1000
,
0100
1000
0100
0000
1000
0000
0100
0010
,
0001
0000
1000
0000
0001
0100
0001
0100
,
0001
1000
0010
0000
1000
0000
0100
0000
,
1000
0001
0100
0010
,
1000
0000
0000
0001
0000
0001
0000
0001
,
0000
0001
0000
0001
0000
0001
0000
0001
,
1000
0000
0000
0000
0000
0000
0001
0010
,
0100
0000
0000
0010
0000
0000
0100
0000
,
1000
0000
0000
0100
0000
0000
0010
0000
,
0001
0000
0000
0100
0000
0000
0010
0000
,
1000
0000
0000
0000
0000
0000
1000
0100
,
0010
0000
0000
0100
0000
0000
1000
0000
,
0010
0000
0000
1000
0000
0000
0001
0000
,
0100
0000
0000
0010
0000
0000
1000
0000
;

//---------------dance-single - ----------------
#NOTEDATA:;
#CHARTNAME:;
#STEPSTYPE:dance-single;
#DESCRIPTION:;
#CHARTSTYLE:;
#DIFFICULTY:Beginner;
#METER:3;
#RADARVALUES:0.154844,0.273368,0.111579,0.000000,0.000000,136.000000,122.000000,14.000000,0.000000,0.000000,0.000000,0.000000,0.000000,0.000000,0.154844,0.273368,0.111579,0.000000,0.000000,136.000000,122.000000,14.000000,0.000000,0.000000,0.000000,0.000000,0.000000,0.000000;
#CREDIT:;
#NOTES:
0000
0000
0000
0000
,
0000
0000
0000
0000
,
0000
0000
0000
0000
,
0000
0000
0000
0000
,
0000
0000
0000
0000
,
0000
0000
0000
0000
,
0000
0000
0000
0000
,
1001
0010
0000
0000
,
0000
0100
0000
0000
,
0000
0010
0000
0000
,
0000
1000
0000
0001
,
0000
1000
0000
0000
,
0000
0010
0000
0000
,
0000
0100
0000
0000
,
0000
0010
0000
0000
,
0000
0000
0000
0000
,
0000
1000
0000
0000
,
0000
0010
0000
0000
,
0000
0100
0000
0000
,
0000
0001
0000
0000
,
0000
1000
0000
0000
,
0000
0001
0000
0000
,
0000
0100
0000
0000
,
0000
0010
0000
0000
,
0000
1000
0000
0001
,
0001
0001
0000
0000
,
0000
0100
0000
0010
,
0000
1000
0000
0001
,
0000
0100
0000
0010
,
0010
0010
0000
0100
,
0000
0100
0000
0010
,
0000
1001
1000
0000
,
0000
1000
0000
0000
,
1000
0000
0001
0000
,
0000
0001
0000
0000
,
0001
0000
0010
0000
,
0000
0010
0000
0000
,
0010
0000
0100
0000
,
0100
0000
1001
0000
,
0000
0000
1001
0000
,
0000
0000
1000
0000
,
0000
0000
0110
0000
,
0000
0000
0010
0000
,
0000
0000
1001
0000
,
0000
0000
0001
0000
,
0000
0000
1001
0000
,
0000
0000
0010
0000
,
0000
0000
0000
0001
,
0000
0000
0000
0000
,
0000
0001
0000
1000
,
0000
0000
0000
0010
,
0010
0010
0010
0100
,
0000
0000
0000
0000
,
0000
0010
0000
0100
,
0000
0000
0000
0001
,
1000
0001
1000
1001
,
0000
0000
0000
0000
,
0000
0010
0000
0100
,
0000
0000
0000
0010
,
0010
0010
0010
1001
,
0000
0000
0000
0000
,
0000
0100
0000
1001
,
0000
0000
0000
0010
,
0000
0000
0000
1000
,
0000
0000
0000
0001
,
0000
0000
0000
0100
,
0000
0000
0000
0010
,
0000
0000
0000
0100
,
0000
0000
0000
0001
,
0000
0000
0000
1000
,
0000
0000
0000
1001
,
0000
0000
0000
1000
,
0000
1000
0000
1000
,
0000
1000
0000
0001
,
0000
0001
0000
0001
,
0000
0001
0000
0100
,
0000
0100
0000
0100
,
0000
0100
0000
0010
,
0000
0010
0000
0010
,
0000
0000
0000
1001
,
0000
0000
0000
0000
,
0000
0000
0000
0000
,
0000
0000
0000
0000
,
0001
0000
0000
0000
,
1000
0000
0000
0000
,
0010
0000
0000
0000
,
0100
0000
0010
0010
,
1001
0000
0000
0000
,
0100
0000
0000
0000
,
0010
0000
1000
0000
,
0001
0000
0000
0000
,
1001
0000
0000
0000
,
0001
0000
0000
0000
,
0100
0000
0000
0000
,
0010
0000
0000
0000
,
1000
0000
0000
0000
,
0001
0000
0000
0000
,
0100
0000
0000
0000
,
0010
0000
0000
0000
;

//---------------dance-single - ----------------
#NOTEDATA:;
#CHARTNAME:;
#STEPSTYPE:dance-single;
#DESCRIPTION:;
#CHARTSTYLE:;
#DIFFICULTY:Challenge;
#METER:12;
#RADARVALUES:0.906292,1.337948,0.812930,0.613683,0.609698,796.000000,694.000000,102.000000,77.000000,0.000000,0.000000,3.000000,0.000000,0.000000,0.906292,1.337948,0.812930,0.613683,0.609698,796.000000,694.000000,102.000000,77.000000,0.000000,0.000000,3.000000,0.000000,0.000000;
#CREDIT:;
#NOTES:
// measure 0
0000
0000
0000
0000
,  // measure 1
0000
0000
0000
0000
,  // measure 2
0000
0000
0000
0000
,  // measure 3
0000
0000
0000
0000
,  // measure 4
1001
0000
0000
0000
0001
0000
0000
0000
0100
0000
0010
0100
0010
0000
1000
0000
,  // measure 5
0100
0000
1000
0000
0010
0000
0100
0001
,  // measure 6
0010
0000
1000
0000
0010
0001
0100
0010
,  // measure 7
2002
3003
0101
0101
0101
0001
0010
0001
,  // measure 8
1000
0100
1000
0010
0100
0001
0010
0001
,  // measure 9
1000
0001
0011
0011
0011
0000
1100
0000
,  // measure 10
1000
0000
0010
0000
0110
0000
0000
0000
0101
0000
0000
0000
0001
0100
0010
0000
,  // measure 11
1000
0000
0001
1000
0001
0000
1001
0000
1100
0000
1000
0000
0100
0000
0010
0000
,  // measure 12
0001
0100
1000
0100
0010
1000
0001
0010
,  // measure 13
1000
0010
0002
0100
0103
0010
1000
0010
,  // measure 14
0001
0100
1000
0100
0010
1000
0001
0010
,  // measure 15
0100
1000
0000
0002
0200
0003
2000
0300
,  // measure 16
3002
0003
1000
0100
0010
0001
0100
0000
,  // measure 17
0010
0000
1000
0010
0100
0001
0010
0000
,  // measure 18
0100
0000
1000
0100
0010
0001
1000
0000
,  // measure 19
0010
0000
0100
0010
1000
0001
0010
0000
,  // measure 20
0100
0000
1000
0100
0010
0001
1000
0000
,  // measure 21
0010
0000
0100
0010
1000
0001
0010
0000
,  // measure 22
0100
0000
1000
0100
0010
0001
1000
0000
,  // measure 23
0010
0000
0100
0010
1000
0001
0010
0100
,  // measure 24
1000
0001
0201
0000
0310
0000
2010
0000
,  // measure 25
0100
0000
0000
0000
3020
0000
0000
0000
1000
0000
0000
0000
0130
0000
0000
0100
,  // measure 26
0010
0000
0000
0010
1000
0000
0000
1000
0001
0000
0000
0001
0010
0000
0000
0010
,  // measure 27
0100
0000
0000
0100
1000
0000
0000
1000
0001
0000
0000
0001
0100
0000
0000
0100
,  // measure 28
0010
0000
0000
0010
2000
0000
0000
0000
3100
0000
0000
0000
0011
0000
0000
0000
,  // measure 29
0101
0120
1000
0230
,  // measure 30
0302
2003
3100
0002
,  // measure 31
0103
1001
0101
0011
,  // measure 32
0110
0000
0100
1100
0000
0011
0000
0010
,  // measure 33
1001
0101
1001
1010
,  // measure 34
1100
0000
0100
1100
0000
1010
0000
0100
,  // measure 35
0110
1001
0011
1010
,  // measure 36
1001
0000
0001
0101
0000
1010
0000
1000
,  // measure 37
0110
0011
0110
1100
,  // measure 38
0101
0000
0000
0000
0001
0000
0100
0000
0010
1000
0000
1000
0001
0000
0000
0000
,  // measure 39
1000
0010
0100
0001
0010
0000
0000
0000
0200
0000
1300
0000
0200
0000
0301
0000
,  // measure 40
0200
0320
0032
2003
3000
1001
0000
0001
,  // measure 41
0101
0000
1010
0000
2000
3020
0032
0023
,  // measure 42
0230
0320
2030
3002
0003
1000
0000
0010
,  // measure 43
0100
0010
0010
0000
0200
2300
3200
0302
,  // measure 44
0023
2030
3020
0230
0300
1010
0000
0100
,  // measure 45
0101
0000
0011
0000
0020
2030
3020
0032
,  // measure 46
0023
0000
0000
0000
0000
0000
0230
0000
0000
0000
0000
0000
2300
0000
0000
0000
0000
0000
3002
0000
0000
0000
0000
0000
2003
0000
0000
0000
0000
0000
0002
0000
0000
0000
0000
0000
3000
0000
0200
0003
0000
0000
0040
0000
0000
0000
0000
0000
,  // measure 47
0000
0000
0000
0000
0000
0000
0000
0000
0000
0000
0000
0000
0000
0000
0000
0000
0000
0000
0000
0000
0000
0000
0000
0000
0000
0000
0000
0000
0000
0000
0000
0000
0330
0000
0000
0000
0000
0000
0000
0000
0000
0000
0000
0000
0000
0000
0000
0000
0000
0000
0000
0000
0000
0000
0000
0000
0000
0000
0000
0000
0000
0000
0000
0000
0000
0000
0000
0000
0000
0000
0000
0000
0000
0000
0000
0000
0000
0000
0000
0000
0000
0000
0000
0000
0000
0000
0000
0000
0000
0000
0000
0000
0000
0000
0000
0000
0000
0000
0000
0000
0000
0000
0000
0000
0000
0000
0000
0000
2000
0000
0000
0000
0020
0000
3000
0000
0000
0000
0000
0000
0230
0000
0000
0000
0000
0000
0002
0000
0000
0000
0000
0000
0000
0000
0000
0300
0000
0000
0000
0000
0000
0003
0000
0000
1000
0000
0000
0000
0000
0000
0000
0000
0000
0000
0000
0000
0010
0000
0000
0000
0000
0000
0000
0000
0000
0000
0000
0000
0100
0000
0000
0000
0000
0000
0000
0000
0000
0000
0000
0000
0001
0000
0000
0000
0000
0000
0000
0000
0000
0000
0000
0000
,  // measure 48
0010
0001
0100
0010
1000
0001
0010
0100
0010
0001
0100
0010
1000
0001
0010
0001
,  // measure 49
0100
0010
1000
0100
1100
0000
0000
1100
0000
0000
1100
0000
1000
0010
0100
0001
,  // measure 50
0010
0001
0100
0010
1000
0001
0010
0001
0100
0010
1000
0001
0012
0000
0000
0000
,  // measure 51
0103
0000
0000
0000
1020
0000
0000
0000
0130
0000
0000
0000
0001
0100
0010
1000
,  // measure 52
0001
0010
0001
0100
0010
1000
0010
0100
0001
0010
0001
1000
0100
1000
0010
1000
,  // measure 53
0001
0010
0001
1000
1010
0000
0000
1010
0000
0000
1010
0000
1000
0010
0100
0001
,  // measure 54
0010
0001
0100
0010
1000
0001
0010
0001
1000
0100
1000
0001
0011
0000
0000
0000
,  // measure 55
1100
0000
0000
0000
1010
0000
0101
0000
0011
0000
1100
0000
1000
0100
0010
0001
,  // measure 56
0010
0100
0010
0001
0010
0100
1000
0010
0100
0001
0010
0001
0100
0010
1000
0001
,  // measure 57
0010
0001
0100
0010
1010
0000
0000
1010
0000
0000
1010
0000
1000
0010
0100
0001
,  // measure 58
0010
0001
0100
0010
1000
0001
0010
0100
1000
0001
0100
0001
1002
0000
0000
0000
,  // measure 59
0103
0000
0000
0000
2001
0000
0000
0000
3010
0000
0000
0000
1000
0010
0100
0001
,  // measure 60
0010
0001
0100
0010
1000
0001
0010
0100
0010
0001
1000
0010
0100
0001
0010
0001
,  // measure 61
1000
0100
0010
0001
1001
0000
0000
1001
0000
0000
1001
0000
1000
0100
0010
0001
,  // measure 62
1000
0100
0010
0001
1000
0100
0010
0001
1000
0100
0010
0002
2000
0000
0000
0000
,  // measure 63
0000
0003
0000
3000
0000
0000
1000
0001
,  // measure 64
0010
0000
0000
1100
0000
0000
1001
0000
0000
0101
0000
0000
0100
0000
0001
0100
,  // measure 65
0001
0000
1000
0000
0000
0001
0000
0011
0000
0000
0001
0000
1001
0000
1000
0000
,  // measure 66
0001
0000
0000
1100
0000
0000
0100
1000
0000
0100
1000
0100
1000
0000
0001
1000
,  // measure 67
0001
0000
1000
0000
0000
0110
0000
0101
0000
0000
0001
0000
1000
0000
0001
0000
,  // measure 68
0010
0000
0000
1100
0000
0000
1010
0000
0000
0101
0000
0000
1000
0000
0001
0100
,  // measure 69
0001
0000
0100
0000
0000
1010
0000
1100
0000
0000
0100
0000
0010
0000
0001
0000
,  // measure 70
1000
0000
0000
0001
0000
0000
0100
0010
0000
1000
0001
1000
0001
1000
0001
1000
,  // measure 71
0001
1000
0001
1000
0001
1000
0001
1000
0001
1000
0001
0000
1000
0000
2100
0000
,  // measure 72
0000
0010
0000
0100
0000
3010
0000
0102
,  // measure 73
0000
0010
0000
0100
0000
0013
0000
1200
,  // measure 74
0000
0001
0000
1000
0000
0301
0000
0120
,  // measure 75
0000
0000
0001
0000
0000
0000
1000
0000
0000
0000
0001
0000
0000
0000
1030
0001
,  // measure 76
0000
0000
0001
0100
0000
0000
0100
0010
0000
0000
0010
1000
0000
0000
1000
0100
,  // measure 77
0000
0000
0010
0001
0000
0000
0001
0100
0000
0000
0100
0010
0000
0000
0010
1000
,  // measure 78
0000
0000
1000
0100
0000
0000
0010
0001
0000
0000
0001
1000
0001
0000
0010
0000
,  // measure 79
0001
0100
1000
0100
0010
1000
1001
0000
,  // measure 80
0000
0000
0000
0000
0000
1000
0001
0100
0010
0000
0100
0000
0002
0000
0000
0000
,  // measure 81
0000
0020
0000
0003
2000
0030
0020
0000
,  // measure 82
3000
0000
0000
0002
0000
0000
0000
0000
0000
0030
0000
0000
2000
0000
0000
3003
0000
0000
4004
0000
0000
0000
0000
3003
,  // measure 83
0101
0011
1001
1000
0010
0100
0001
0010
,  // measure 84
0100
0010
0001
0100
0010
1000
0100
1000
,  // measure 85
1001
1001
1001
0001
0010
0001
1000
0010
,  // measure 86
0100
0000
0100
0000
0010
0000
0010
0000
1000
0001
0010
0100
0010
0001
1000
0010
,  // measure 87
0110
0101
0101
0001
0100
0010
1000
0001
,  // measure 88
0010
0001
1000
0100
1000
0010
1000
0001
,  // measure 89
0020
0000
0100
0000
0130
0000
2000
0000
0010
3000
0002
0000
0010
0003
0200
0000
,  // measure 90
0001
0300
0020
0000
1000
0030
0020
0000
0100
0030
2000
0000
0010
3000
0200
0300
,  // measure 91
1001
0000
0000
0000
0001
0000
0000
0000
1000
0000
0001
0010
0100
0000
1000
0000
,  // measure 92
0010
0000
0100
0001
0000
0001
0010
0000
,  // measure 93
0100
0000
0100
1000
0000
1000
0001
0000
,  // measure 94
0100
0000
0001
0010
0000
0010
0100
0000
,  // measure 95
1100
0000
0000
0000
1000
0000
0000
0000
0010
0000
0100
0010
1000
0000
0001
0000
,  // measure 96
0010
0000
0100
0010
0000
0010
0001
0000
,  // measure 97
1000
0000
0000
0100
0000
0000
0001
0000
,  // measure 98
0010
0000
0000
1000
0000
0000
1001
0000
;
