#TITLE:Meteorite;
#SUBTITLE:;
#ARTIST:Dungeon Elite;
#TITLETRANSLIT:;
#SUBTITLETRANSLIT:;
#ARTISTTRANSLIT:;
#GENRE:;
#CREDIT:;
#BANNER:Meteorite.png;
#BACKGROUND:Meteorite-bg.png;
#LYRICSPATH:;
#CDTITLE:;
#MUSIC:Meteorite.ogg;
#OFFSET:-0.404000;
#SAMPLESTART:88.562279;
#SAMPLELENGTH:12.000076;
#SELECTABLE:YES;
#BPMS:0.000000=180.000000
,92.000000=90.000000
,93.000000=180.000000
,157.000000=90.000000
,189.000000=180.000000
,229.000000=90.000000
,229.500000=180.000000
,230.500000=90.000000
,231.000000=180.000000
,232.000000=90.000000
,232.500000=180.000000
,233.500000=90.000000
,234.000000=180.000000
,235.000000=90.000000
,235.500000=180.000000
,236.500000=90.000000
,237.000000=180.000000
,238.000000=90.000000
,238.500000=180.000000
,239.500000=90.000000
,240.000000=180.000000
,241.000000=90.000000
,241.500000=180.000000
,242.500000=90.000000
,243.000000=180.000000
,244.000000=90.000000
,244.500000=180.000000
,245.500000=90.000000
,246.000000=180.000000
,247.000000=90.000000
,247.500000=180.000000
,248.500000=90.000000
,249.000000=180.000000
,250.000000=90.000000
,250.500000=180.000000
,251.500000=90.000000
,252.000000=180.000000
,253.000000=90.000000
,253.500000=180.000000
,254.500000=90.000000
,255.000000=180.000000
,256.000000=90.000000
,256.500000=180.000000
,257.500000=90.000000
,258.000000=180.000000
,259.000000=90.000000
,259.500000=180.000000
,260.500000=90.000000
,261.000000=180.000000
,262.000000=90.000000
,262.500000=180.000000
,263.500000=90.000000
,264.000000=180.000000
,265.000000=90.000000
,265.500000=180.000000
,266.500000=90.000000
,267.000000=180.000000
,268.000000=90.000000
,268.500000=180.000000
,269.500000=90.000000
,270.000000=180.000000
,271.000000=90.000000
,271.500000=180.000000
,272.500000=90.000000
,273.000000=180.000000
,274.000000=90.000000
,274.500000=180.000000
,275.500000=90.000000
,276.000000=180.000000
;
#STOPS:60.000000=0.333000,
61.000000=0.333000,
228.500000=1.333000
;
#BGCHANGES:;
#KEYSOUNDS:;
#ATTACKS:;

//---------------dance-single - ----------------
#NOTES:
     dance-single:
     :
     Hard:
     9:
     0.513285,0.767355,0.480066,0.502569,0.198777,479.000000,415.000000,64.000000,67.000000,0.000000,0.000000,0.513285,0.767355,0.480066,0.502569,0.198777,479.000000,415.000000,64.000000,67.000000,0.000000,0.000000:
0000
0000
0000
0000
,
0000
0000
0000
0000
,
0000
0000
0000
0000
,
0000
0000
0000
0000
,
0000
0000
0000
0000
,
0000
0000
0000
0000
,
0000
0000
0000
0000
,
0000
0000
0000
0000
,
0001
0100
0010
1000
0000
0100
0000
0000
,
1000
0000
0000
0001
0020
0000
0000
0000
,
0130
1000
0001
0100
0001
0000
1000
0001
,
0020
0000
0000
0000
0130
0000
1000
0000
0010
0000
0100
0000
0010
0000
0100
0010
,
1000
0100
1000
0001
0100
0000
0010
0000
,
1000
0001
0010
0001
0200
0000
0000
0000
,
0310
1000
0001
0100
0000
0001
1000
0000
,
1001
0000
0101
0000
1010
1000
0010
0100
,
0000
0101
0000
1100
0000
0101
0000
0001
,
2000
0000
0000
0000
3010
0100
0001
0010
,
0000
0011
0000
1010
0000
0011
0000
0001
,
0010
0000
0100
0100
0010
0100
1000
0001
,
0000
0101
0000
0011
0000
0110
0000
0100
,
0020
0000
0000
0000
0031
0010
0001
0100
,
0000
1100
0000
0110
0000
1001
0000
1000
,
0200
0000
0000
0300
0010
0000
0001
0000
0100
0000
0000
0000
0010
0000
0100
0000
,
0001
0000
1000
0001
0010
0100
0010
0001
,
1000
0100
0010
0000
0100
1000
0001
0000
,
0100
0010
1000
0001
0010
0001
1000
0001
,
1000
0000
0001
0100
0001
0000
0100
0000
0010
0000
1000
0000
0100
0000
0010
0000
,
0100
1000
0000
0010
0000
0100
0002
0000
,
0100
0000
0103
0000
0010
1000
0001
0010
,
0100
0000
1000
0000
0001
0200
0010
0300
,
1000
0000
0001
1000
0002
0000
0000
0000
0013
0000
0000
0000
0002
0000
0000
0000
,
0103
0020
1030
0020
,
0130
0000
0010
0100
0000
0101
0000
0011
,
0000
1001
0000
1100
0000
0100
0010
0000
,
0100
0100
1000
0001
0100
0001
0000
0010
,
0000
0100
0000
0010
0000
0001
2000
0000
,
3002
1003
1010
0000
,
2000
3010
0200
0301
,
0010
0000
2002
0000
3003
1000
0100
0000
,
1000
0010
0200
0000
0000
0000
0000
0000
0000
0000
0000
0000
0000
0000
0000
0000
,
0300
0000
0001
0000
2000
0000
0000
3020
0000
0000
0200
0000
0000
0000
0000
0000
,
0000
0000
0330
0000
0200
0000
0000
0302
0000
0000
0023
0000
0000
0000
0000
0000
,
0230
0000
0000
0000
2300
0000
0000
0000
3001
0000
0000
0000
0000
0000
0000
0000
0000
0000
0000
0000
0000
0000
1000
0001
1000
0000
0000
0000
0000
0000
0000
0000
,
0000
0000
0000
0000
0001
0000
0000
0000
0000
0000
0000
1000
0010
0000
0000
0000
,
0000
0000
0000
0000
0100
0000
0000
0000
0000
0000
0000
0001
1000
0000
0000
0000
,
0000
0000
0000
0000
0000
0000
0000
0000
0001
0000
0000
0000
0000
0000
0000
0000
0000
0000
0000
0000
0000
0000
0000
0100
0010
0000
0000
0000
0000
0000
0000
0000
,
1000
0010
0201
0000
0000
0000
0000
0000
,
0000
0000
0000
0300
1020
0000
0000
0000
0000
0000
0000
0000
0000
0000
0000
0000
,
0000
0000
0000
0030
0201
0000
0000
0000
0000
0000
0000
0000
0000
0000
0000
0000
,
0000
0000
0000
0300
1020
0000
0000
0000
0000
0000
0000
0000
0000
0000
0000
0000
,
0000
0000
0000
0030
0201
0000
0000
0000
0000
0000
0000
0300
1020
0000
0000
0000
,
0000
0000
0000
0030
0201
0000
0000
0000
0000
0000
0000
0300
1020
0000
0000
0000
,
0000
0000
0000
0030
0110
0000
0000
0000
1001
0000
0000
0000
0110
0000
0000
0000
,
1001
0110
1001
0110
,
1001
0000
0001
0100
0010
1000
0001
0100
,
0010
0000
1000
0000
0001
1000
0001
1000
0010
0100
0010
0100
0001
1000
0001
1000
,
0020
0030
2001
0000
3000
1200
0000
0300
,
0010
0001
0010
0001
0010
0000
0001
0000
0010
0000
0001
0000
2000
0000
0000
0000
0000
0000
0000
0000
3000
0000
0000
0000
0102
0000
0000
0000
0000
0000
0000
0000
,
1003
0000
0020
0000
0000
0000
0030
0000
0100
0001
0000
0000
0010
0000
0110
0000
,
1100
0000
1002
0000
0003
0201
0000
0300
,
2010
0000
0000
0000
0000
0000
0000
0000
0000
0000
0000
0000
0000
0000
0000
3000
0000
0000
1200
0000
0000
0000
0000
0000
0000
0000
0000
0000
0000
0000
0000
0000
0000
0300
0000
0000
1000
0000
0000
0000
0100
0000
0000
0000
0000
0000
0000
0000
,
0010
0000
0002
0000
0000
0000
0000
0000
0103
0010
0000
0000
1000
0000
0110
0000
,
0101
0000
0000
0000
0021
0000
0000
0000
0000
0030
2100
0000
0000
0000
0000
0000
,
3001
0000
1000
0100
0000
0000
0100
0000
1000
0000
0000
0000
0010
0000
1000
0000
0100
0000
0000
0000
0010
0000
0001
0000
2000
0000
0000
0000
0000
0000
0000
0000
,
0000
0000
3020
0000
0000
0000
0000
0000
0130
0001
0000
0000
1000
0000
1010
0000
,
0101
0000
0000
0000
2100
0000
0000
0000
0000
3000
0012
0000
0000
0000
0000
0003
,
1020
0000
0000
0230
0000
0000
0302
0000
,
0000
0000
0020
0000
0000
0000
0033
0000
0100
1000
0010
0000
0100
0000
0101
0000
,
1010
0000
0001
1000
0100
0000
1000
0001
,
0100
0000
0000
0000
0001
0010
0001
0010
0001
0010
0001
0010
0002
0000
0000
0000
,
2003
0000
0000
0000
3100
0000
0010
0001
0000
0000
0001
0100
0000
0000
0010
0000
,
0000
0010
0100
0001
1000
0100
0110
0000
,
1100
0000
1001
1000
0100
0100
0100
0100
,
0010
0100
2000
0001
0000
3001
0200
0010
,
0000
0000
0310
0000
1000
0000
0000
0010
0000
0000
0100
0000
0002
0000
0010
0000
,
0000
0010
0000
0013
0000
0100
1100
0000
,
0100
0010
0100
0010
0001
0000
1000
0000
0100
0000
0000
0000
1000
0000
0001
0000
,
0100
0000
0000
0000
0010
1000
0010
1000
0010
1000
0010
1000
0002
0000
1003
0000
,
0200
0000
0300
0000
0000
0000
0100
0010
0000
0000
0010
0001
0000
0000
0001
0100
,
0000
0000
0010
1000
0000
0000
0001
0000
0000
0000
1000
0000
1010
0000
0000
0000
,
0101
0000
0011
0001
0100
0100
0100
0001
,
0100
0100
0020
1000
0030
1000
0200
0010
,
0300
0010
0200
0000
1300
0000
0020
0000
,
0130
0000
0000
0000
0001
0000
0010
0000
0100
0000
1000
0000
0100
1000
0100
1000
,
0001
1000
0100
0010
0100
0000
0000
0000
0000
0000
0000
0000
0000
0000
0000
0000
;

//---------------dance-single - ----------------
#NOTES:
     dance-single:
     :
     Medium:
     7:
     0.366479,0.544340,0.270037,0.390054,0.041256,342.000000,306.000000,36.000000,52.000000,0.000000,0.000000,0.366479,0.544340,0.270037,0.390054,0.041256,342.000000,306.000000,36.000000,52.000000,0.000000,0.000000:
0000
0000
0000
0000
,
0000
0000
0000
0000
,
0000
0000
0000
0000
,
0000
0000
0000
0000
,
0000
0000
0000
0000
,
0000
0000
0000
0000
,
0000
0000
0000
0000
,
0000
0000
0000
0000
,
1000
0000
0001
0010
0001
0000
0100
0000
,
0010
0000
1000
0001
0020
0000
0000
0000
,
0130
0000
0010
0001
0010
0000
0100
0000
,
1001
0000
1000
0000
0010
0100
0001
0010
,
0001
1000
0010
0000
1000
0000
0100
0000
,
0010
0000
0001
0100
0010
0000
1000
0000
,
0001
1000
0010
0000
0100
0000
0001
0000
,
0011
0000
1100
0000
0101
0000
0001
1000
,
0000
0010
0000
0100
0000
0001
0000
0010
,
0002
0000
0000
0000
1003
0000
0010
1000
,
0000
0100
0000
1000
0000
0001
0000
1000
,
0010
0000
0100
0010
0100
0000
0001
1000
,
0000
0001
0000
0010
0000
0001
0000
1000
,
0200
0000
0000
0000
1300
0000
0010
1000
,
0000
0001
0000
0010
0000
0001
0000
1000
,
0020
1030
0010
0100
,
0001
0010
0001
2000
,
0000
3000
0001
0100
,
0010
1000
0100
2000
,
0000
0000
3000
0000
0001
1000
0010
1000
,
0010
0100
0000
0001
0000
0010
0002
0000
,
0000
0000
1003
0001
1000
0100
0010
0001
,
0010
0001
0100
0010
,
0100
0001
2000
0000
0000
0000
3200
0000
,
0000
2300
0000
3002
,
0000
0000
0103
0001
0000
0010
0000
0001
,
0000
0100
0000
0010
0000
1000
0100
0000
,
0010
0100
0010
0000
0100
0000
1000
0000
,
0010
0100
0000
0000
0000
0000
0000
0000
,
0001
0102
0013
0000
,
1100
0010
0011
0001
,
0101
0000
1010
0000
0000
1000
0100
0000
,
0010
0001
2000
0000
0000
0000
0000
0000
0000
0000
0000
0000
0000
0000
0000
0000
,
3000
0000
0001
0000
0100
0000
0000
0100
0000
0000
0200
0000
0000
0000
0000
0000
,
0000
0000
0300
0000
0010
0000
0000
1000
0000
0000
0200
0000
0000
0000
0000
0000
,
0310
0100
1000
0000
0000
0000
0101
0000
,
0000
0001
0000
1100
,
0000
0000
0000
0000
0001
0000
0000
0001
0000
0000
0001
0000
0000
0000
0000
0000
,
0000
0000
0100
0000
0010
0000
0000
0010
0000
0000
1000
0000
0000
0000
0000
0000
,
0010
0100
1001
0000
0000
0000
0000
0000
,
0000
1010
0000
0000
,
0000
0101
0000
0000
,
0000
0011
0000
0000
,
0000
1100
0000
0011
,
0000
0101
0000
1010
,
0000
1001
0110
1001
,
0110
1001
0110
1001
,
0110
0000
1000
0001
1000
0001
1000
0001
,
1000
0001
0010
0010
0001
1000
0100
0100
,
1000
0000
0002
0000
0000
2003
0000
0000
,
3020
0000
0000
0230
0000
0000
0320
0000
,
0000
0000
2030
0000
0000
0000
0000
0000
3010
0100
0000
0000
0001
0000
0010
0000
,
0100
0000
2000
0000
0000
3200
0000
0000
,
2300
0000
0000
3002
0000
0000
0203
0000
,
0000
0000
0320
0000
0000
0000
0000
0000
1030
0010
0000
0000
0100
0000
0010
0000
,
0001
0000
0020
0000
0000
0230
0000
0000
,
0320
0000
0000
0032
0000
0000
2003
0000
,
0000
0000
3020
0000
0000
0000
0000
0000
0130
0010
0000
0000
1000
0000
0010
0000
,
0100
0000
0002
0000
0000
0023
0000
0000
,
2030
0000
0000
3020
0000
0000
0230
0000
,
0000
0300
2000
0000
0000
0000
0000
0000
3010
0100
0010
0000
1000
0000
0001
0000
,
0010
1001
0100
1001
,
0100
2000
3020
0230
,
0000
0000
0301
0100
0000
1000
0000
0100
,
0000
0100
0000
0100
0000
0010
1000
0000
,
1100
0000
0001
0000
0100
0010
0100
0010
,
0100
0010
0200
0000
0000
0000
0302
0000
,
0000
0000
0000
0000
0013
0000
0000
0100
0000
0000
1000
0000
0020
0000
0100
0000
,
0000
0130
0000
0100
0000
0010
1010
0000
,
0101
1001
0100
1001
,
0100
0002
0203
0320
,
0000
0000
1030
0010
0000
0001
0000
0010
,
0000
0010
0000
0010
0000
0100
0001
0000
,
0011
0000
1000
0000
0010
0100
0010
0100
,
0010
0100
0020
0000
0000
0000
2030
0000
,
0000
0000
0000
0000
3100
0000
0000
0010
0000
0000
0001
0000
0200
0000
0010
0000
,
0000
0310
0000
0010
0000
0010
1001
0000
,
0200
0000
0000
0300
0000
0000
0000
0000
;

//---------------dance-single - ----------------
#NOTES:
     dance-single:
     :
     Easy:
     5:
     0.279681,0.576360,0.202528,0.075010,0.000000,261.000000,234.000000,27.000000,10.000000,0.000000,0.000000,0.279681,0.576360,0.202528,0.075010,0.000000,261.000000,234.000000,27.000000,10.000000,0.000000,0.000000:
0000
0000
0000
0000
,
0000
0000
0000
0000
,
0000
0000
0000
0000
,
0000
0000
0000
0000
,
0000
0000
0000
0000
,
0000
0000
0000
0000
,
0000
0000
0000
0000
,
0000
0000
0000
0000
,
0001
0010
0000
0000
,
0000
0000
0200
0000
,
1300
0010
1000
0001
,
1000
0000
0001
0010
,
0001
1000
0000
0000
,
0000
0000
0200
0000
,
1300
0010
0100
0000
,
0001
1000
0010
1000
,
0100
1000
0010
0100
,
0002
0000
1003
0100
,
1000
0010
0100
0001
,
0010
0000
0100
0010
0100
0000
0010
0000
,
0001
1000
0010
0100
,
0002
0000
1003
0100
,
1000
0010
0100
0001
,
1001
1000
0100
1000
,
0010
0100
0001
0020
,
0000
0030
0100
0010
,
0001
1000
0010
0200
,
0000
0300
0010
1000
,
0010
1000
0000
0001
,
0000
0010
0001
0001
,
1000
0100
0000
1000
,
0010
0100
0000
0010
,
0000
1000
0000
0001
,
0000
1000
0001
0100
,
0001
0010
0000
0001
,
0000
1000
0001
0100
,
0001
0010
0000
0000
,
0100
1001
0000
0000
,
0001
0010
1000
0010
,
0001
0101
0000
0001
,
0000
1000
0000
0100
,
0000
1000
1000
1000
,
0000
0001
0001
0001
,
0100
0010
0100
0000
0000
0000
0010
0000
,
0000
1000
0000
0100
,
0000
0010
0000
0001
,
0000
0100
0000
0010
,
1000
0001
1001
0000
0000
0000
0000
0000
,
0000
1001
0000
0000
,
0000
1001
0000
0000
,
0000
1001
0000
0000
,
0000
0110
0000
0110
,
0000
0110
0000
0110
,
0000
1001
1001
1001
,
1001
0110
0110
0110
,
0110
1001
0110
1001
,
0110
2002
0000
0000
,
0000
3003
0001
0000
0000
0100
0000
0000
,
0010
0000
0000
1000
0000
0000
0100
0000
,
0000
1000
0000
0000
0010
0000
0000
0100
,
0000
0000
0001
0000
0000
0010
0000
0000
,
0001
0000
0000
1000
0000
0000
0100
0000
,
0000
1000
0000
0000
0010
0000
0000
0100
,
0000
0000
0010
0000
0000
1000
0000
0000
,
0001
0000
0000
0001
0000
0000
1000
0000
,
0000
0100
0000
0000
1000
0000
0000
0010
,
0000
0000
0100
0000
0000
0001
0000
0000
,
0010
0000
0000
0001
0000
0000
1000
0000
,
0000
0010
0000
0000
0100
0000
0000
0010
,
0000
1000
0100
1000
,
0100
1000
1000
1000
,
0001
0100
0001
0010
,
0001
0100
0010
1000
,
0100
0010
0001
0001
,
0001
0010
0100
0010
,
0001
1000
0001
0100
,
0001
0010
0100
1000
,
1001
0001
0100
0001
,
0100
0001
0001
1000
,
0001
1000
0010
1000
,
0100
1000
0010
0100
,
0100
0010
1000
1000
,
1000
0010
0100
0001
,
0010
0001
0010
0001
,
0100
0010
1000
1001
,
0220
0000
0000
0330
0000
0000
0000
0000
;

//---------------dance-single - ----------------
#NOTES:
     dance-single:
     :
     Beginner:
     2:
     0.139305,0.286914,0.052507,0.000000,0.000000,130.000000,123.000000,7.000000,0.000000,0.000000,0.000000,0.139305,0.286914,0.052507,0.000000,0.000000,130.000000,123.000000,7.000000,0.000000,0.000000,0.000000:
// measure 0
0000
0000
0000
0000
,  // measure 1
0000
0000
0000
0000
,  // measure 2
0000
0000
0000
0000
,  // measure 3
0000
0000
0000
0000
,  // measure 4
0000
0000
0000
0000
,  // measure 5
0000
0000
0000
0000
,  // measure 6
0000
0000
0000
0000
,  // measure 7
0000
0000
0000
0000
,  // measure 8
0010
0000
0000
0000
,  // measure 9
0000
0000
1000
0000
,  // measure 10
0001
0000
0000
0100
,  // measure 11
0100
0000
0010
0000
,  // measure 12
0100
0000
0000
0000
,  // measure 13
0001
0000
0000
0000
,  // measure 14
1000
0000
0000
0000
,  // measure 15
0010
0000
0100
0000
,  // measure 16
0000
0000
0001
0000
,  // measure 17
0000
0000
1000
0000
,  // measure 18
0000
0000
0100
0000
,  // measure 19
1000
0000
0001
0000
,  // measure 20
0000
0000
0100
0000
,  // measure 21
0010
0000
0100
0000
,  // measure 22
0000
0000
0010
0000
,  // measure 23
1000
0001
0000
0000
,  // measure 24
0000
1000
0000
0000
,  // measure 25
0000
0010
0000
0000
,  // measure 26
0000
1000
0000
1000
,  // measure 27
0000
0001
0000
0000
,  // measure 28
0000
0100
0000
0000
,  // measure 29
0000
0010
0000
0000
,  // measure 30
0000
1000
0000
1000
,  // measure 31
0000
0001
0000
0001
,  // measure 32
0000
1000
0000
1000
,  // measure 33
0000
0010
0000
0100
,  // measure 34
0100
0100
0000
0000
,  // measure 35
0000
0010
0000
0000
,  // measure 36
0000
0100
0000
0000
,  // measure 37
0000
1001
0000
0000
,  // measure 38
0000
0001
0000
1000
,  // measure 39
0000
0110
0000
0000
,  // measure 40
0000
0000
0000
0000
,  // measure 41
0000
0100
0000
0000
,  // measure 42
0000
0010
0000
0000
,  // measure 43
0000
1000
0000
1001
,  // measure 44
0000
0001
0000
1001
,  // measure 45
0000
0100
0000
0110
,  // measure 46
0000
0010
0000
0110
,  // measure 47
0000
1001
0000
0000
,  // measure 48
0000
1000
0000
0000
,  // measure 49
0000
0001
0000
0000
,  // measure 50
0000
1000
0000
0000
,  // measure 51
0000
0010
0000
0100
,  // measure 52
0000
0010
0000
0100
,  // measure 53
0000
0001
0000
0001
,  // measure 54
0000
1000
0000
1000
,  // measure 55
0000
0010
0010
0010
,  // measure 56
0010
0100
0100
0100
,  // measure 57
0100
0001
0000
0000
,  // measure 58
1000
0000
0000
0010
,  // measure 59
0000
0000
0000
0000
0100
0000
0000
0010
,  // measure 60
0000
1000
0000
0000
,  // measure 61
0001
0000
0000
0010
,  // measure 62
0000
0000
0000
0000
0100
0000
0000
0100
,  // measure 63
0000
0100
0000
0000
,  // measure 64
1000
0000
0000
0010
,  // measure 65
0000
0000
0000
0000
0100
0000
0000
0100
,  // measure 66
0000
0100
0000
0000
,  // measure 67
0001
0000
0000
0010
,  // measure 68
0000
0000
0000
0000
0001
0000
0000
0001
,  // measure 69
0000
0001
0000
1000
,  // measure 70
0000
0001
0000
0100
,  // measure 71
0000
0010
0000
0000
,  // measure 72
0000
0100
0000
0010
,  // measure 73
0000
1000
0000
0000
,  // measure 74
0000
0100
0000
1000
,  // measure 75
0000
0001
0000
0000
,  // measure 76
0000
0100
0000
0010
,  // measure 77
0010
0000
1000
0000
,  // measure 78
1000
0001
0000
1000
,  // measure 79
0000
0010
0000
0000
,  // measure 80
0000
0100
0000
0010
,  // measure 81
0000
0100
0000
0000
,  // measure 82
0000
0001
0000
1000
,  // measure 83
0000
0010
0000
0000
,  // measure 84
0000
1000
0000
0001
,  // measure 85
0100
0000
0000
0000
;
