#VERSION:0.83;
#TITLE:MEGALOMAN[i]A;
#SUBTITLE:;
#ARTIST:TiTANZ;
#TITLETRANSLIT:;
#SUBTITLETRANSLIT:;
#ARTISTTRANSLIT:;
#GENRE:;
#ORIGIN:;
#CREDIT:;
#BANNER:MEGALOMAN[i]A.png;
#BACKGROUND:MEGALOMAN[i]A-bg.png;
#PREVIEWVID:;
#JACKET:MEGALOMAN[i]A-jacket.png;
#CDIMAGE:;
#DISCIMAGE:;
#LYRICSPATH:;
#CDTITLE:;
#MUSIC:MEGALOMAN[i]A.mp3;
#OFFSET:-0.438000;
#SAMPLESTART:29.218000;
#SAMPLELENGTH:9.600000;
#SELECTABLE:YES;
#BPMS:0.000=100.000,
32.000=200.000,
222.000=97.500,
226.000=102.500,
242.000=210.000;
#STOPS:109.000=0.150,
109.500=0.150,
123.500=0.150,
124.500=0.150,
255.500=0.286;
#DELAYS:;
#WARPS:;
#TIMESIGNATURES:0.000=4=4;
#TICKCOUNTS:0.000=4;
#COMBOS:0.000=1;
#SPEEDS:0.000=1.000=0.000=0;
#SCROLLS:0.000=1.000;
#FAKES:;
#LABELS:0.000=Song Start;
#BGCHANGES:;
#KEYSOUNDS:;
#ATTACKS:
;

//---------------dance-single - ----------------
#NOTEDATA:;
#CHARTNAME:;
#STEPSTYPE:dance-single;
#DESCRIPTION:;
#CHARTSTYLE:;
#DIFFICULTY:Hard;
#METER:10;
#RADARVALUES:0.813430,0.978006,0.327928,0.238493,0.541577,573.000000,540.000000,33.000000,24.000000,0.000000,0.000000,0.000000,0.000000,0.000000,0.813430,0.978006,0.327928,0.238493,0.541577,573.000000,540.000000,33.000000,24.000000,0.000000,0.000000,0.000000,0.000000,0.000000;
#CREDIT:;
#NOTES:
0000
0000
0000
0000
,
0000
0000
0000
0000
,
0101
0000
0000
0010
0000
0000
1000
0000
0000
0000
0000
0000
0100
0000
0000
0010
0001
1000
0001
0000
0000
0000
0000
0000
,
1000
0000
0000
0010
0000
0000
0000
0000
0000
1000
0000
0000
0001
0000
0000
0000
1000
0001
0100
0000
0000
0101
0000
0000
,
0021
0000
0000
0000
0130
0000
1000
0001
0010
0000
0100
0000
0010
0001
0010
0000
,
0101
0000
0000
0000
0000
0000
0001
0000
0000
1000
0000
0000
0001
0000
0000
0000
0000
0000
1000
0000
0000
0100
0000
0000
0010
0000
0000
0000
0000
0000
0000
0000
1000
0000
0001
0000
0100
0000
0000
0000
0000
0000
0000
0000
0000
0000
0000
0000
,
1010
0000
0000
0000
0000
0000
1000
0000
0000
0010
0000
0000
0001
0000
0000
0000
0000
0000
0010
0000
0000
1000
0000
0000
0001
0000
0000
0000
0000
0000
0000
0000
1000
0000
0001
0000
0010
0000
0000
0000
0000
0000
0000
0000
0000
0000
0000
0000
,
1100
0000
1000
0000
0000
0000
0000
0000
0011
0000
0010
0000
0000
0000
0000
0000
1001
0000
0001
0000
0000
0000
0000
0000
0110
0000
0100
0000
0001
1000
0001
1000
,
0001
1000
0001
0010
0001
0000
0100
0010
,
0000
1000
0000
0100
0000
0010
0100
1000
,
0001
1000
0010
0100
0001
0000
1000
0100
,
0000
0010
0000
0001
0000
0010
0001
1000
,
0020
0100
0130
0001
0010
0001
1000
0100
,
0000
0010
0001
1000
0000
0001
0100
0001
,
1000
0000
0100
0000
0001
0000
0100
0000
0010
0001
0010
0000
0001
0000
1000
0000
,
0001
0100
0001
0000
1000
0010
1000
0000
0001
0010
0001
0000
1000
0100
1000
0100
,
1000
0010
0100
0010
1000
0001
0010
0100
,
1000
0100
0001
0100
1000
0100
0001
0100
,
0010
0001
0100
0010
1000
0100
1000
0001
,
0100
0010
1000
0010
0001
0010
1000
0010
,
0100
0001
0010
0001
1000
0100
0010
0100
,
1000
0001
0010
0001
0100
0001
0010
0100
,
1000
0001
0100
0001
0010
0100
1000
0001
,
1000
0010
0100
0001
0010
0100
1000
0001
,
1000
0010
2000
0000
0000
0000
3001
0000
1000
0000
0000
0000
0101
0000
0000
0000
,
0001
0010
0002
0000
0000
0000
0013
0000
0001
0000
0000
0000
1100
0000
0000
0000
,
1000
0010
2000
0000
0000
0000
3010
0000
1000
0000
0000
0000
0101
0000
0000
0000
,
0000
0000
0001
0000
1001
0000
0110
0000
1001
0000
0000
0000
0001
1000
0200
0000
,
0000
0000
0310
0000
0100
0000
0000
0000
0011
0000
0000
0000
0001
1000
0200
0000
,
0000
0000
0310
0000
0100
0000
0000
0000
0011
0000
0000
0000
0001
1000
0020
0000
,
0000
0130
0010
0000
1010
0000
1000
0100
,
0001
0100
1001
0000
0001
0000
1010
0000
,
1000
0100
1100
0000
1000
0000
1001
0000
,
0001
0100
0110
0010
1000
0000
1001
0000
,
0001
0010
0011
0000
0010
0000
0110
0000
,
0100
0000
1000
0000
0000
0000
0000
0000
0001
0100
0001
0000
0100
0010
0100
0000
,
0010
1000
0010
0000
1000
0100
1000
0000
0100
0010
0100
0000
0010
0001
0010
0000
,
0001
0100
0001
0000
0100
0010
0100
0000
0010
1000
0010
0000
1000
0100
1000
0000
,
0100
0010
0100
0000
0010
0001
0020
0000
0000
0000
0000
0000
0000
0000
0000
0000
,
0000
0000
0000
0000
0031
0100
0010
0100
,
0000
0000
0010
0000
1000
0000
0001
1000
0001
0000
0010
0000
0100
0000
0010
0000
,
0000
0000
0100
0000
1000
0000
0001
0100
0001
0000
1000
0000
0100
0000
1000
0000
,
0000
0000
0100
0000
1000
0000
0010
1000
0010
0000
0100
0000
0001
0000
0100
0000
,
0000
0000
0001
0000
1000
0000
0001
1000
0001
0000
1000
0000
0010
0000
0010
0000
,
0000
0000
0100
0000
0001
0000
0010
0100
0010
0000
0100
0000
1000
0000
1000
0000
,
0000
0000
0100
0000
1000
0000
0010
1000
0010
0000
0100
0000
0001
0000
0001
0000
,
0000
0000
1000
0000
0010
0000
0100
0001
0100
0000
0001
0000
0010
0000
0010
0100
,
1000
0001
0100
0000
0010
2000
0000
3100
,
0002
0000
0103
0010
0001
0200
0000
1300
,
0002
0000
0013
1000
0010
0200
0000
1300
,
0020
0000
0000
0000
0130
0000
0001
1000
0001
0000
0101
0000
0000
0000
1100
0000
,
0000
0101
0000
0000
0002
0203
0301
0020
,
0230
0000
1300
0000
0001
1000
0001
0000
2000
0000
3020
0000
0130
0000
0002
0000
,
0023
0000
0130
0000
1000
0001
1000
0000
1001
0000
0001
0000
1000
0000
1001
0000
,
1000
0001
1001
1000
0001
1001
1000
0001
,
0100
0010
0100
0010
0100
0010
1000
0001
0010
0100
0000
1000
0010
0010
0100
0001
,
1000
0001
0000
0001
0010
0010
0100
1000
0001
1000
0010
0000
0100
0001
0010
0100
,
0000
1000
0000
0010
0000
0001
0000
0010
0100
0001
1000
0000
0001
1000
0100
1000
,
0000
0010
0000
0100
0000
0010
0100
0001
2000
0001
0001
0000
0001
0001
0001
0001
,
3000
1000
0000
0001
0000
0010
0000
0010
0001
0010
1000
0000
0010
0100
1000
0001
,
0000
0000
1000
0000
0000
0000
0010
0000
0100
0001
0100
0001
1000
0010
1000
0010
1000
0000
0000
0000
0100
0000
0000
0000
0010
0000
0000
0000
0100
0000
0000
0000
,
1000
0010
0100
0001
0010
0100
0010
0001
,
1000
0010
0100
0100
0010
1000
0001
0010
,
0001
1000
0100
1000
0001
0100
0010
1000
,
0001
0010
0001
0100
0010
1000
0001
0010
,
0100
0010
0001
1000
0010
0100
0001
0001
,
1000
0000
0001
0000
0010
0000
0100
1000
0001
0000
1000
0001
0000
0001
1000
0000
,
0010
1000
0010
0100
0001
0100
0010
0000
0100
0010
1000
0001
0010
0100
1000
0000
;

//---------------dance-single - ----------------
#NOTEDATA:;
#CHARTNAME:;
#STEPSTYPE:dance-single;
#DESCRIPTION:;
#CHARTSTYLE:;
#DIFFICULTY:Easy;
#METER:5;
#RADARVALUES:0.353480,0.438417,0.129184,0.059623,0.000000,249.000000,236.000000,13.000000,6.000000,0.000000,0.000000,0.000000,0.000000,0.000000,0.353480,0.438417,0.129184,0.059623,0.000000,249.000000,236.000000,13.000000,6.000000,0.000000,0.000000,0.000000,0.000000,0.000000;
#CREDIT:;
#NOTES:
0000
0000
0000
0000
,
0000
0000
0000
0000
,
0001
1000
0000
1000
,
0001
0000
1000
0010
,
0200
0000
0310
0000
,
1000
0000
0001
0000
,
1000
0000
0001
0000
,
1000
0000
0001
0000
1000
0000
0001
1000
,
0001
0100
0001
1000
,
0000
0010
0000
1000
0000
0010
0000
0000
,
1000
0100
1000
1000
,
0000
0001
0000
1000
0000
0001
0000
0000
,
0200
0010
0010
0310
,
0000
0100
0000
0100
0000
0100
0000
0000
,
0010
0100
0001
1000
,
0000
0001
0000
0010
0000
0100
0000
1000
,
0100
1000
0001
0001
,
1000
0010
1000
0100
,
0010
0001
0010
0010
,
0001
0100
0001
1000
,
0001
1000
0100
0100
,
0010
0001
1000
0001
,
0010
0100
0010
0001
,
0001
1000
0100
1000
,
0001
0010
0100
1001
,
1000
0100
0010
1001
,
0001
0010
0100
1001
,
0000
0000
1000
0001
0001
0000
1000
0000
,
0100
0010
1001
0001
,
0010
0100
1001
1000
,
0100
0010
1001
1000
,
0000
0010
0000
0000
0100
0000
0001
0000
,
0100
0100
0001
0100
,
0001
0001
1000
0010
,
1000
1000
0010
1000
,
0010
0000
1000
0001
,
0100
0001
1000
0100
,
1000
0001
1000
0001
,
0010
0001
0000
0000
,
0000
0000
1000
0010
,
0000
0100
0010
0100
,
0000
0010
1000
0010
,
0000
1000
0001
1000
,
0000
0001
0010
0001
,
0000
0010
0100
0010
,
0000
0100
1000
0100
,
0000
1000
0010
1000
,
0000
0000
0010
0000
0100
0000
0000
0001
,
0000
0000
0010
0000
0100
0000
0000
1000
,
0000
0000
0100
0000
1000
0000
0000
0010
,
0000
0000
0100
0000
0001
0000
0000
1000
,
0000
0001
0000
0000
1000
0000
0001
0000
,
0200
0310
0100
0001
,
2000
0000
3001
0000
0011
0000
0000
1100
,
0000
0000
1010
0000
0000
0101
0000
0000
,
1001
0110
2000
0000
,
0000
0000
3010
1000
,
0001
0010
0001
0000
0100
0000
0010
0000
,
1000
0010
0100
0000
1002
0000
1000
0000
,
1000
1000
1000
0000
0013
0000
0100
0000
,
1000
0100
0010
0000
0001
0000
0010
0000
,
0001
0100
0010
1000
,
0100
0010
0010
0100
,
1000
0001
0100
0010
,
0100
0010
0100
0001
,
1000
0100
1000
0001
,
0010
0010
0100
0100
,
1000
0000
0100
0000
0010
0000
0001
1000
;

//---------------dance-single - ----------------
#NOTEDATA:;
#CHARTNAME:;
#STEPSTYPE:dance-single;
#DESCRIPTION:;
#CHARTSTYLE:;
#DIFFICULTY:Medium;
#METER:8;
#RADARVALUES:0.545126,0.607038,0.109309,0.158995,0.049686,384.000000,373.000000,11.000000,16.000000,0.000000,0.000000,0.000000,0.000000,0.000000,0.545126,0.607038,0.109309,0.158995,0.049686,384.000000,373.000000,11.000000,16.000000,0.000000,0.000000,0.000000,0.000000,0.000000;
#CREDIT:;
#NOTES:
0000
0000
0000
0000
,
0000
0000
0000
0000
,
1000
0000
0001
0000
0100
0000
0000
0000
0010
0000
1000
0001
1000
0000
0000
0000
,
0001
0000
0000
0000
0000
0000
0010
0000
0100
0000
1000
0100
1000
0000
0010
0000
,
2002
0000
3003
0001
1000
0000
0001
0100
,
0010
0000
0000
0000
0100
0000
0001
0000
0010
0000
0100
1000
0100
0000
1000
0000
,
0010
0000
0100
0001
1000
0000
0100
0010
,
0001
0001
0000
0000
1000
1000
0000
0000
0001
0001
0000
0000
0100
0010
1000
0001
,
1000
0010
0100
0001
1000
0000
0001
1000
,
0000
0100
0000
1000
0000
0100
0000
1000
,
0100
0010
0001
0100
0010
0000
0010
1000
,
0000
0001
0000
0010
0000
0001
0000
0100
,
0002
0000
0010
0000
0013
0000
0100
1000
,
0000
0100
0000
0001
0000
0100
0000
0010
,
0001
0100
0010
1000
0001
0000
1000
0100
,
0000
0001
0000
0100
0000
1000
0000
0010
,
0100
0001
0010
0001
0100
0001
1000
0001
,
0000
1000
0000
0100
0000
0010
0000
0100
,
1000
0100
1000
0001
1000
0010
1000
0001
,
0000
0010
0000
0100
0000
0010
0000
0001
,
0100
0010
0100
0001
0100
0010
0100
0001
,
0000
1000
0000
0100
0000
0010
0000
0001
,
1000
0010
1000
0100
1000
0010
1000
0001
,
0000
1000
0000
0010
0000
0100
0000
0001
,
0010
0100
0000
0100
2000
0000
3010
0000
,
0100
0001
0000
0001
2000
0000
3010
0000
,
1000
0001
0000
0001
0020
0000
0130
0000
,
0000
1000
0100
0100
0100
0000
0010
0001
,
0000
0001
2000
0000
3010
0000
0100
0001
,
0000
0001
0020
0000
0130
0000
0010
0001
,
0000
0001
2000
0000
3100
0000
1000
0010
,
0100
0001
1000
0000
0001
0000
0010
0000
,
0100
1000
0100
0000
1000
0000
0010
0000
,
0100
0001
0100
0001
0010
0000
0100
0000
,
1000
0001
1000
0000
0001
0000
0100
0000
,
0010
1000
0000
0000
0001
0100
0010
1000
,
0001
0010
0100
1000
0000
0100
0000
1000
,
0000
0001
0100
0001
0100
0010
1000
0001
,
0010
0001
1000
0100
0000
0000
0000
0000
,
0000
0000
1000
1010
,
0010
0100
0001
0000
0010
0000
0110
0000
,
0100
0010
0001
0000
1000
0000
1010
0000
,
1000
0001
0010
0000
0100
0000
1100
0000
,
0100
0010
0001
0000
1000
0000
0101
0000
,
0001
1000
0010
0000
0100
0000
1010
0000
,
1000
0001
0010
0000
0100
0000
1100
0000
,
0100
0010
0001
0000
1000
0000
0101
0000
,
0001
1000
0010
0000
0100
0001
0000
0001
,
2000
0000
3100
0000
0010
0100
0000
0100
,
2000
0000
3010
0000
0010
0100
0000
0100
,
0002
0000
1003
0100
1000
0001
0000
0001
,
0000
0001
0000
0000
1000
0001
0000
0001
,
0200
0000
0301
0100
0010
1000
0000
1000
,
0200
0000
0310
0100
1000
0001
0000
0001
,
1000
0000
1000
0010
0000
0010
0100
0000
,
0100
0001
0010
0100
2000
0000
0000
0000
,
0000
0000
3001
0100
,
0010
1000
0010
0100
0001
0000
1000
0000
,
0100
1000
0010
0100
2001
0000
0001
0000
,
3001
0100
0001
0100
0010
0000
1000
0000
,
0010
0000
0100
0000
0001
1000
0010
0100
0001
0000
1000
0000
0100
0000
1000
0000
,
0001
1000
0001
0010
0000
0100
0000
1000
,
0000
0001
0100
0001
0100
0010
1000
0001
,
0010
0100
1000
0001
0000
1000
0000
0010
,
0100
0010
1000
0001
0010
0001
1000
0100
,
0000
1000
0000
0010
0000
1000
0001
1000
,
0001
0010
0100
1000
0010
0100
0001
0010
,
0000
0100
0000
1000
0000
0001
1000
1001
;

//---------------dance-single - ----------------
#NOTEDATA:;
#CHARTNAME:;
#STEPSTYPE:dance-single;
#DESCRIPTION:;
#CHARTSTYLE:;
#DIFFICULTY:Beginner;
#METER:2;
#RADARVALUES:0.158995,0.303519,0.119246,0.009937,0.000000,112.000000,100.000000,12.000000,1.000000,0.000000,0.000000,0.000000,0.000000,0.000000,0.158995,0.303519,0.119246,0.009937,0.000000,112.000000,100.000000,12.000000,1.000000,0.000000,0.000000,0.000000,0.000000,0.000000;
#CREDIT:;
#NOTES:
0000
0000
0000
0000
,
0000
0000
0000
0000
,
1000
0000
0000
0000
,
0000
0000
0000
0000
,
1001
0000
0001
0000
,
0100
0000
0010
0000
,
0100
0000
0010
0000
,
1000
1000
1000
0001
,
1001
0000
0001
0000
,
0000
1000
0000
0000
,
0001
0000
0000
0100
,
0000
0000
0000
0000
,
0010
0000
0000
1000
,
0000
0000
0000
0000
,
0001
0000
0000
1000
,
0000
0000
0000
0000
,
0001
0000
0000
0000
,
1000
0000
1000
0000
,
0010
0000
0000
0000
,
0100
0000
0100
0000
,
0010
0000
0000
0000
,
1000
0000
1000
0000
,
0001
0000
0000
0000
,
0010
0000
0010
0000
,
1001
0000
0000
0000
,
1001
0000
0000
0000
,
1001
0000
0000
0000
,
0000
0010
0000
0110
,
0000
0000
0000
0110
,
0000
0000
0000
0110
,
0000
0000
0000
0010
,
0000
0000
0000
1000
,
0000
1000
0000
1000
,
0000
1000
0000
0001
,
0000
0001
0000
0001
,
0000
0000
0001
0000
,
0000
0000
0100
0000
,
0000
0000
0010
0000
,
0000
1000
0000
0000
,
0000
0000
0001
0001
,
0000
0000
1000
1000
,
0000
0000
0010
0010
,
0000
0000
0100
0100
,
0000
0000
0100
0100
,
0000
0000
0010
0010
,
0000
0000
1000
1000
,
0000
0000
0001
0001
,
0000
0000
1000
0000
,
0000
0010
0010
0000
,
0000
0100
0100
0000
,
0000
0001
0001
0000
,
0000
0000
1000
0000
,
0010
0000
0100
0000
,
0010
0000
1001
0000
,
0010
0000
1001
0000
,
0100
0100
1001
0000
,
0000
0000
0010
0000
,
0000
0000
1000
0000
,
0000
0000
0200
0000
,
0000
0000
0000
0300
,
0010
0001
1000
0000
,
0000
0000
0001
0000
,
0000
0000
0100
0000
,
0000
0000
0010
0000
,
0100
0000
0000
0000
,
0010
0000
0000
0000
,
1000
0000
0001
0000
,
0100
0000
0000
0000
0010
0000
0000
1001
;

//---------------dance-single - ----------------
#NOTEDATA:;
#CHARTNAME:;
#STEPSTYPE:dance-single;
#DESCRIPTION:;
#CHARTSTYLE:;
#DIFFICULTY:Challenge;
#METER:11;
#RADARVALUES:0.962488,1.268483,0.308053,0.397488,0.864536,678.000000,647.000000,31.000000,40.000000,0.000000,0.000000,0.000000,0.000000,0.000000,0.962488,1.268483,0.308053,0.397488,0.864536,678.000000,647.000000,31.000000,40.000000,0.000000,0.000000,0.000000,0.000000,0.000000;
#CREDIT:;
#NOTES:
// measure 0
0000
0000
0000
0000
,  // measure 1
0000
0000
0000
0000
,  // measure 2
1100
0000
0000
0000
0000
0000
0100
0000
0000
1000
0000
0000
0010
0000
0000
0000
0000
0000
0100
0000
0000
0000
0000
0000
0101
0000
0000
0000
0000
0000
0001
0000
1000
0000
0001
0000
0100
0000
0000
0000
0000
0000
0000
0000
0000
0000
0000
0000
,  // measure 3
0010
0000
0000
0000
0000
0000
0100
0000
0000
0001
0000
0000
0010
0000
0000
0000
0000
0000
0100
0000
0000
0000
0000
0000
1000
0000
0000
0000
0000
0000
0100
0000
0010
0000
0001
0000
1000
0000
0000
0000
0000
0000
0101
0000
0000
0000
0000
0000
,  // measure 4
0021
0000
0001
0000
0031
0000
0010
0100
1000
0000
0001
0100
1000
0100
0001
0000
,  // measure 5
1000
0000
0000
0010
0000
0000
0100
0000
0000
0000
0000
0000
0001
0000
0000
0000
0000
0000
1000
0000
0000
0000
0000
0000
0001
0000
0000
0010
0000
0000
1000
0000
0010
0000
0001
0000
1000
0000
0000
0000
0000
0000
0000
0000
0000
0000
0000
0000
,  // measure 6
0101
0000
0000
0001
0000
0000
0010
0000
0000
0001
0000
0000
1000
0000
0000
0000
0000
0000
1000
0000
0000
0001
0000
0000
0100
0000
0000
0000
0000
0000
0010
0000
0100
0000
0001
0000
1000
0000
0000
0000
0000
0000
0001
0000
0000
0000
0000
0000
,  // measure 7
1100
0000
1100
0000
0000
0000
0001
0000
0101
0000
0101
0000
0000
0000
0001
0000
1001
0000
1001
0000
0000
0000
0100
0000
0110
0000
0100
0000
0010
1000
0001
0010
,  // measure 8
0100
0000
1000
0100
1000
0000
0010
0000
0100
0000
0001
1000
0001
0000
1000
0000
,  // measure 9
0001
0010
1000
0010
0100
1000
0100
0010
,  // measure 10
0001
0000
1000
0010
1000
0000
0010
0000
0100
0000
0001
0100
0010
0000
1000
0000
,  // measure 11
0001
0010
1000
0010
0001
0010
0100
1000
,  // measure 12
0200
0000
1300
0010
0100
0000
0010
0000
0100
0000
0001
1000
0010
0000
1000
0000
,  // measure 13
0001
0010
1000
0010
0100
1000
0010
0100
,  // measure 14
0001
0000
1000
0010
1000
0000
0010
0000
0100
0000
0001
0010
0100
0000
1000
0000
,  // measure 15
0001
0100
0010
0000
1000
0001
0010
0000
0100
1000
0010
0100
0001
0010
0100
1000
,  // measure 16
0001
0000
1000
0010
1000
0000
0001
0000
0010
0001
0010
0000
0100
0000
1000
0000
,  // measure 17
0001
0100
0001
0000
0100
0010
0100
0000
0010
1000
0010
0000
1000
0100
1000
0000
,  // measure 18
0001
0000
1000
0010
1000
0000
0010
0000
0100
0000
0001
0100
0001
0000
0010
0000
,  // measure 19
0100
0010
0100
0000
0010
0001
0010
0000
0001
1000
0001
0000
1000
0010
1000
0000
,  // measure 20
0100
0000
0010
0001
0100
0000
0010
0000
1000
0000
0010
0100
0001
0000
1000
0000
,  // measure 21
0001
0100
0010
0000
0100
0010
1000
0000
0100
0010
0001
0000
0010
0001
0100
0000
,  // measure 22
0010
0000
1000
0001
0010
0000
0001
0000
1000
0000
0001
0100
0010
0000
1000
0000
,  // measure 23
0010
1000
0010
0000
0100
0010
0100
0000
0001
0100
0001
0000
0001
0010
0001
0000
,  // measure 24
1000
0200
0010
0000
0000
0000
1000
0000
1300
0000
0000
0000
1001
0000
0000
0000
,  // measure 25
0001
0200
0010
0000
0000
0000
0001
0000
0301
0000
0000
0000
1001
0000
0000
0000
,  // measure 26
1000
0002
0100
0000
0000
0000
0010
0000
0013
0000
0000
0000
1001
0000
0000
0000
,  // measure 27
0000
0000
0010
0000
2002
3003
0220
0330
2002
0000
3003
0000
0001
0100
0020
0000
,  // measure 28
1000
0000
1030
0000
1002
0000
0000
0000
0013
0000
0000
0000
1000
0010
0200
0000
,  // measure 29
0001
0000
0301
0000
2001
0000
0000
0000
3100
0000
0000
0000
1000
0001
0020
0000
,  // measure 30
0100
0000
0130
0000
2100
0000
0000
0000
3010
0000
0000
0000
0201
0000
0010
0300
,  // measure 31
1200
0000
0010
0300
1001
0000
0000
0000
0001
0000
0100
0000
0010
0000
1000
0000
,  // measure 32
0001
0010
0001
1000
0001
0010
0001
1000
,  // measure 33
0010
0100
0100
0010
0100
1000
0010
1000
,  // measure 34
0001
0010
0100
0010
0001
1000
0100
0010
,  // measure 35
0001
0000
1000
0000
0001
0000
1000
0000
0001
0100
0020
0000
1030
0010
0200
0000
,  // measure 36
0310
1000
0002
0000
0013
0100
2000
0000
3010
0100
0002
0000
0013
0100
2000
0000
,  // measure 37
3001
0100
0020
0000
1030
0001
0100
0001
1000
0010
0200
0000
0301
0100
0020
0000
,  // measure 38
0130
0001
2000
0000
3100
0020
0000
0000
0000
0000
0000
0000
0000
0000
0000
0000
,  // measure 39
0000
0000
0000
0000
0130
0100
0010
0010
,  // measure 40
0000
0000
0001
0000
1000
0000
0010
1000
0100
0000
0100
0000
0010
0000
0010
0000
,  // measure 41
0000
0000
0100
0000
1000
0000
0001
1000
0001
0000
0001
0000
0100
0000
0100
0000
,  // measure 42
0000
0000
0010
0000
0010
0000
0100
0001
0100
0000
0100
0000
0010
0000
0100
0000
,  // measure 43
0000
0000
0010
0000
0100
0000
0001
1000
0001
0000
0001
0000
1000
0000
0001
0000
,  // measure 44
0000
0000
1000
0000
0100
0000
0010
0001
0100
0000
0100
0000
0010
0000
1000
0000
,  // measure 45
0000
0000
0001
0000
1000
0000
0100
1000
0010
0000
0010
0000
0100
0000
0001
0000
,  // measure 46
0000
0000
1000
0000
0001
0000
0010
0001
0010
0000
0010
0000
0010
0000
0010
0100
,  // measure 47
1000
0000
0100
0010
0001
0000
1000
0000
0001
0000
0200
0000
1000
0300
0100
0000
,  // measure 48
0002
0000
0010
0003
0001
0000
0100
0000
0020
0000
1000
0030
0001
0000
0010
0000
,  // measure 49
2000
0000
0010
3000
0001
0000
0100
0000
0020
0000
1000
0030
0001
0000
0010
0000
,  // measure 50
2000
0000
0010
3000
0100
1000
0001
1000
0001
0000
0011
0000
0000
0000
1010
0000
,  // measure 51
0000
0000
0101
0000
0000
0000
0000
0000
0001
0100
0010
0000
1000
0000
0001
1000
,  // measure 52
0100
0000
1000
0000
0001
0100
0010
1000
0001
0010
0001
0000
0010
0000
0100
1000
,  // measure 53
0100
0000
1000
0000
0010
0100
0001
0010
0100
0000
1000
0001
0100
0000
0101
0000
,  // measure 54
0001
1000
0010
0000
1010
0000
1000
0001
0100
0000
0101
0000
0001
0010
0100
0000
,  // measure 55
0010
0001
0100
0010
1000
0001
0010
0001
1000
1000
0000
0001
0100
0100
0001
0010
,  // measure 56
0100
0100
0000
0010
0010
0001
0001
1000
0010
1000
0100
0000
0010
0001
0100
0010
,  // measure 57
0000
1000
0000
0010
0000
0001
0000
0010
0100
0001
0010
0000
0010
1000
0010
0100
,  // measure 58
0000
1000
0000
0100
0000
0010
0001
1000
1002
1000
1000
0000
0100
0100
0100
0100
,  // measure 59
0000
1000
0000
1000
0000
1000
1000
1000
1003
0100
0010
0000
0010
0001
0100
0010
,  // measure 60
0100
0000
0000
0000
0001
0000
0000
0000
1000
0010
0100
0001
0010
0001
1000
0100
1000
0000
0000
0000
0001
0000
0100
0000
0001
0000
0000
0000
1000
0000
0000
0000
,  // measure 61
0100
1000
0100
0000
0010
0000
0001
0000
1000
0010
1000
0000
0010
0100
0010
0000
,  // measure 62
0100
0001
0100
0000
0001
0010
0001
0000
1000
0000
0001
0100
0001
0000
0100
0000
,  // measure 63
0010
0000
1000
0010
1000
0000
0100
0000
0010
0000
0010
0000
0001
2000
0002
3003
,  // measure 64
0001
0000
1000
0010
1000
0000
0001
0000
0010
0001
0010
0000
0100
0000
1000
0000
,  // measure 65
0001
0100
0001
0000
0100
0010
0100
0000
0010
1000
0010
0000
1000
0100
1000
0000
,  // measure 66
0001
0000
1000
0010
1000
0000
0010
0000
0100
0000
0001
0100
0001
0000
0010
0000
,  // measure 67
0100
1000
0100
0010
0001
0100
0010
1000
0001
0010
0100
0010
0001
1000
0020
0000
,  // measure 68
0000
0000
0000
0000
,  // measure 69
0030
0000
0000
0000
;
