#VERSION:0.82;
#TITLE:Line 4 Ruin;
#SUBTITLE:;
#ARTIST:Ryu☆;
#TITLETRANSLIT:;
#SUBTITLETRANSLIT:;
#ARTISTTRANSLIT:;
#GENRE:;
#ORIGIN:;
#CREDIT:;
#BANNER:Line 4 Ruin.png;
#BACKGROUND:Line 4 Ruin-bg.png;
#PREVIEWVID:;
#JACKET:Line 4 Ruin-jacket.png;
#CDIMAGE:;
#DISCIMAGE:;
#LYRICSPATH:;
#CDTITLE:cdtitle.png;
#MUSIC:Line 4 Ruin.mp3;
#OFFSET:1.139999;
#SAMPLESTART:70.331367;
#SAMPLELENGTH:13.617020;
#SELECTABLE:YES;
#BPMS:0.000=141.000;
#STOPS:;
#DELAYS:;
#WARPS:;
#TIMESIGNATURES:0.000=4=4;
#TICKCOUNTS:0.000=4;
#COMBOS:0.000=1;
#SPEEDS:0.000=1.000=0.000=0;
#SCROLLS:0.000=1.000;
#FAKES:;
#LABELS:0.000=Song Start;
#BGCHANGES:;
#KEYSOUNDS:;
#ATTACKS:
;

//---------------dance-single - ----------------
#NOTEDATA:;
#CHARTNAME:;
#STEPSTYPE:dance-single;
#DESCRIPTION:;
#CHARTSTYLE:;
#DIFFICULTY:Hard;
#METER:7;
#RADARVALUES:0.400828,0.421831,0.042771,0.094097,0.081265,312.000000,5.000000,11.000000,0.000000,0.000000,0.000000,0.000000,0.000000,0.400828,0.421831,0.042771,0.094097,0.081265,312.000000,5.000000,11.000000,0.000000,0.000000,0.000000,0.000000,0.000000;
#CREDIT:;
#NOTES:
// measure 0
0000
0000
0000
0000
,  // measure 1
0000
0000
0000
0000
,  // measure 2
0000
0000
0000
0000
,  // measure 3
0000
0000
0000
0000
,  // measure 4
0000
0000
0000
0000
,  // measure 5
0001
0000
0000
0100
0000
0100
0000
0100
,  // measure 6
0000
0010
0010
1000
,  // measure 7
0001
0000
0000
1000
0000
0000
1000
0001
,  // measure 8
0000
0001
1000
0000
0010
0000
0100
0100
,  // measure 9
0001
0000
1000
0010
0000
0100
0000
0020
,  // measure 10
0000
0000
1000
0000
1030
0000
0001
1000
,  // measure 11
0100
0000
0020
0001
0000
0001
0000
0031
,  // measure 12
0000
1000
0001
0000
0010
0001
0010
0001
,  // measure 13
1000
0000
0100
0000
0010
0000
0000
0001
0000
0000
0100
0000
0010
0000
1000
0000
,  // measure 14
0001
0000
0010
0000
0001
0000
0000
1000
0000
0000
0100
0000
1000
0000
0010
0000
,  // measure 15
0100
0000
0001
0000
0010
0000
0000
0100
0000
0000
0010
0000
0001
0000
1000
0000
,  // measure 16
0100
0000
1000
0000
0010
0100
0000
0100
0000
0001
1000
0000
0100
0000
0000
0000
,  // measure 17
0000
0000
0000
0000
,  // measure 18
1001
0000
0001
1000
0020
0000
0000
0000
,  // measure 19
0130
0010
0100
0002
2003
3000
0000
0000
,  // measure 20
0001
0000
1000
0200
0000
0320
0000
0032
,  // measure 21
0000
1003
0020
0000
0130
0000
0001
0000
,  // measure 22
1000
0000
1000
0100
0000
0100
0000
0010
,  // measure 23
0000
0001
2000
0000
3010
1000
0002
0000
,  // measure 24
0013
0100
1000
0001
0000
0100
0000
0010
,  // measure 25
0100
0010
0000
0000
1000
0000
0001
0001
,  // measure 26
1000
0000
0000
0001
0000
0001
0000
0001
,  // measure 27
0000
1000
1000
0010
,  // measure 28
1000
0000
0000
0010
0000
0010
0000
0100
,  // measure 29
0000
0010
0100
0000
0001
1000
0100
0100
,  // measure 30
0010
0000
0000
0001
0000
0001
0000
1000
,  // measure 31
0000
0001
0001
0100
,  // measure 32
0010
0000
0000
1000
0000
0000
0010
1000
,  // measure 33
0000
1000
0100
0000
0010
0001
0000
0000
,  // measure 34
1000
0001
0100
0001
,  // measure 35
1000
0100
1000
0001
0000
0001
1000
0000
,  // measure 36
0100
0000
0010
0001
0000
0010
0000
0010
,  // measure 37
0001
0000
0001
1000
0000
1000
0100
0000
,  // measure 38
1000
0010
0100
0001
,  // measure 39
0100
0010
1000
0001
0000
1000
0100
1000
,  // measure 40
0001
0000
0010
0001
0000
0100
0010
1000
,  // measure 41
0000
0010
0100
0001
0000
0000
1000
0000
,  // measure 42
0001
0101
1000
1100
,  // measure 43
1000
0100
0010
0100
0000
0010
0001
0000
,  // measure 44
0010
0000
0100
1000
0000
0100
0000
0100
,  // measure 45
0010
0000
0010
0001
0000
0001
1000
1000
,  // measure 46
0001
0101
0100
0110
,  // measure 47
0010
0100
0001
1000
0000
0001
0010
0100
,  // measure 48
0010
0000
0100
1000
0000
0010
0100
1000
,  // measure 49
0000
1000
0010
0100
0000
0000
0001
0000
,  // measure 50
1000
0000
0001
0000
0010
0000
0000
0100
0000
0000
0010
0000
0001
0000
0100
0000
,  // measure 51
0010
0000
1000
0000
0001
0000
0000
0100
0000
0000
0010
0000
1000
0000
0100
0000
,  // measure 52
0010
0000
0100
0000
1000
0000
0000
0001
0000
0000
1000
0000
0001
0000
1000
0000
,  // measure 53
0010
0000
0100
0000
0001
0000
0000
0100
0000
0000
0010
0000
0100
0000
0001
0000
,  // measure 54
0010
0000
0100
0000
0010
0000
0000
0001
0000
0000
1000
0000
0010
0000
0100
0000
,  // measure 55
0001
0000
1000
0000
0010
0000
0000
0100
0000
0000
0010
0000
0100
0000
0001
0000
,  // measure 56
1000
0000
0100
0000
0010
0000
0000
0100
0000
0000
0010
0000
0001
0000
0100
0000
,  // measure 57
0010
0000
1000
0000
0001
1000
0000
0010
0000
0010
0100
0000
0001
0000
0000
0000
,  // measure 58
1000
0000
0000
0100
0000
0100
0000
0100
,  // measure 59
0000
0010
0010
0010
,  // measure 60
0001
0000
0000
1000
0000
1000
0000
1000
,  // measure 61
0000
0001
1000
0000
0001
1000
0100
0010
,  // measure 62
0001
0000
0000
1000
0000
1000
0000
0010
,  // measure 63
0000
0100
0100
0100
,  // measure 64
0010
0000
0000
1000
0000
0000
0001
1000
,  // measure 65
0100
0000
0010
0000
0001
0010
0000
0001
0000
0100
0010
0000
1000
0000
0000
0000
;

//---------------dance-single - ----------------
#NOTEDATA:;
#CHARTNAME:;
#STEPSTYPE:dance-single;
#DESCRIPTION:;
#CHARTSTYLE:;
#DIFFICULTY:Medium;
#METER:5;
#RADARVALUES:0.338504,0.309343,0.008554,0.059880,0.000000,269.000000,1.000000,7.000000,0.000000,0.000000,0.000000,0.000000,0.000000,0.338504,0.309343,0.008554,0.059880,0.000000,269.000000,1.000000,7.000000,0.000000,0.000000,0.000000,0.000000,0.000000;
#CREDIT:;
#NOTES:
0000
0000
0000
0000
,
0000
0000
0000
0000
,
0000
0000
0000
0000
,
0000
0000
0000
0000
,
0000
0000
0000
0000
,
1000
0000
0000
0001
0000
1000
0000
0001
,
0000
0100
0100
0010
,
0100
0000
0000
0001
0000
0000
0100
0001
,
0000
0100
0010
0000
1000
0000
1001
0000
,
0001
1000
0100
1000
,
0010
0010
0100
0001
,
1000
0000
0000
0100
0000
1000
0000
0010
,
0000
0100
0001
0000
1000
0001
1000
0000
,
0001
0001
1000
0100
,
0001
0100
0010
0010
,
0100
1000
0010
0001
,
0010
0000
0100
0000
0001
1000
0001
0000
,
0000
0000
0000
0000
,
1000
0000
0001
0100
0020
0000
0000
0000
,
0130
0001
0100
0001
0100
0000
0000
0000
,
0010
0000
0000
1000
0000
0001
0000
1000
,
0001
0000
0200
0000
0310
1000
0200
0000
,
0310
0000
0000
0001
0000
0001
0000
0001
,
0000
0010
0001
0000
1000
0001
0200
0000
,
0310
0000
0000
0100
0000
0100
0000
0010
,
0000
1000
0002
0000
0013
0000
0100
0100
,
1000
0020
0000
0000
,
0130
0000
0100
0000
0010
0000
1000
0001
,
0200
0000
0000
0301
0000
1000
0000
1000
,
0000
0001
0010
0000
0100
1000
0001
0100
,
0001
0000
0000
1000
0000
1000
0000
0100
,
0000
0000
0010
0000
0100
1000
0001
0100
,
0010
0000
0000
0100
0000
0000
0001
1000
,
0000
0001
1000
0000
0010
0000
0000
0000
,
1000
0010
0001
0010
,
1000
0100
0010
0001
0000
0010
0001
0000
,
0010
0000
0100
1000
0000
0100
0000
0010
,
0001
0000
0000
0010
0000
0001
0100
0000
,
0010
1000
0100
0001
,
0100
0010
0001
1000
0000
1000
0001
0100
,
0001
0000
0000
0100
0000
0010
1000
0100
,
0000
0010
0001
0100
0000
0000
0010
0000
,
1000
0001
0010
0001
,
1000
0010
1000
0001
0000
0010
0001
0000
,
0010
0000
0001
0100
0000
0010
0000
1000
,
0100
0000
0000
0100
0000
0000
0010
0000
,
0001
0010
0100
0010
,
0001
0010
0100
0010
0000
0010
0100
1000
,
0100
0000
0010
0001
0000
1000
0001
0100
,
0000
0010
1000
0100
0000
0000
0010
0000
,
0001
0000
0010
0000
0100
1000
0100
0000
,
1000
0000
0010
0000
0100
0010
1000
0000
,
0001
0000
0100
0000
0010
0100
0010
0000
,
0100
0000
0001
0000
0100
0010
1000
0001
,
0010
0000
0100
0000
0010
0001
0010
0000
,
0001
0000
0100
0000
0010
1000
0010
0000
,
1000
0000
0001
0000
0010
0100
1000
0000
,
0100
0000
0010
0000
0001
0010
0100
0000
,
0010
0000
0000
0001
0000
1000
0000
0010
,
0000
0100
0100
0010
,
1000
0000
0000
0001
0000
1000
0000
0001
,
0000
0010
0001
0000
0010
0100
1000
0000
,
0001
0000
0000
0100
0000
0100
0000
0010
,
0000
0100
0100
0001
,
1000
0000
0000
0100
0000
0000
0010
0001
,
0000
0001
1000
0000
0100
0010
0001
0000
;

//---------------dance-single - ----------------
#NOTEDATA:;
#CHARTNAME:;
#STEPSTYPE:dance-single;
#DESCRIPTION:;
#CHARTSTYLE:;
#DIFFICULTY:Easy;
#METER:2;
#RADARVALUES:0.173529,0.196855,0.000000,0.042771,0.000000,137.000000,0.000000,5.000000,0.000000,0.000000,0.000000,0.000000,0.000000,0.173529,0.196855,0.000000,0.042771,0.000000,137.000000,0.000000,5.000000,0.000000,0.000000,0.000000,0.000000,0.000000;
#CREDIT:;
#NOTES:
0000
0000
0000
0000
,
0000
0000
0000
0000
,
0000
0000
0000
0000
,
0000
0000
0000
0000
,
0000
0000
0000
0000
,
1000
0000
0001
0000
,
0100
0000
0001
0000
,
0010
0000
0001
0000
,
1000
0000
0001
1000
,
0010
0000
1000
0000
,
0010
0010
0100
0001
,
1000
0000
0001
0000
,
1000
1000
1000
0000
,
0001
0000
0010
0000
,
0100
1000
0100
1000
,
0100
0000
0010
0000
,
0001
1000
0010
0010
,
0000
0000
0000
0000
,
0100
0000
0002
0000
,
1003
1000
1000
0000
,
0100
0000
1000
0000
,
0010
0100
0001
0020
,
0130
0000
0010
0000
,
0001
1000
0001
0200
,
0301
0000
0100
0100
,
0100
0000
0000
0010
,
1000
1000
0000
0000
,
0001
0000
0000
0100
,
0001
0000
0000
0000
,
0000
0000
0000
0000
,
0010
0000
0000
0000
,
0100
0000
0000
1000
,
0001
0000
0000
0000
,
0000
0000
0000
0000
,
0100
0000
0001
0000
,
0010
0000
0000
0001
,
1000
0000
0100
0000
,
1000
0000
0001
0000
,
0100
0100
0001
0001
,
0100
0000
0010
0000
,
1000
0000
0001
0000
,
0000
0100
0000
0010
,
1000
0010
0100
0001
,
1000
0000
0001
0000
,
1000
0000
0100
0000
,
1000
0000
0010
0000
,
0100
0001
0010
0100
,
0100
0000
0010
0000
,
0100
0000
1000
0000
,
0001
0000
0100
0000
,
0010
1000
0000
0001
,
1000
0100
0100
0000
,
1000
0000
0010
0000
,
0100
0001
0010
0001
,
1000
0000
0001
0000
,
0100
0001
0100
0000
,
0010
0000
1000
0000
,
0100
0100
0010
0100
,
2000
0000
0000
0000
,
3000
0000
0000
0000
,
0002
0000
0000
0000
,
0000
0000
0000
0000
,
0103
0000
0001
0000
,
0010
0010
0010
0000
,
0100
0000
1000
0000
,
0001
1000
0001
0100
;

//---------------dance-single - ----------------
#NOTEDATA:;
#CHARTNAME:;
#STEPSTYPE:dance-single;
#DESCRIPTION:;
#CHARTSTYLE:;
#DIFFICULTY:Beginner;
#METER:1;
#RADARVALUES:0.114871,0.140610,0.000000,0.000000,0.000000,94.000000,0.000000,0.000000,0.000000,0.000000,0.000000,0.000000,0.000000,0.114871,0.140610,0.000000,0.000000,0.000000,94.000000,0.000000,0.000000,0.000000,0.000000,0.000000,0.000000,0.000000;
#CREDIT:;
#NOTES:
0000
0000
0000
0000
,
0000
0000
0000
0000
,
0000
0000
0000
0000
,
0000
0000
0000
0000
,
0000
0000
0000
0000
,
1000
0000
0000
0000
,
0100
0000
0000
0000
,
1000
0000
0000
0000
,
0001
0000
0000
0000
,
0001
0000
0000
0000
,
1000
1000
1000
0000
,
0010
0000
0100
0000
,
0010
0010
0010
0000
,
0100
0000
0000
0000
,
0001
0000
0000
0000
,
1000
0000
0100
0000
,
1000
1000
0001
1000
,
0000
0000
0000
0000
,
0010
0000
0100
0000
,
0001
0001
0001
0000
,
0100
0000
0000
0000
,
0000
0010
0000
0100
,
0100
0000
0000
0000
,
0000
0010
0000
1000
,
0001
0000
0000
0000
,
0100
0000
0000
0000
,
0010
0010
0000
0000
,
1000
0000
0000
0001
,
0001
0000
0000
0000
,
0000
0000
0000
0000
,
0100
0100
0000
0000
,
0000
0000
0000
0010
,
0010
0000
0000
0000
,
0000
0000
0000
0000
,
1000
0000
1000
0000
,
1000
0000
0000
0000
,
0001
0000
0001
0000
,
0001
0000
0000
0000
,
0010
0000
0010
0000
,
0010
0000
0000
0000
,
0100
0000
0100
0000
,
0100
0000
0000
0000
,
0010
0000
1000
0000
,
0001
0000
0000
1000
,
1000
0000
0001
0000
,
0100
0000
0000
0000
,
0010
0000
0100
0000
,
0001
0000
0000
0001
,
1000
0000
1000
0000
,
0001
0000
1000
0010
,
1000
0000
0000
0000
,
0010
0100
0100
0000
,
0001
0000
0000
0000
,
1000
0000
0001
0000
,
0100
0100
0000
0000
,
0010
0000
1000
0000
,
0001
0000
0000
0000
,
0100
0000
0000
0000
,
0010
0000
0000
0000
,
1000
0000
0000
0000
,
0001
0000
0000
0000
,
0100
0000
0000
0000
,
0001
0000
0000
0000
,
1000
0000
0000
0000
,
0100
0000
0000
0000
,
1000
0000
0010
0100
;
