#TITLE:Limousine;
#SUBTITLE:;
#ARTIST:Manuel;
#TITLETRANSLIT:;
#SUBTITLETRANSLIT:;
#ARTISTTRANSLIT:;
#GENRE:;
#CREDIT:;
#BANNER:Limousine.png;
#BACKGROUND:Limousine-bg.png;
#LYRICSPATH:;
#CDTITLE:cdtitle.png;
#MUSIC:Limousine.mp3;
#OFFSET:-4.702998;
#SAMPLESTART:61.639000;
#SAMPLELENGTH:13.399994;
#SELECTABLE:YES;
#BPMS:0.000000=150.000000
;
#STOPS:
;
#BGCHANGES:;
#KEYSOUNDS:;
#ATTACKS:;

//---------------dance-single - ----------------
#NOTES:
     dance-single:
     :
     Hard:
     8:
     0.515786,0.515935,0.383563,0.183443,0.170936,433.000000,387.000000,46.000000,22.000000,0.000000,0.000000,0.515786,0.515935,0.383563,0.183443,0.170936,433.000000,387.000000,46.000000,22.000000,0.000000,0.000000:
1001
0000
0000
0000
0101
0000
0000
0011
,
0000
0000
0000
0000
,
0000
0000
0000
0000
0000
0000
1000
0001
,
0000
0100
0000
0100
0001
1000
0010
0000
,
1001
0000
0000
0000
1010
0000
0000
1100
,
0000
0000
0000
0000
,
2000
0000
0000
3002
0000
0000
0003
0000
,
0100
0000
0001
0010
0000
0001
0100
0010
,
1010
0000
0010
0100
0101
0000
0001
1001
,
0000
0001
1000
0000
0010
0100
0010
0000
,
1010
0000
0101
0000
0011
0000
0001
0010
,
0000
0001
2000
0002
0000
3000
0003
0000
,
1000
0000
0000
0001
0100
0000
0010
0000
1000
0000
0000
1000
0000
0000
0010
0000
,
0100
0000
0000
0001
0000
0000
0100
0000
0000
0001
0000
0000
0100
0000
0010
0000
,
1000
0001
0010
0001
1000
0010
0100
0001
,
0010
0000
0000
0100
0000
0000
1000
0000
0001
0000
0000
0000
0100
0000
0001
0000
,
0010
0000
0000
0100
1000
0000
0001
0000
0100
0000
0000
0100
0000
0000
0010
0000
,
1000
0000
0000
0001
0000
0000
1000
0000
0000
0001
0000
0000
1000
0000
0010
0000
,
0100
0001
0010
0001
1000
0001
0100
0001
,
0000
0010
0000
0100
1000
0000
0001
0000
2000
0000
0000
0000
3020
0000
0000
0000
,
0130
0000
0001
0000
0010
0001
1000
0100
,
0010
0000
0100
0000
1000
0001
0010
0001
,
1000
0000
0010
0000
0100
0010
1000
0001
,
0010
0000
0000
0100
0000
0000
2000
0000
0000
0000
0000
0000
3001
0000
0000
0000
,
1000
0010
0101
0000
0001
0010
1100
0000
,
1000
0010
0101
0000
0001
0010
1100
0000
,
1002
0000
1000
0000
1003
0000
0001
0101
,
0000
1100
0000
0101
0000
0010
1001
0000
,
0001
1000
0010
1000
0100
0010
0100
1000
,
0001
0100
0001
0010
0100
1000
0001
0000
,
1000
0010
0100
0001
0000
0021
0000
1000
,
0000
0031
0200
1000
0000
0310
0000
0000
,
1000
0000
0010
0000
0100
0001
0100
0001
,
0100
0000
0001
0000
1000
0010
1000
0010
,
0110
0000
2002
0000
0000
0000
3003
0101
,
0000
1100
0000
1001
0000
0000
0000
0000
,
1001
0000
0001
0100
0001
0010
0001
1000
,
0000
0000
0010
1000
0000
1000
0010
0000
0100
0000
0001
0000
1000
0000
0001
0000
,
0000
1000
0001
1000
0000
0001
1000
0010
,
0100
0000
0001
0100
0000
0100
0001
0000
0000
0000
1000
0000
0010
0000
1000
0000
,
0001
0000
1000
1010
0000
0101
0000
0021
,
0000
0000
0130
1000
0002
0000
0103
0000
,
1001
0010
0100
1001
0000
0011
0000
1100
,
0000
1000
0001
0020
0000
0031
1000
0020
,
0000
0030
0100
0001
0010
0001
1000
0010
,
0100
0000
0001
1000
0000
1000
0001
0000
0010
0000
0100
0000
1000
0000
0100
0000
,
0000
1000
0100
1000
0000
0100
1000
0100
,
0000
0010
0001
0100
0000
0010
1000
0000
,
1001
0000
0001
0101
0000
1010
0000
1002
,
0000
0000
0103
0010
0100
0000
0001
1000
,
0000
1000
0100
0001
0000
0001
0100
1000
,
0000
0020
0000
0230
0000
0002
0000
0303
,
0001
1001
0110
2002
0000
0003
3000
0000
,
0001
0000
0000
1000
0010
0000
0100
0000
0001
0000
0000
0001
0000
0000
0100
0000
,
0010
0000
0000
1000
0000
0000
0010
0000
0000
1000
0000
0000
0010
0000
0100
0000
,
0001
1000
0100
1000
0001
0100
0010
1000
,
0100
0000
0000
0010
0000
0000
0001
0000
1000
0000
0000
0000
0010
0000
1000
0000
,
0100
0000
0000
0010
0001
0000
1000
0000
0010
0000
0000
0010
0000
0000
0100
0000
,
0001
0000
0000
1000
0000
0000
0001
0000
0000
1000
0000
0000
0001
0000
0010
0000
,
0100
1000
0100
0001
0100
1000
0010
0100
,
0000
0001
0000
1000
0001
0000
0100
0000
0110
0000
0000
0000
0101
0000
0000
0000
,
1001
0000
0000
1000
0001
0000
0010
0000
0100
0000
0000
0100
0000
0000
0010
0000
,
0001
0000
0000
0100
0000
0000
1000
0000
0000
0100
0000
0000
0010
0000
0100
0000
,
0001
0010
0001
1000
0010
0100
0010
0100
,
0001
0000
0000
0010
0000
0000
0100
0000
0010
0000
0000
0000
0100
0000
1000
0000
,
0001
0000
0000
1000
0010
0000
1000
0000
0100
0000
0000
0100
0000
0000
0010
0000
,
0001
0000
0000
1000
0000
0000
0100
0000
0000
0001
0000
0000
0100
0000
1000
0000
,
0001
1000
0010
1000
0001
1000
0100
1000
,
0000
0001
0000
0100
0010
0000
1000
0001
1000
0000
0000
0000
0101
0000
0000
0000
;

//---------------dance-single - ----------------
#NOTES:
     dance-single:
     :
     Medium:
     5:
     0.377608,0.429945,0.308518,0.150090,0.000000,317.000000,280.000000,37.000000,18.000000,0.000000,0.000000,0.377608,0.429945,0.308518,0.150090,0.000000,317.000000,280.000000,37.000000,18.000000,0.000000,0.000000:
1001
0000
0000
0000
0101
0000
0000
0011
,
0000
0000
0000
0000
,
0000
0000
0000
0000
0000
0000
1000
0100
,
0000
0010
0000
0100
0010
0100
0010
0000
,
1001
0000
0000
0000
1010
0000
0000
1200
,
0000
0000
0000
0300
,
2000
0000
0000
3001
0000
0000
0000
0000
,
0100
0000
0001
0100
0000
0100
0010
0000
,
1010
0000
0010
0000
0110
0000
0100
0001
,
0000
0010
0100
0000
1000
0100
1000
0000
,
1100
0000
0011
0000
0101
0000
0001
1000
,
0000
0010
0100
0020
0000
0000
0030
0000
,
0100
0001
0010
0010
,
0001
1000
0100
1000
,
0001
0010
0001
0100
,
0101
1010
2002
3003
,
0001
1000
0100
0100
,
1000
0010
0100
0010
,
1000
0001
0010
0100
,
1000
0010
0110
1001
,
0001
0000
1000
0000
0100
0000
1000
0010
,
1000
0010
0100
0100
,
0001
0000
0010
0000
0100
0000
1000
0100
,
0010
0100
2000
3000
,
0001
0011
0010
0110
,
0100
1100
1000
1001
,
0201
0000
0001
0000
0001
0000
0301
0010
,
0000
1000
0000
0010
0000
0100
1000
0000
,
0100
1000
0010
0100
,
0001
0000
0010
0000
0100
0100
0100
0000
,
0010
0000
0001
0010
0000
1000
0000
0010
,
0000
0100
1000
0010
0000
0001
0000
0000
,
0010
0000
0100
0000
0001
0100
0001
0000
,
0100
0000
0010
0000
1000
0010
1000
0000
,
1010
0000
0102
0000
0000
0000
0000
0103
,
0000
0001
0000
0010
0000
0000
0000
0000
,
0110
0100
0010
0001
,
1000
0000
0010
0100
0010
0000
0100
0000
,
0001
0001
1000
1000
,
0010
1000
0010
0000
1000
0000
0100
0000
,
0110
0000
0010
0001
0000
0010
0000
0002
,
0000
1000
2000
3003
,
0001
0100
0010
1000
0000
1010
0000
0101
,
0000
0001
0010
1000
0000
1000
0010
0001
,
0000
1000
0010
0100
,
0001
0000
0010
0100
0010
0000
0100
0000
,
0010
0010
0100
0100
,
1000
0001
0100
0000
0001
1000
0100
0000
,
1000
0000
0010
0100
0000
0001
0000
0010
,
0000
0000
2000
0000
3020
0000
0130
1000
,
0000
1000
0010
0001
0000
0010
0100
0001
,
0000
0010
0000
0100
0000
0020
0000
0000
,
0130
0010
0001
1000
0000
0010
1001
0000
,
1000
0100
1000
1000
,
0010
1000
0010
0100
,
0001
0001
1000
1000
,
1100
0011
1002
0003
,
0100
0001
0010
0010
,
0001
1000
0100
0001
,
0100
0010
0001
1000
,
0010
0100
1001
0110
,
1001
0001
0010
0010
,
0001
1000
0100
1000
,
0020
1000
0230
0301
,
0010
0000
0100
1000
0000
1000
0100
0010
,
0011
0001
0100
0010
,
1000
0020
0130
0200
,
0301
0010
0001
1000
,
0001
0100
0110
1001
;

//---------------dance-single - ----------------
#NOTES:
     dance-single:
     :
     Easy:
     4:
     0.285886,0.343956,0.125075,0.100060,0.000000,240.000000,225.000000,15.000000,12.000000,0.000000,0.000000,0.285886,0.343956,0.125075,0.100060,0.000000,240.000000,225.000000,15.000000,12.000000,0.000000,0.000000:
1000
0000
0000
0000
0010
0000
0000
0100
,
0000
0000
0000
0000
,
0000
0000
0000
0000
,
0000
0000
0000
0000
,
0001
0000
0000
0000
0010
0000
0000
0200
,
0000
0000
0000
0300
,
1000
0000
0001
0000
,
0100
0000
0010
0000
,
1000
0001
0010
0001
,
1000
0100
1000
0010
,
0100
0000
0010
0000
0100
0000
0000
0002
,
0000
0000
0000
0003
,
1000
0100
1000
1000
,
0001
0100
0001
0100
,
0010
0010
0100
0100
,
0001
1000
0020
0030
,
1000
0100
1000
0001
,
0100
0001
0100
0010
,
1000
0100
1000
0001
,
0010
0100
1100
0101
,
1001
0001
0010
0001
,
0200
0000
0300
0000
,
0010
1000
0100
1000
,
0001
0001
0001
0000
,
0000
1001
0000
0110
,
0000
1010
0000
0101
,
0021
0000
0000
0000
0000
0000
0000
0130
,
0000
0100
0000
0100
0000
0100
0010
0000
,
0100
1000
0010
0100
,
0001
0010
0100
0000
,
0010
0000
0000
0001
0000
1000
0000
0010
,
0000
0000
0000
0100
0000
0010
0000
0000
,
1000
1000
1000
1000
,
0001
0001
0001
0001
,
1001
0000
0120
0000
0000
0000
0000
0130
,
0000
0100
0000
0100
0000
0000
0000
0000
,
0010
0100
0001
1000
,
0100
0100
1000
0001
,
0010
0001
1000
0100
,
1000
0010
0100
0001
,
0010
0001
1000
0100
,
0020
0100
0130
0000
,
0010
0000
0000
0001
0000
0100
0000
0010
,
0000
1000
0000
0001
0000
0010
0000
0001
,
0000
0100
0001
1000
,
0100
0100
1000
0010
,
0100
0010
1000
0001
,
0010
0010
0100
0100
,
1000
0100
1000
0010
,
0100
0001
0001
1000
,
0001
0000
0100
0000
0010
0000
0000
0100
,
0000
0010
0000
2000
0000
0002
0000
0000
,
0000
0000
0000
0000
0000
3000
0003
0000
,
0001
1000
0100
0100
,
1000
0010
0100
0010
,
1000
1000
0001
0001
,
0010
0001
0200
0300
,
0010
0100
0001
0001
,
1000
0100
1000
0010
,
0100
0001
0010
0001
,
1000
0100
1100
0011
,
1001
0001
1000
1000
,
0010
0100
0001
0010
,
0200
0310
0020
0031
,
1000
0001
0100
0001
,
1000
0100
1000
0010
,
0100
0001
0100
0100
,
0010
1000
0001
0010
,
0100
0010
0011
1010
;

//---------------dance-single - ----------------
#NOTES:
     dance-single:
     :
     Beginner:
     1:
     0.125075,0.200641,0.075045,0.000000,0.000000,105.000000,96.000000,9.000000,0.000000,0.000000,0.000000,0.125075,0.200641,0.075045,0.000000,0.000000,105.000000,96.000000,9.000000,0.000000,0.000000,0.000000:
0000
0000
0000
0000
,
0000
0000
0000
0000
,
0000
0000
0000
0000
,
0000
0000
0000
0000
,
1000
0000
0001
0000
,
0100
0000
0000
0000
,
0001
0000
0000
0000
,
1000
0000
0000
0000
,
0010
0000
0010
0000
,
0010
0000
0000
0000
,
0100
0100
0100
0000
,
0000
0000
0000
0000
,
1001
0000
0001
0000
,
1000
0000
0000
0000
,
0010
0000
0000
0000
,
0100
0000
0000
0000
,
0010
0000
1000
0000
,
1000
0000
0000
0000
,
0001
0000
0000
0000
,
0010
0000
0001
0001
,
1000
0000
0000
0000
,
0001
0000
0000
0000
,
0100
0000
0000
0000
,
0010
0000
0000
0000
,
1000
0000
0000
1000
,
0000
1000
0000
1000
,
0001
0000
0000
0000
,
0100
0000
0000
0000
,
0010
0000
0000
0000
,
0100
0000
0000
0000
,
0001
0000
1000
0000
,
0010
0000
0100
0000
,
1001
0000
0000
1000
,
1000
0000
0000
0000
,
0010
0010
0000
0000
,
0000
0000
0000
0000
,
1001
0000
0001
0000
,
0100
0000
0000
0000
,
0010
0000
0000
0000
,
0100
0000
0000
0000
,
0001
0000
1000
1000
,
1000
0000
0000
0000
,
1001
0000
0010
0000
,
0100
0000
0010
0000
,
1001
0000
1000
0000
,
0001
0000
0000
0000
,
0100
0000
0000
0000
,
0001
0000
0000
0000
,
1000
0000
0000
0000
,
0100
0000
0000
0000
,
1000
0000
0001
0000
,
0100
0000
0000
0000
,
0110
0000
0000
0000
,
1001
0000
0001
0000
,
1000
0000
0000
0000
,
0010
0000
0000
0000
,
1000
0000
0000
0000
,
0001
0000
0010
0000
,
0001
0000
0000
0000
,
0100
0000
0000
0000
,
0001
0000
1000
0001
,
1001
0000
1000
0000
,
0001
0000
0000
0000
,
0100
0000
0100
0000
,
0010
0010
0010
0000
,
1001
0000
1000
0000
,
0001
0000
0000
0000
,
0010
0000
0001
0000
,
1000
0000
1000
0001
;

//---------------dance-single - ----------------
#NOTES:
     dance-single:
     :
     Challenge:
     10:
     0.661111,0.719182,0.483624,0.333533,0.554499,555.000000,497.000000,58.000000,40.000000,0.000000,0.000000,0.661111,0.719182,0.483624,0.333533,0.554499,555.000000,497.000000,58.000000,40.000000,0.000000,0.000000:
// measure 0
1010
0000
0000
0000
1100
0000
0000
0101
,  // measure 1
0000
0000
0000
0000
,  // measure 2
0000
0000
0000
0000
0000
0000
0000
0000
0000
0000
0000
0000
0000
0000
0000
0000
0000
0000
0001
1000
0001
1000
0000
0000
,  // measure 3
0000
0100
0000
0010
0110
0011
1001
0000
,  // measure 4
0101
0100
0000
0010
1010
2000
0000
3001
,  // measure 5
0000
0200
0000
0000
0000
0000
0000
0000
,  // measure 6
0320
0000
1030
0200
0000
0310
0100
0000
,  // measure 7
1100
0000
0001
0010
0000
0100
0010
0001
,  // measure 8
1001
0001
0100
0000
1010
1000
0100
0110
,  // measure 9
0000
0001
1000
0000
0001
0010
0000
0000
,  // measure 10
0110
0000
1100
0000
0011
0000
0010
1001
,  // measure 11
0000
0001
0200
2000
0000
3000
0300
0000
,  // measure 12
0100
0000
0000
0010
1000
0000
0100
0000
0010
0001
0010
0001
0000
0010
0001
0000
,  // measure 13
0001
0100
0001
0010
0000
0000
0100
1000
0100
0010
0000
0000
0100
0010
0001
1000
,  // measure 14
0010
0000
1000
0001
0000
0001
1000
0010
1000
0000
0100
0010
0000
0010
0001
0100
,  // measure 15
0020
0000
0000
2030
0000
0000
3100
0000
1001
0000
0000
0000
0001
0100
0010
1000
,  // measure 16
0100
0000
0010
0001
0100
0000
0010
0000
1000
0001
0010
0001
0000
1000
0100
0000
,  // measure 17
0010
0001
0100
0010
0000
0000
0010
0100
0001
1000
0000
0000
1000
0001
1000
0001
,  // measure 18
0100
0000
0001
0100
0000
0010
1000
0100
0000
0010
0001
1000
0010
0000
0100
0000
,  // measure 19
0000
0100
0000
0100
0010
0000
0100
0010
2000
0000
0000
0000
3002
0000
0000
0000
,  // measure 20
0013
0000
1000
0100
0000
0000
0010
0000
0100
0000
1000
0000
0010
0000
1000
0000
,  // measure 21
0100
0000
0000
0010
0000
0000
0001
0000
0100
0000
1000
0000
0100
0000
0010
0000
,  // measure 22
1000
0000
0001
0000
0010
0000
0100
0010
0000
0000
0010
0000
0001
0000
0100
0000
,  // measure 23
1020
0000
0000
0230
0000
0000
0002
0000
0000
0000
0000
0000
0303
0000
0000
0000
,  // measure 24
0001
0010
0011
0010
0100
1000
1100
1000
,  // measure 25
0100
0010
0011
0010
0100
1000
1100
1000
,  // measure 26
1002
0000
0000
0000
0000
0000
0000
0000
0000
0000
0000
0000
0000
0000
0000
0000
0000
0000
0103
0010
0100
0010
0000
0000
,  // measure 27
0000
1010
0000
0011
0000
0100
1001
0000
,  // measure 28
1000
0000
0001
0100
0001
0100
0020
0000
0000
0000
1030
0001
1000
0001
0010
0000
,  // measure 29
0000
0100
0010
0001
1000
0010
1001
0000
,  // measure 30
0001
0100
1000
1100
0000
0120
0000
0001
,  // measure 31
0000
0130
0001
0021
0000
0130
0000
0000
,  // measure 32
1001
0000
1010
0000
1000
0001
0010
0100
,  // measure 33
1100
0000
0101
0000
0001
0010
0001
1000
,  // measure 34
1010
0000
0021
0000
0000
0000
0000
0001
,  // measure 35
0000
1000
0000
0130
0000
0000
0000
0000
,  // measure 36
1001
0000
1000
0100
1000
0001
0010
0100
,  // measure 37
0000
0000
0010
0001
0000
0001
1000
0010
1000
0000
0001
0000
0010
0000
0100
0000
,  // measure 38
0000
0000
0010
0000
0001
0000
1000
0000
0000
0000
0010
0000
1000
0000
0100
0010
,  // measure 39
0001
1000
0010
1000
0001
1000
0010
0000
0000
0000
0100
0000
0010
0000
1000
0000
,  // measure 40
1100
0000
0010
0012
0000
0203
0000
2300
,  // measure 41
0000
0000
3100
0010
1000
0000
0000
0000
,  // measure 42
0011
1001
1010
1100
0000
0011
0000
0101
,  // measure 43
0000
1000
0001
0101
0000
0001
1000
1200
,  // measure 44
0000
0000
0310
0001
0100
0001
0000
2001
,  // measure 45
0000
0000
3010
0100
0000
0100
0010
1000
0001
0000
0010
0000
1000
0000
0010
0000
,  // measure 46
0000
0100
0010
0001
0000
0011
0000
1100
,  // measure 47
0000
1000
0001
0200
0000
0010
0310
0000
,  // measure 48
1000
0010
0100
0001
0010
0001
0010
0100
,  // measure 49
1000
0010
0100
0001
0010
0000
0100
2000
,  // measure 50
0000
3100
0001
0200
0000
0310
0001
0200
,  // measure 51
0000
2300
0000
3020
0000
0200
0000
0000
,  // measure 52
0330
0110
1001
0220
0000
0300
0030
0000
,  // measure 53
1001
0000
0000
0010
0001
0000
0010
0000
0100
1000
0100
1000
0000
0100
1000
0000
,  // measure 54
1000
0010
1000
0100
0000
0000
0010
0001
0010
0100
0000
0000
0010
0100
1000
0001
,  // measure 55
0100
0000
0001
1000
0000
1000
0001
0100
0001
0000
0010
0100
0000
0100
1000
0010
,  // measure 56
0200
0000
0000
0302
0000
0000
0013
0000
1001
0000
0000
0000
1000
0010
0100
0001
,  // measure 57
0010
0000
0100
1000
0010
0000
0100
0000
0001
1000
0100
1000
0000
0001
0010
0000
,  // measure 58
0100
1000
0010
0100
0000
0000
0100
0010
1000
0001
0000
0000
0001
1000
0001
1000
,  // measure 59
0010
0000
1000
0010
0000
0100
0001
0010
0000
0100
1000
0001
0100
0000
0010
0000
,  // measure 60
0000
0010
0000
0010
0100
0000
0010
0100
0002
0000
0000
0000
2003
0000
0000
3000
,  // measure 61
1001
0000
0000
0001
0010
0000
0001
0000
0100
0010
0100
0001
0000
1000
0100
0000
,  // measure 62
0010
0100
0010
0001
0000
0000
1000
0010
1000
0001
0000
0000
1000
0010
0100
0001
,  // measure 63
0010
0000
0100
1000
0000
1000
0100
0010
0100
0000
1000
0010
0000
0100
0010
1000
,  // measure 64
0002
0000
0000
0203
0000
0000
0310
0000
1001
0000
0000
0000
0001
0010
0100
0010
,  // measure 65
0001
0000
1000
0010
0100
0000
0001
0000
0010
0100
1000
0001
0000
1000
0001
0000
,  // measure 66
0100
0010
1000
0100
0000
0000
0010
0001
0010
0100
0000
0000
0010
0001
0100
0010
,  // measure 67
0100
0000
0010
1000
0000
1000
0001
0010
0000
0100
0010
0100
0010
0000
0011
0000
,  // measure 68
0000
0010
0000
0010
0100
0000
0010
0100
0002
0000
0000
0000
2000
0000
0000
0000
,  // measure 69
3003
0000
0000
0000
;
