#TITLE:Light My Fire;
#SUBTITLE:;
#ARTIST:GUHROOVY feat. NO+CHIN;
#TITLETRANSLIT:;
#SUBTITLETRANSLIT:;
#ARTISTTRANSLIT:;
#GENRE:;
#CREDIT:;
#BANNER:Light My Fire.png;
#BACKGROUND:Light My Fire-bg.png;
#LYRICSPATH:;
#CDTITLE:cdtitle.png;
#MUSIC:04.Light My Fire.mp3;
#OFFSET:-0.998999;
#SAMPLESTART:20.179001;
#SAMPLELENGTH:10.800001;
#SELECTABLE:YES;
#BPMS:0.000000=100.000000
,16.000000=200.000000
,20.000000=100.000000
,26.000000=200.000000
,30.000000=100.000000
,36.000000=200.000000
,65.000000=100.000000
,81.000000=200.000000
,145.000000=100.000000
,177.000000=200.000000
,205.000000=100.000000
,207.000000=200.000000
;
#STOPS:64.000000=0.900000
;
#BGCHANGES:;
#KEYSOUNDS:;
#ATTACKS:;

//---------------dance-single - ----------------
#NOTES:
     dance-single:
     :
     Hard:
     8:
     0.482007,0.560598,0.426887,0.164187,0.045152,411.000000,359.000000,52.000000,20.000000,0.000000,0.000000,0.482007,0.560598,0.426887,0.164187,0.045152,411.000000,359.000000,52.000000,20.000000,0.000000,0.000000:
0000
0000
0000
0000
,
0000
0000
0000
0000
,
0000
0001
0000
0001
,
0000
0001
0000
0001
,
1000
0000
0010
0100
0010
1000
0100
2000
,
0000
3001
0000
0001
,
0000
0000
0001
0000
1000
0000
0010
1000
,
0100
1000
0001
0010
0000
0000
0001
0000
,
0000
0001
0000
0001
,
1001
1000
0001
0100
0001
0000
0010
0000
,
0100
1000
0020
1030
,
0001
0100
0001
1000
0001
0010
0100
1000
,
0001
0100
0001
0100
0000
0010
0100
0010
,
1000
0000
0100
0010
0100
0000
0010
0000
,
0001
0000
0100
0010
1000
0000
0001
0000
,
1000
0000
0001
0010
0000
0100
1000
0000
,
0010
0100
0001
2000
,
0000
3000
0000
0001
0100
1000
0100
0010
,
1000
0000
0000
0000
0100
0000
0000
0000
0010
0001
1000
0000
0020
0000
0000
0000
,
0000
0000
0030
0100
0001
0010
0001
1000
,
0200
0000
0310
0000
0001
0010
0000
0001
,
1000
0000
1001
0000
1000
0010
0000
1000
,
0001
0000
1001
0000
1000
0010
0000
1000
,
0100
0000
1001
0000
0001
0100
0000
0001
,
0010
0100
0000
0000
1001
0000
0000
0000
0001
0000
0100
0000
0000
0000
0010
0000
,
1000
0000
1001
0000
1000
0100
0000
0010
,
0001
0000
1001
0000
0001
0010
0000
0100
,
1000
0000
2001
0000
0000
3200
0000
0000
,
0320
0030
0011
0000
0000
0110
0000
0000
,
1100
0000
0110
0000
0000
0011
0000
0000
,
0110
0000
1100
0000
0000
0011
0000
0000
,
0101
0000
1010
0000
0000
0101
0000
0000
,
1001
0000
0101
0000
0000
1010
0000
0000
,
1100
0000
0011
0000
0000
1100
0000
0000
,
0110
0000
0011
0000
0000
0110
0000
0000
,
1100
0000
1010
0000
0000
1000
0000
0000
,
0000
0000
0000
0000
0100
0000
0000
0000
0010
0000
0001
0100
0000
0010
0000
0100
,
0010
1000
0000
0000
0002
0000
0000
0000
0000
0000
0000
0000
0000
0000
0000
0000
,
0000
0000
0000
0000
1003
0000
0100
0000
0001
0100
0000
0000
1000
0000
0010
0000
,
0001
0010
0000
0000
0100
0000
1000
0000
0100
0000
0001
0000
0010
0100
0000
1000
,
0000
0020
0000
2030
,
0000
3020
0000
0230
,
0000
0302
0000
0023
,
0000
0032
0000
2003
,
0000
0000
3010
0000
1000
1000
0001
0000
,
0011
0001
0100
0001
,
0010
0000
0100
0000
0010
0010
0100
0000
,
1100
0000
1001
0000
0110
0000
1000
0001
,
0010
0001
1000
0000
0001
0001
0010
0000
,
1100
0000
1000
0000
0010
0100
0010
0000
,
1000
0000
0001
0000
0010
0100
0010
0000
,
0100
0000
0000
0000
1000
0000
0001
0100
0000
0000
0000
0000
0001
0000
0100
0000
,
0001
1000
0001
0010
0001
1000
0100
0000
,
0010
0001
0000
0001
0100
0000
0010
0000
,
1000
0100
1000
0010
1000
0001
0100
0001
,
0000
0001
0010
0000
0100
0000
0010
0000
,
0100
1000
0100
0010
0001
0010
0100
0010
,
0000
0010
0001
0000
1000
0000
0001
0000
,
0100
0010
1000
0001
0010
0001
1001
0000
,
1001
1001
1001
0101
,
0001
0100
0110
0000
1010
0000
1000
0010
,
0010
1000
0001
0001
1000
0100
0110
0000
,
0001
0010
0011
0000
1100
0000
1000
0010
,
0000
1000
0001
0000
0100
0000
0011
0000
,
0010
0100
0110
0000
1100
0000
0100
0100
,
0010
0001
0001
0010
0100
0100
1100
0000
,
1000
0010
0110
0000
0101
0000
0020
0000
,
0000
0000
0000
0000
0030
0000
1000
0001
,
0100
0000
0100
0001
0010
0100
0010
0001
,
1000
0001
0100
0000
0100
0000
0001
0010
,
0000
0010
0001
0100
1000
0100
0000
0100
,
0000
0100
0010
1000
0100
0010
0001
1000
,
0100
1000
0010
0100
0000
0100
0010
1000
,
0010
1000
0100
0000
0100
0000
0010
0001
,
0010
0001
1000
0001
1000
0100
0010
0100
,
0000
0000
0100
0000
0100
0000
2002
3003
;

//---------------dance-single - ----------------
#NOTES:
     dance-single:
     :
     Medium:
     6:
     0.358867,0.435302,0.238072,0.106722,0.008209,306.000000,277.000000,29.000000,13.000000,0.000000,0.000000,0.358867,0.435302,0.238072,0.106722,0.008209,306.000000,277.000000,29.000000,13.000000,0.000000,0.000000:
0000
0000
0000
0000
,
0000
0000
0000
0000
,
0000
1000
0000
1000
,
0000
1000
0000
1000
,
0001
0100
0010
0100
,
0000
0001
0000
0001
,
0000
0001
1000
0100
,
1000
0000
0010
0000
0100
0000
0010
0100
,
0001
2000
0000
0000
0000
0000
0000
0000
3000
0000
0000
0000
0000
0000
0000
0000
,
0001
0100
0010
0010
,
0100
0001
2000
0000
,
3001
1000
0010
1000
,
0100
1000
0100
1000
0000
0000
1000
0000
,
0010
0100
0001
1000
,
0001
0100
0001
0000
0000
0000
1000
0000
,
0100
1000
0010
0100
,
1001
0001
1000
0100
,
0000
0000
0000
1000
0100
0010
0001
0010
,
0100
0000
0000
0000
0010
0000
0000
0000
0001
0010
0001
0000
0010
0000
0000
0000
,
0000
0000
0000
0100
0010
0001
1000
0010
,
0100
0000
0001
0000
0000
0001
0000
0000
,
0001
0000
1000
0000
0000
1000
0000
0000
,
1000
0000
0010
0000
0000
0010
0000
0000
,
0010
0000
0100
0000
0000
0100
0000
0000
,
0000
0000
0010
0000
0000
0010
0000
0000
,
0010
0000
1000
0000
0000
1000
0000
0000
,
1000
0000
0001
0000
0000
0001
0000
0000
,
0001
0000
0020
0000
0000
0230
0000
0000
,
0300
0000
1100
0000
0000
1100
0000
0000
,
1100
0000
1001
0000
0000
1001
0000
0000
,
1001
0000
0101
0000
0000
0101
0000
0000
,
0101
0000
0011
0000
0000
0011
0000
0000
,
0011
0000
0101
0000
0000
1010
0000
0000
,
0101
0000
1001
0000
0000
1001
0000
0000
,
1001
0000
1100
0000
0000
0011
0000
0000
,
1100
0000
1001
0000
0000
1001
0000
0000
,
0000
0001
0100
0010
,
1000
0200
0000
0000
,
0000
0000
1300
0100
1000
0000
0100
0010
,
0100
0000
0010
0001
0010
0100
1000
0100
,
1000
0200
0000
2300
,
0000
3020
0000
0230
,
0000
0302
0000
0023
,
0000
0032
0000
2003
,
0000
3010
1000
0100
,
0100
1000
0010
0100
,
0001
0010
0100
0100
,
0100
0010
0010
0100
,
1000
0001
1000
1000
,
1000
0001
0100
0001
,
0010
0001
0100
0010
,
1000
0000
0001
1000
0100
0000
1000
0000
,
0010
0100
0001
1000
,
0001
0100
0001
0010
,
0001
0100
0010
1000
,
1000
0001
0001
1000
,
0100
1000
0010
0100
,
0001
0010
0100
0010
,
0001
1000
0010
0110
,
0110
0110
0110
0010
,
1000
0010
1000
0000
0010
0000
0100
0000
,
0100
0001
1000
0100
,
0010
0001
0010
0000
0001
0000
0100
0000
,
0001
0010
0001
1000
,
0100
1000
0100
0000
1000
0000
0010
0000
,
0100
0001
0100
0010
,
1000
0001
1000
0000
0001
0000
0100
0000
,
0000
0000
0000
0010
,
1000
0010
1000
0000
0010
0000
0100
0000
,
0001
0100
0001
0000
0100
0000
0010
0000
,
1000
0001
1000
0000
0001
0000
0010
0000
,
0100
1000
0100
0000
1000
0000
0010
0000
,
0100
0001
0100
0000
0001
0000
1000
0000
,
0100
1000
0100
0000
1000
0000
0010
0000
,
0100
0001
0100
0000
0010
0000
1000
0000
,
0001
0100
0010
0000
1000
0000
1001
0000
;

//---------------dance-single - ----------------
#NOTES:
     dance-single:
     :
     Easy:
     4:
     0.241590,0.310930,0.016419,0.188816,0.000000,206.000000,204.000000,2.000000,23.000000,0.000000,0.000000,0.241590,0.310930,0.016419,0.188816,0.000000,206.000000,204.000000,2.000000,23.000000,0.000000,0.000000:
0000
0000
0000
0000
,
0000
0000
0000
0000
,
0000
0001
0000
0001
,
0000
0001
0000
0001
,
1000
0010
0100
0002
,
0000
1003
0000
1000
,
0000
1000
0100
1000
,
0010
0100
0020
0000
,
0000
0000
0000
0000
,
0130
0001
0010
0001
,
1000
0001
0100
0000
,
0000
0001
1000
0100
,
0010
0010
0000
0100
,
0010
0001
1000
0100
,
1000
1000
0000
0100
,
1000
0010
0100
0001
,
1001
0001
1000
0200
,
0300
1000
0100
1000
,
0010
0000
0100
0000
0001
1000
0200
0000
,
0000
0300
1000
0010
,
0100
0001
0000
1000
,
0000
0010
0000
1000
,
0000
0100
0000
1000
,
0000
0010
0000
0100
,
0000
0001
0000
0010
,
0000
0001
0000
1000
,
0000
0100
0000
1000
,
0000
0020
0000
0000
,
0030
0000
0100
0000
0000
0100
0000
0000
,
0100
0000
0010
0000
0000
0010
0000
0000
,
0010
0000
1000
0000
0000
1000
0000
0000
,
1000
0000
0001
0000
0000
0001
0000
0000
,
0001
0000
1000
0000
0000
0010
0000
0000
,
0100
0000
0001
0000
0000
0010
0000
0000
,
0100
0000
1000
0000
0000
0100
0000
0000
,
1000
0000
0010
0000
0000
0100
0000
0000
,
0000
0010
0100
0001
,
1000
0200
0000
0000
,
0300
1000
0010
1000
,
0010
1000
0100
0010
,
0001
2000
0000
3020
,
0000
2030
0000
3200
,
0300
2000
0000
3002
,
0000
2003
0000
3200
,
0300
1000
0010
0010
,
0100
0000
0001
0000
0000
1000
0000
0000
,
0100
1000
0010
0010
,
0100
0000
0001
0000
0000
0100
0000
0000
,
0010
1000
0100
0100
,
1000
0000
0010
0000
0000
0100
0000
0000
,
0000
0000
0010
0000
0000
0100
0000
0000
,
0000
0010
0000
0100
,
0001
1000
0100
1000
,
0001
1000
0001
1000
,
0010
0010
0100
0001
,
0100
0001
0100
0010
,
1000
1000
0010
0100
,
0001
0100
0001
1000
,
0100
0010
0001
2000
,
0000
0000
3000
0001
,
0100
1000
0100
0010
,
1000
0010
0100
0001
,
0010
1000
0010
0100
,
0100
0010
0100
1000
,
0100
0001
0100
0010
,
0010
0100
1000
0010
,
0001
0010
1000
0010
,
0000
0000
0000
0200
,
0000
0000
0000
0320
,
0000
0000
0000
2030
,
0000
0000
0000
3002
,
0000
0000
0000
0023
,
0000
0000
0000
0032
,
0000
0000
0000
2003
,
0000
0000
0000
0000
0000
0020
3000
0000
,
0000
0000
0030
1001
;

//---------------dance-single - ----------------
#NOTES:
     dance-single:
     :
     Beginner:
     2:
     0.130177,0.217651,0.090303,0.000000,0.000000,111.000000,100.000000,11.000000,0.000000,0.000000,0.000000,0.130177,0.217651,0.090303,0.000000,0.000000,111.000000,100.000000,11.000000,0.000000,0.000000,0.000000:
0000
0000
0000
0000
,
0000
0000
0000
0000
,
0010
0000
0000
0000
,
0000
0000
0000
0000
,
0100
0000
0000
0010
,
0000
0000
0000
0000
,
0000
0000
1000
0000
,
0000
0000
0001
0000
,
0010
0000
0000
0000
,
0100
0000
0000
0000
,
1000
1000
1000
0000
,
0010
0000
0000
0000
,
0100
0100
0000
0000
,
0010
0000
0000
0000
,
0100
0100
0000
0000
,
0001
0000
0000
0000
,
1001
1000
0000
0000
,
0000
0100
0000
0000
,
0000
1000
0000
0000
,
0000
0001
0000
0000
,
0000
0100
0000
0000
,
0000
0010
0000
0000
,
0000
1000
0000
0000
,
0000
0001
0000
0000
,
0000
1000
0000
0000
,
0000
0010
0000
0000
,
0000
0100
0000
0000
,
0000
0010
0000
0000
,
0000
0110
0000
0000
,
0000
0110
0000
0000
,
0000
1001
0000
0000
,
0000
1001
0000
0000
,
0000
0110
0000
0000
,
0000
0110
0000
0000
,
0000
1001
0000
0000
,
0000
1001
0000
0000
,
0000
0010
0000
0000
,
0000
0100
0000
0000
,
0000
0010
0000
0010
,
0000
1000
0001
1000
,
0000
0010
0000
0100
,
0000
0001
0000
0000
,
0000
1000
0000
0001
,
0000
0100
0000
0010
,
0000
1000
0000
0000
,
0000
0001
0000
0000
,
0000
0100
0000
0000
,
0000
0010
0000
0010
,
0000
0100
0000
0000
,
0000
0010
0000
0000
,
0000
1000
0000
0000
,
0000
0001
0000
1000
,
0000
0001
0000
0100
,
0000
0000
0000
0010
,
0000
0010
0000
0100
,
0000
0000
0000
0010
,
0000
1000
0000
1000
,
0000
0000
0000
0001
,
0000
1000
0000
0010
,
0000
0000
0000
0100
,
0000
0010
0000
1000
,
1000
1000
0000
0010
,
0000
0100
0000
0001
,
0001
0001
0000
0100
,
0000
0010
0000
1000
,
1000
1000
0000
0010
,
0000
0100
0000
1001
,
0000
0000
0000
0001
,
0000
0000
0000
1000
,
0000
0000
0000
0010
,
0000
0000
0000
1000
,
0000
0000
0000
0100
,
0000
0000
0000
1000
,
0000
0000
0000
0001
,
0000
0000
0000
1000
,
0000
0000
0000
0110
;

//---------------dance-single - ----------------
#NOTES:
     dance-single:
     :
     Challenge:
     11:
     0.751744,0.809752,0.369422,0.632122,0.500772,641.000000,596.000000,45.000000,77.000000,0.000000,0.000000,0.751744,0.809752,0.369422,0.632122,0.500772,641.000000,596.000000,45.000000,77.000000,0.000000,0.000000:
// measure 0
0000
0000
0000
0000
,  // measure 1
0000
0000
0000
0000
,  // measure 2
1000
0020
0000
0130
0001
1000
0001
0000
0000
1000
1000
1000
0001
1000
0100
0000
,  // measure 3
1000
0010
0000
0010
0100
0100
0001
0000
0000
0001
0010
0010
0001
0100
0010
0000
,  // measure 4
1200
0000
0000
0000
0310
0000
0012
0000
0000
0000
1003
0000
0001
0100
0001
0200
,  // measure 5
0000
0000
0000
0000
0000
0000
0300
0000
0000
0020
0000
0000
0000
0000
0000
0030
0000
0000
1000
0000
0000
0001
1000
0001
,  // measure 6
0000
0000
0020
0000
0000
0000
0000
0000
0030
0000
0000
0000
1001
0000
0000
0000
0000
0000
0001
0000
0000
0101
0000
0000
,  // measure 7
0000
0000
0100
0000
0010
1000
0001
1000
0100
0000
0000
0000
0010
0000
0001
0000
,  // measure 8
0200
0020
0000
0000
0000
0000
0000
0000
0000
0000
0000
0000
0000
0000
0330
0000
,  // measure 9
1001
0000
0000
0000
1000
0000
0010
0000
0000
0000
0010
0000
0100
0001
0100
0010
,  // measure 10
1000
0000
0000
0000
0000
0000
0100
0000
0000
0100
0000
0000
0010
0000
0000
0001
0000
0000
1000
0001
1000
0001
0000
0000
,  // measure 11
0100
0000
0010
0100
0000
0100
0001
0010
,  // measure 12
0110
0000
0000
0000
0000
0000
0100
0000
0000
1000
0000
0000
1020
0000
0000
0000
0000
0000
0130
0001
0100
0000
0000
0000
,  // measure 13
0001
0000
0000
0000
1000
0000
0010
0000
0000
0000
0010
0000
0100
0001
0010
0001
,  // measure 14
1000
0000
0000
0000
0001
0000
0010
0000
0010
0000
0001
0000
0100
0010
1000
0100
,  // measure 15
1000
0000
0100
0020
0000
0031
0100
0010
,  // measure 16
1000
0002
0203
0320
,  // measure 17
0000
0000
0030
0100
1000
0100
0001
0010
,  // measure 18
0001
0000
0000
0000
1000
0000
0000
0000
0001
1000
0010
0000
0200
0000
0000
0000
,  // measure 19
0000
0000
0000
0000
0300
0000
0001
0000
0100
0000
1000
0000
0100
0010
1000
0000
,  // measure 20
0001
0011
1100
1000
0010
0100
0001
0010
,  // measure 21
0001
1000
0001
0100
0001
0000
0010
0000
0001
0000
0100
0000
0010
0000
1000
0000
,  // measure 22
0100
0010
0001
1000
0001
0000
1000
0000
0010
0000
0100
0000
0001
0000
0010
0000
,  // measure 23
0100
1000
0010
0100
0002
0000
0000
0000
1003
0000
0020
0000
0000
0000
0130
0000
,  // measure 24
0001
1000
0001
0000
0000
0000
1000
0000
0000
0010
0000
0000
1000
0000
0000
0001
0000
0000
0010
0000
0000
0100
0000
0000
,  // measure 25
0010
0001
0100
0001
1000
0000
0010
0000
0100
0000
0001
0000
0010
0000
0001
0000
,  // measure 26
0010
0001
0100
0010
0100
0000
0001
0000
0010
0000
0001
0000
1000
0000
0100
0000
,  // measure 27
0010
0100
1000
0001
0200
0000
0000
0000
0000
0000
0320
0000
0000
0000
0000
0000
,  // measure 28
2030
3000
1001
0001
0010
0011
0010
0100
,  // measure 29
1100
1000
1010
0010
0100
0101
0001
0010
,  // measure 30
0011
0001
1001
1000
0010
1010
0010
0100
,  // measure 31
0101
0001
0011
0010
0100
1100
1000
0001
,  // measure 32
1001
0001
0101
0100
0010
1010
1000
0100
,  // measure 33
0110
0010
0011
0001
0100
0110
0010
1000
,  // measure 34
1010
1000
1001
0001
0010
0110
0010
0001
,  // measure 35
1001
0000
0001
0000
0101
0000
0000
0000
0100
0000
0010
0000
0100
0010
1000
0001
,  // measure 36
0010
0001
1000
0100
0010
0000
0000
0000
0100
0000
1000
0010
0000
0001
0000
0000
,  // measure 37
0010
0100
0001
0000
2002
0000
0000
0000
0000
0000
0000
0000
0000
0000
0000
0000
,  // measure 38
0000
0000
3003
0000
1000
0000
0010
0000
0001
0010
0000
0000
0100
0000
0001
0000
,  // measure 39
0010
0000
0000
0100
0000
0000
0000
0000
0000
0000
0000
0000
0100
0000
0000
0000
0000
0000
1000
0000
0000
0000
0000
0000
0001
0000
0000
0000
0100
0000
0000
0000
0010
0000
0000
0000
2000
0000
0000
0001
0000
0000
0000
0000
0000
0002
0000
0000
,  // measure 40
0000
0000
0000
3003
1000
0000
0001
0100
0000
0010
0000
0100
0000
0010
1000
0001
,  // measure 41
0000
0010
0000
0000
0100
0000
1000
0100
0000
1000
0000
0010
0000
0100
0001
0010
,  // measure 42
0000
0100
0000
0000
0010
0000
0001
0100
0000
0010
0000
1000
0000
0001
0010
0001
,  // measure 43
0000
1000
0000
0000
0001
0000
1000
0010
0000
0100
0000
0001
0000
0010
0100
1000
,  // measure 44
0001
0000
0000
0001
0000
0000
0001
0000
0101
0000
0000
0000
0000
0000
0000
0000
0100
0000
0000
0000
0010
0000
0000
0000
0110
0000
0000
0000
0000
0000
0000
0000
,  // measure 45
1010
0000
0000
0000
1010
0000
1000
0010
0100
0000
0001
0000
0010
0100
1000
0000
,  // measure 46
0001
1000
0010
0000
0110
0000
0000
0000
0100
0000
0001
0000
0011
0000
0000
0000
,  // measure 47
0110
0000
0000
0000
0100
0000
1000
0000
0010
0000
0100
0010
1000
0001
1000
0010
,  // measure 48
0100
0000
0001
0000
0100
0000
0001
0000
0000
1000
0000
0000
0001
0000
0000
0000
0000
0000
0000
0000
0000
0000
0000
0000
1000
0000
0000
0000
0000
0000
0100
0000
0000
0000
0000
0000
0110
0000
0000
0000
0000
0000
0000
0000
0000
0000
0000
0000
,  // measure 49
0011
0000
0000
0000
0001
0000
0100
0010
1000
0000
0001
0000
0010
0000
0100
0000
,  // measure 50
0010
0001
1000
0000
0010
0100
0010
0000
0100
0000
0001
0000
0010
0000
0001
0000
,  // measure 51
1000
0001
0100
0000
0010
0000
1000
0001
0000
0010
0120
0230
0310
0000
0001
0000
,  // measure 52
0100
0010
1000
0001
0010
0001
1000
1000
,  // measure 53
0010
0100
0100
0010
1000
1000
0001
0000
,  // measure 54
0100
0010
1000
0100
1000
0001
0010
0010
,  // measure 55
0001
0100
0100
0010
1000
0100
0010
0000
,  // measure 56
0001
0100
0001
0010
0001
1000
0100
0100
,  // measure 57
0010
0001
0001
0100
0010
0010
1000
0000
,  // measure 58
0001
0010
0001
1000
0100
1000
1020
0000
,  // measure 59
0230
0302
0023
0130
,  // measure 60
1000
0100
1000
0000
0010
0000
0100
0000
0001
0000
0010
0001
0010
0000
0001
0000
,  // measure 61
1000
0000
0000
0010
0000
0000
0010
0000
0000
0100
0000
0000
0001
1000
0001
0000
0000
0000
1000
0000
0000
0010
0000
0000
,  // measure 62
0100
0001
0100
0000
0001
0000
0010
0000
0100
1000
0100
1000
0100
0000
0010
0001
,  // measure 63
0100
0000
0010
0000
0100
0010
1000
0000
0001
1000
0001
1000
0001
0000
1000
0000
,  // measure 64
0010
1000
0010
0000
0100
0000
0001
0000
0010
0100
0010
0000
0001
0000
0100
0000
,  // measure 65
0010
0000
0010
0000
0100
0000
0001
0000
1000
0100
0010
0001
1000
0010
0100
0000
,  // measure 66
0010
1000
0001
0010
0001
1000
0100
0010
0001
1000
0010
0100
0002
0000
0000
0000
,  // measure 67
0203
0000
0320
0000
2030
0000
3200
0302
,  // measure 68
2003
3010
0001
0020
0130
0002
0023
0032
,  // measure 69
2003
3200
0320
0031
0020
0031
0200
0320
,  // measure 70
1030
0001
0020
0031
0100
0020
1030
0200
,  // measure 71
0310
0200
2300
3001
0200
0302
0023
0032
,  // measure 72
2003
3200
0320
0230
1300
0020
0230
0302
,  // measure 73
0023
0230
2300
3001
0200
0301
0020
0032
,  // measure 74
2003
3200
0320
0230
2300
3020
0130
0002
,  // measure 75
0013
0001
2000
3100
0020
0031
0101
1001
;
