#TITLE:La Primavera feat. REMAH;
#SUBTITLE:;
#ARTIST:FAKE TYPE.;
#TITLETRANSLIT:;
#SUBTITLETRANSLIT:;
#ARTISTTRANSLIT:;
#GENRE:;
#CREDIT:;
#BANNER:La Primavera feat. REMAH-bn.png;
#BACKGROUND:La Primavera feat. REMAH-bg.png;
#LYRICSPATH:;
#CDTITLE:;
#MUSIC:La Primavera feat REMAH.mp3;
#OFFSET:-0.241000;
#SAMPLESTART:72.945778;
#SAMPLELENGTH:14.430725;
#SELECTABLE:YES;
#BPMS:0.000000=132.000000
;
#STOPS:
;
#BGCHANGES:;
#KEYSOUNDS:;
#ATTACKS:;

//---------------dance-single - ----------------
#NOTES:
     dance-single:
     :
     Hard:
     7:
     0.413225,0.460603,0.188810,0.249230,0.105734,383.000000,358.000000,25.000000,33.000000,0.000000,0.000000,0.413225,0.460603,0.188810,0.249230,0.105734,383.000000,358.000000,25.000000,33.000000,0.000000,0.000000:
0000
0000
0000
0000
,
0000
0000
0000
0000
,
0000
0000
0000
0000
,
0000
0000
0000
0000
,
0001
0010
0001
0100
,
0001
1000
0100
1000
,
0001
0010
0001
1000
,
0100
0100
2000
3000
,
1001
0000
0000
0000
0001
0000
1000
0000
0010
0000
0000
0100
0000
0000
0000
0000
,
0001
0000
0000
0000
1000
0000
0010
0000
0100
0000
0000
0010
0000
0000
0000
0000
,
1000
0100
1000
0000
1000
0100
1000
0000
,
1000
0100
0010
0001
0010
1000
0010
0000
,
1001
0000
0000
0000
0001
0000
0100
0000
0010
0000
0000
0100
0000
0000
0000
0000
,
0001
0000
0000
0000
1000
0000
0010
0000
0100
0000
0000
0001
0000
0000
0000
0000
,
0010
0100
0010
0000
0100
0010
0100
0000
,
0010
0100
1000
0001
0100
0000
0010
1000
,
0100
1000
0001
0010
,
0001
0200
0302
1003
,
0100
0010
0001
1000
,
0102
0000
0000
0000
0000
0000
0003
1000
,
0010
0000
0100
0000
0001
0000
0100
0000
0010
0000
0000
0010
0000
0000
0000
0000
,
0100
0000
0010
0000
1000
0000
0001
0000
0100
0000
0000
0100
0000
0000
0000
0000
,
0000
0000
0001
0000
0100
0000
0000
0010
0000
0000
1000
0000
0100
0000
0000
0010
,
0000
0000
0001
0000
0010
0000
0000
0001
0000
0000
0100
0000
0001
0000
0001
0000
,
0002
0000
0003
0000
0100
0001
1000
0000
,
0001
0010
0001
1000
0100
1000
0001
0000
,
0100
0001
0010
0000
0100
1000
0010
0000
,
0100
0001
0010
1000
0010
0100
1000
0000
,
0101
0000
0000
1000
0001
0010
1000
0010
,
0100
0010
0001
1000
0010
0100
0001
0000
,
0000
1000
0010
1000
0001
0100
0001
0000
,
1000
0100
0010
0001
0100
0010
1000
0001
,
0020
0030
0100
1000
0010
1000
0001
0010
,
0200
2300
3020
0230
,
0300
0001
0010
0001
1000
0100
1000
0001
,
0020
0032
0203
0320
,
1030
0000
0000
0000
0100
0010
0001
1000
,
0010
1000
0001
0100
0010
0010
0010
0100
,
0001
0010
1000
0010
0001
0100
1000
0001
,
0010
0100
1000
0002
2000
0003
3000
0000
,
0102
0010
0100
0013
,
0100
0000
0000
0010
0000
0000
1000
0000
0000
0000
0100
0000
0010
0000
0001
0000
,
1000
0000
0000
0001
0000
0000
0100
0000
0010
0000
1000
0000
0100
0000
0010
0000
,
0011
0101
1001
1100
,
0100
0100
0010
0001
1000
0000
0000
0000
,
0001
0001
0100
0010
1000
0000
0000
0000
,
0200
0000
0000
0310
0000
0000
0001
0000
0200
0000
0000
0310
0000
0000
1000
0000
,
0200
0000
0000
0310
0000
0000
0001
0000
0200
0000
0000
0000
0310
0000
0000
0000
,
2010
0100
0010
3100
,
0010
0000
0000
0001
0000
0000
0100
0000
0000
0000
0010
0000
0100
0000
0001
0000
,
1000
0000
0000
0001
0000
0000
0010
0000
0001
0000
0100
0000
0010
0000
1000
0000
,
1100
1010
1001
0011
,
0010
0010
0100
1000
0001
0000
0000
0000
,
1000
1000
0010
0100
0001
0000
0000
0000
,
0020
0000
0000
0130
0000
0000
1000
0000
0020
0000
0000
0130
0000
0000
0001
0000
,
0020
0000
0000
0130
0000
0000
1000
0000
0020
0000
0000
0000
0030
0000
0000
0000
,
1001
0000
0000
0000
0001
0000
0100
0000
0010
0000
0000
0010
0000
0000
0000
0000
,
0110
0000
0000
0000
0010
0000
1000
0000
0100
0000
0000
0100
0000
0000
0000
0000
,
2000
3200
0302
0023
,
2030
3002
0020
0033
,
1001
0000
0000
0000
0001
0000
0100
0000
0010
0000
0000
0100
0000
0000
0000
0000
,
1010
0000
0000
0000
0010
0000
1000
0000
0100
0000
0000
1000
0000
0000
0000
0000
,
0001
0000
0001
0000
0010
0000
0010
0000
0100
1000
0100
0000
1000
0000
0000
0000
,
0001
0000
1000
0010
0100
0000
0001
0000
,
0011
0000
0000
0000
0100
0000
1000
0000
0010
0000
0000
0010
0000
0000
0000
0000
,
0101
0000
0000
0000
1000
0000
0010
0000
0100
0000
0000
0100
0000
0000
0000
0000
,
0001
0100
0001
0010
,
0001
1000
0001
1000
,
1010
0000
0000
0000
1000
0000
0010
0000
0100
0000
0000
0100
0000
0000
0000
0000
,
0110
0000
0000
0000
0010
0000
0100
0000
0001
0000
0000
0001
0000
0000
0000
0000
,
1000
0100
1000
0010
,
1000
0000
0001
0000
1001
0110
1001
0000
;

//---------------dance-single - ----------------
#NOTES:
     dance-single:
     :
     Medium:
     5:
     0.335543,0.406414,0.196363,0.196363,0.018881,311.000000,285.000000,26.000000,26.000000,0.000000,0.000000,0.335543,0.406414,0.196363,0.196363,0.018881,311.000000,285.000000,26.000000,26.000000,0.000000,0.000000:
0000
0000
0000
0000
,
0000
0000
0000
0000
,
0000
0000
0000
0000
,
0000
0000
0000
0000
,
1000
0001
1000
0001
,
1000
0001
1000
0001
,
0100
0010
0100
0010
,
0100
0000
0100
0000
0100
0000
0200
0300
,
1010
1000
0010
1000
,
0101
0001
0100
0001
,
1000
0001
1000
0000
0001
1000
0001
0000
,
0010
0100
1000
0001
,
1001
1000
0010
0100
,
0101
0001
0010
0100
,
1000
0001
1000
0000
0001
1000
0001
0000
,
1000
0100
0010
0001
,
0100
0010
1000
0001
,
0100
0020
2030
3100
,
1000
0010
0100
0001
,
0020
0000
0000
0030
,
0100
1000
0200
0300
,
1000
0001
2000
3000
,
0000
0001
0000
1000
,
0000
0000
0001
0000
0000
0000
1000
0010
,
2000
0000
3100
0000
0010
0001
0010
0000
,
0001
0000
0100
0000
0010
1000
0010
0000
,
0100
0001
1000
0100
,
1000
0000
0001
0000
0100
0010
1000
0000
,
1001
0000
0001
0000
1000
0100
1000
0000
,
0100
0000
1000
0000
0010
0100
0010
0000
,
0100
0001
0010
0100
,
1000
0100
0010
0001
1000
0100
0010
0001
,
2000
3001
0100
0001
,
0020
0130
2000
3001
,
0000
1000
0100
1000
,
0020
0130
2000
3001
,
0010
0000
0001
1000
,
0010
0000
0100
0000
0001
0100
0001
0000
,
0101
0001
1001
1000
,
1100
0011
1001
0000
,
0001
0100
0010
1000
,
0010
0000
0000
0100
0000
0000
0001
0000
0000
0000
0001
0000
1000
0000
0100
0000
,
1000
0000
0000
1000
0000
0000
0000
0000
0100
0000
0000
0000
0010
0000
0000
0000
,
0011
1100
0011
1100
,
0001
0100
0001
0100
0001
0000
0000
0000
,
1000
0010
1000
0010
1000
0000
0000
0000
,
0020
1030
0200
0310
,
0002
0013
0200
1300
,
0100
1000
0010
0100
,
0001
0000
0000
1000
0000
0000
0100
0000
0000
0000
1000
0000
0100
0000
0010
0000
,
0001
0000
0000
1000
0000
0000
0000
0000
0001
0000
0000
0000
1000
0000
0000
0000
,
1010
0101
1010
0101
,
0001
0100
0001
0100
0001
0000
0000
0000
,
1000
0010
1000
0010
1000
0000
0000
0000
,
0020
0130
0002
1003
,
0001
0000
0000
1000
0000
0000
0010
0000
0200
0000
0000
0000
0300
0000
0000
0000
,
1001
0001
0010
0010
,
1001
1000
0001
0001
,
2000
3200
0320
0032
,
2003
3020
0200
0330
,
0110
0010
0100
0001
,
1001
1000
0010
0100
,
0001
0000
1000
0000
0001
1000
0001
0000
,
1000
0000
0010
0100
0010
0000
0100
0000
,
0101
0001
0010
0010
,
0110
0100
1000
1000
,
0100
1000
0100
0010
,
0001
0010
0001
1000
,
1001
0001
0100
0001
,
1001
1000
0010
1000
,
0010
0100
0001
1000
,
0010
0000
0100
0000
0001
1000
0001
0000
;

//---------------dance-single - ----------------
#NOTES:
     dance-single:
     :
     Easy:
     3:
     0.222257,0.352226,0.113286,0.015105,0.000000,206.000000,191.000000,15.000000,2.000000,0.000000,0.000000,0.222257,0.352226,0.113286,0.015105,0.000000,206.000000,191.000000,15.000000,2.000000,0.000000,0.000000:
0000
0000
0000
0000
,
0000
0000
0000
0000
,
0000
0000
0000
0000
,
0000
0000
0000
0000
,
0001
0010
0001
1000
,
0001
1000
0001
1000
,
0001
0010
0001
1000
,
0100
0100
0100
0100
,
1001
0000
0001
0000
,
1000
0000
0010
0000
,
0100
0001
0100
0001
,
0010
0100
1000
0001
,
1001
0000
1000
0000
,
0001
0000
0010
0000
,
0100
1000
0100
1000
,
0100
0010
0001
1000
,
0010
0000
0100
0000
,
0001
0000
1000
0000
,
0100
0000
1000
0000
,
0020
0000
0000
0030
,
0100
0001
0100
0000
,
0010
1000
0010
0000
,
1000
0000
1000
0000
,
0001
0000
0001
0000
,
0110
0000
0010
0000
,
1000
0000
0001
0000
,
0100
0000
0001
0000
,
1000
0001
0100
0001
,
0010
0000
0100
0000
,
0010
0000
0001
0000
,
1000
0000
0010
0000
,
1000
0010
0100
0001
,
1001
0000
0001
0000
,
1000
1000
0001
0001
,
0100
0000
0010
0000
,
0100
0100
0010
0010
,
1000
0000
0100
0000
,
1000
0000
0001
0000
,
1000
0010
1000
0100
,
1000
0001
1000
0000
,
0001
0100
0010
1000
,
0001
1000
0001
0000
,
0100
0000
0010
1000
,
1001
0110
1001
0110
,
0100
0010
0100
0000
,
0001
1000
0001
0000
,
1000
0000
0010
0000
,
0100
0000
0001
0000
,
1000
0001
0010
0001
,
1000
0001
1000
0000
,
0001
0000
0100
0000
,
0110
1001
0110
1001
,
1000
0001
0100
0000
,
0001
1000
0010
0000
,
1000
0000
0001
0000
,
0100
0000
0010
0000
,
1001
0000
0001
0000
,
0010
0000
0001
0000
,
1000
0100
0010
0001
,
1000
0010
0200
0300
,
0110
0000
0100
0000
,
0001
0000
1000
0000
,
0001
0001
1000
0001
,
1000
0100
1000
0010
,
0110
0000
0100
0000
,
0001
0000
0010
0000
,
0001
0000
1000
0000
,
0010
0010
0100
0100
,
0001
0000
1000
0000
,
0100
0000
1000
0000
,
0001
0000
1000
0000
,
0001
0000
1000
0000
0001
1000
0001
0000
;

//---------------dance-single - ----------------
#NOTES:
     dance-single:
     :
     Beginner:
     1:
     0.112207,0.189660,0.052867,0.000000,0.000000,104.000000,97.000000,7.000000,0.000000,0.000000,0.000000,0.112207,0.189660,0.052867,0.000000,0.000000,104.000000,97.000000,7.000000,0.000000,0.000000,0.000000:
0000
0000
0000
0000
,
0000
0000
0000
0000
,
0000
0000
0000
0000
,
0000
0000
0000
0000
,
1000
0000
0000
0000
,
0001
0000
0000
0000
,
0100
0000
0000
0000
,
0010
0000
0000
0000
,
1001
0000
0000
0000
,
1000
0000
0000
0000
,
0010
0000
0010
0000
,
0100
0100
0100
0000
,
1001
0000
0000
0000
,
0001
0000
0000
0000
,
1000
0000
1000
0000
,
0100
0100
0100
0000
,
1000
0000
0000
0000
,
0010
0000
0000
0000
,
0100
0000
0000
0000
,
0001
0000
0000
0000
,
1000
0000
1000
0000
,
0001
0000
0001
0000
,
0000
0100
0000
0100
,
0000
0100
0000
0000
,
0010
0000
0000
1000
,
0001
0000
0000
0001
,
0000
1000
0000
0000
,
1000
0000
0000
0000
,
0010
0000
0000
0000
,
0100
0000
0000
0000
,
0001
0000
0000
0000
,
1000
0000
0001
0000
,
1001
0000
0000
0000
,
0100
0000
0000
0000
,
0010
0000
0000
0000
,
1000
0000
0001
0000
,
1000
0000
0000
0000
,
0100
0000
0000
0000
,
1000
0000
0001
0000
,
0010
0010
0010
0000
,
1001
0000
1000
0000
,
0001
0000
0000
0000
,
0000
0000
0100
0000
,
0010
0000
0010
0000
,
0100
0000
0000
0000
,
0001
0000
0000
0000
,
1000
0000
0001
0000
,
1000
0000
0000
0000
,
0110
0000
0000
0000
,
0100
0000
0000
0000
,
0010
0000
0000
0000
,
1000
0000
0001
0000
,
0010
0000
0000
0000
,
0100
0000
0000
0000
,
1000
0000
0001
0000
,
1000
0000
0001
0000
,
0110
0000
0000
0000
,
0100
0000
0000
0000
,
0010
0000
0010
0000
,
1000
0001
1000
0000
,
1001
0000
0000
0000
,
1000
0000
0000
0000
,
0010
0000
0000
0000
,
0100
0000
0100
0000
,
0001
0000
0000
0000
,
0001
0000
0000
0000
,
1000
0000
0000
0000
,
0010
0000
0000
0000
,
0100
0000
0000
0000
,
0001
0000
0000
0000
,
1000
0000
0001
0000
,
0100
0000
0010
0010
;

//---------------dance-single - ----------------
#NOTES:
     dance-single:
     :
     Challenge:
     10:
     0.664612,0.839923,0.181258,0.460697,0.706151,616.000000,592.000000,24.000000,61.000000,0.000000,0.000000,0.664612,0.839923,0.181258,0.460697,0.706151,616.000000,592.000000,24.000000,61.000000,0.000000,0.000000:
// measure 0
0000
0000
0000
0000
,  // measure 1
0000
0000
0000
0000
,  // measure 2
0000
0000
0000
0000
,  // measure 3
0000
0000
0000
0000
,  // measure 4
0001
0100
0001
0000
0100
0010
0100
0000
0001
0100
0010
0100
0001
1000
0100
1000
,  // measure 5
0001
0010
0100
1000
0001
1000
0010
1000
0100
0000
0100
2000
0000
0000
3000
0000
,  // measure 6
0010
1000
0010
0000
0100
0010
0100
0000
0010
1000
0001
0010
0001
1000
0100
1000
,  // measure 7
0010
0100
0010
0100
0010
0100
0010
0100
0010
1000
0001
0100
0002
0000
0003
0000
,  // measure 8
1001
0000
0000
0000
1000
0000
0010
0000
0100
0000
0001
0010
0000
0010
0100
0000
,  // measure 9
1100
0000
0000
0000
1000
0000
0001
0000
0010
0000
0100
0010
0000
0010
0001
0000
,  // measure 10
1000
0010
0100
0000
0100
0010
1000
0000
,  // measure 11
1000
0010
0100
0001
0010
0100
1000
0000
,  // measure 12
1001
0000
0000
0000
1000
0000
0001
0000
0010
0000
0100
0010
0000
0010
0100
0000
,  // measure 13
1100
0000
0000
0000
1000
0000
0001
0000
0100
0000
0010
1000
0000
1000
0010
0000
,  // measure 14
0100
0001
0010
0000
0010
0001
0100
0000
,  // measure 15
0100
0001
0010
0100
1000
0000
0001
1000
,  // measure 16
0100
1000
0010
0200
,  // measure 17
0302
0023
0230
1300
,  // measure 18
1100
1000
0010
0001
,  // measure 19
2020
0000
0000
0000
0000
0000
3030
1000
,  // measure 20
0010
0000
0010
0000
0100
0000
0001
0000
0010
0000
0000
0100
0000
0000
0000
1000
,  // measure 21
0010
0000
0010
0000
0100
0000
0001
0000
0010
0000
0000
0001
2000
0000
3020
0000
,  // measure 22
1030
0000
0001
0000
1000
0000
0001
0020
0000
0000
0031
0000
0100
0000
0001
0020
,  // measure 23
0000
0000
0130
0000
1000
0000
0001
0020
0000
0000
0130
0000
1100
0000
0101
0000
,  // measure 24
1002
0000
0000
0000
0000
0000
0000
0000
0000
0000
0000
0000
0013
0000
0000
0000
0000
0000
0100
0000
0000
1000
0000
0000
0000
0000
0000
0000
0000
0000
1000
0000
0000
0001
0000
0000
0100
0000
0000
0000
0001
0000
0000
0000
0000
0100
0000
0000
,  // measure 25
0001
0000
0000
0000
0100
0000
0000
0000
0010
0000
0000
0000
1000
0000
0000
0000
0100
0000
0000
0000
1000
0000
0000
0000
0001
0000
0000
0000
0010
0000
0000
0000
0001
0000
0000
0000
1000
0000
0000
0001
0000
0000
0000
0000
0000
1000
0000
0000
,  // measure 26
0010
0000
0000
0100
0000
0000
0010
0000
0000
0000
0000
0000
0100
0000
0000
0001
0000
0000
0000
0000
0000
0010
0000
0000
0100
0000
0000
0000
0010
0000
0000
0000
0001
0000
0000
0000
1000
0000
0000
0000
0100
0000
0000
0000
0000
1000
0000
0000
,  // measure 27
0001
0000
0000
0010
0000
0000
0001
0000
0000
0000
0000
0000
0010
0000
0000
0000
1000
0000
0000
0000
0010
0000
0000
0000
0001
0000
0000
0000
0100
0000
0000
0000
0010
0000
0000
0000
2000
0000
0000
0000
0000
0000
0000
0000
0000
0000
0000
0000
,  // measure 28
3100
0000
0000
0000
0000
0000
0010
0001
0100
0001
1000
0001
1000
0000
0100
0000
,  // measure 29
0010
0001
0010
0001
0100
0000
0010
1000
0100
1000
0001
0010
0001
0000
0000
0000
,  // measure 30
0000
0000
1000
0000
1000
0100
0000
0001
0000
0100
0000
0010
0001
0000
0000
0000
,  // measure 31
1000
0100
0001
0010
1000
0001
0010
0001
,  // measure 32
2002
0000
0000
3003
0000
0000
0001
0000
0000
0000
0000
1000
0010
0000
0000
0100
0000
0000
0010
0000
0000
0000
0000
0000
,  // measure 33
1000
0000
0000
0000
0000
0000
0100
0000
0000
0000
0000
0010
0001
0000
0000
0100
0000
0000
0010
0000
1000
0010
0000
0010
,  // measure 34
1000
0000
0000
0000
0000
0000
0100
0000
0000
0000
0000
0010
0001
0000
0000
1000
0000
0000
0100
0000
0000
0000
0000
0000
,  // measure 35
1000
0000
0000
0000
0000
0000
0010
0000
0000
0000
0000
0100
0001
0000
0000
0010
0000
0000
0100
0000
0010
0001
0000
0001
,  // measure 36
1000
0000
0000
0000
0000
0000
0000
0000
0010
0000
0100
0001
0100
0000
0010
0000
,  // measure 37
1000
0000
0001
0010
0100
0000
1000
0000
0002
0000
0023
0000
0230
0000
0310
0000
,  // measure 38
0011
0001
0100
0010
1010
1000
0100
0010
,  // measure 39
0011
1010
0101
1010
2002
3000
0003
0000
,  // measure 40
1002
0203
2300
3020
,  // measure 41
0032
0000
0000
0203
0000
0000
0320
0000
0000
0000
1030
0000
0010
0000
0100
0000
,  // measure 42
0002
0000
0000
0010
0000
0000
0013
0000
0100
0000
1000
0000
0010
0000
0100
0000
,  // measure 43
0001
0000
1000
0010
1000
0000
0001
0100
0001
0000
0010
0001
0010
0000
0000
0000
,  // measure 44
0100
0000
0010
0001
1000
0000
0010
1000
0000
0000
0002
0000
2003
0000
3020
0000
,  // measure 45
0130
0010
0100
0010
0100
0000
0001
1000
0000
0000
0200
0000
0320
0000
0000
0000
,  // measure 46
0031
0000
0010
0100
0000
0100
1000
0000
0001
0000
1000
0010
0000
0010
0100
0000
,  // measure 47
0001
0000
1000
0010
0000
0100
0001
0000
0011
0000
0000
0000
1010
0000
0000
0000
,  // measure 48
2001
3020
0032
0203
,  // measure 49
2300
0000
0000
3020
0000
0000
0230
0000
0000
0000
0301
0000
0100
0000
0010
0000
,  // measure 50
2000
0000
0000
0100
0000
0000
3100
0000
0010
0000
0001
0000
0100
0000
0010
0000
,  // measure 51
1000
0000
0001
0100
0001
0000
1000
0010
1000
0000
0100
1000
0100
0000
0000
0000
,  // measure 52
0010
0000
0100
1000
0001
0000
0100
0001
0000
0000
2000
0000
3002
0000
1003
0001
,  // measure 53
0010
0100
0010
0100
0010
0001
1000
0100
0000
0000
0020
0000
0230
0000
0000
0000
,  // measure 54
1300
0000
0100
0010
0000
0010
0001
0000
1000
0000
0001
0100
0000
0100
0010
0000
,  // measure 55
1000
0000
0000
0100
0000
0000
0001
0000
0010
0000
0000
0000
0000
0000
0000
0000
,  // measure 56
1001
0001
0100
0000
0010
1000
0010
0000
1000
0010
0100
0010
1000
0001
0010
0001
,  // measure 57
1000
0100
0010
0001
0010
0100
0010
0001
1000
0000
0001
0200
0000
0000
0300
0000
,  // measure 58
0002
0000
0000
0000
0200
0000
0000
0003
2000
0000
0000
0300
0020
0000
0000
3000
,  // measure 59
0002
0000
0000
0030
2000
0000
0000
0003
0020
0000
0000
0000
0000
0000
0000
3000
,  // measure 60
1030
0010
1000
0000
0001
0100
0001
0000
0010
0001
0010
0100
0010
0001
1000
0010
,  // measure 61
1000
0100
0010
0001
0010
0100
0010
0001
1000
0000
0001
0200
0000
0000
0000
0000
,  // measure 62
0310
0000
0010
0000
0100
0000
0100
0000
0001
1000
0001
0000
0110
0000
0000
0000
,  // measure 63
0201
0000
0310
1000
0200
0000
2300
0000
,  // measure 64
3001
0100
0001
0000
0100
0010
0100
0000
0001
0100
0010
0100
0001
1000
0100
1000
,  // measure 65
0001
0010
0100
1000
0001
1000
0010
1000
0100
0000
0100
2000
0000
0000
3000
0000
,  // measure 66
0010
1000
0010
0000
0100
0010
0100
0000
0010
1000
0001
0010
0001
1000
0100
1000
,  // measure 67
0010
0100
0010
0100
0010
0100
0010
0100
0010
1000
0001
0100
0010
1000
0100
1000
,  // measure 68
0100
0010
0100
0000
0010
0001
0010
0000
0100
0010
0001
0010
0100
1000
0010
1000
,  // measure 69
0001
0010
0100
1000
0100
1000
0001
1000
0010
0000
0010
2000
0000
0000
3000
0000
,  // measure 70
0001
1000
0001
0000
0010
0001
0010
0000
0001
1000
0100
0010
0100
1000
0010
1000
,  // measure 71
0001
0100
0001
0100
0001
0100
0001
0100
0001
0010
0100
1000
0010
0000
0000
0000
;
