#TITLE:LASER CRUSTER;
#SUBTITLE:;
#ARTIST:L.E.D.;
#TITLETRANSLIT:;
#SUBTITLETRANSLIT:;
#ARTISTTRANSLIT:;
#GENRE:;
#CREDIT:;
#BANNER:LASER CRUSTER.png;
#BACKGROUND:LASER CRUSTER-bg.png;
#LYRICSPATH:;
#CDTITLE:CDtitle.png;
#MUSIC:LASER CRUSTER.mp3;
#OFFSET:1.093001;
#SAMPLESTART:82.565208;
#SAMPLELENGTH:12.631577;
#LASTBEATHINT:0.184936;
#SELECTABLE:YES;
#BPMS:0.000000=152.000000
;
#STOPS:
;
#BGCHANGES:;
#KEYSOUNDS:;
#ATTACKS:;

//---------------dance-single - ----------------
#NOTES:
     dance-single:
     :
     Hard:
     8:
     0.442822,0.592198,0.076853,0.324492,0.081123,363.000000,354.000000,9.000000,38.000000,0.000000,0.000000,0.442822,0.592198,0.076853,0.324492,0.081123,363.000000,354.000000,9.000000,38.000000,0.000000,0.000000:
0000
0000
0000
0000
,
0000
0000
0000
0000
,
0000
0000
0000
0000
,
0000
0000
0000
0000
,
0000
0000
0000
0000
,
0001
0000
0000
1000
0000
0000
0000
0000
,
0001
0000
0000
1000
0000
0000
0000
0000
,
0010
0100
0010
0100
0010
0100
0010
0100
,
0010
0000
0000
1000
0001
0000
0010
0000
0000
0001
1000
0000
0000
0000
0001
0000
,
1000
0100
0000
1000
0001
0000
0100
0000
,
0001
0010
0000
0001
1000
0000
0001
0000
,
0100
0010
0000
0100
0001
0000
1000
0000
,
0100
0010
0000
0010
0001
0000
0100
0000
,
0001
0100
0010
0100
0001
1000
0001
0000
,
1000
0010
0100
0010
1000
0001
1000
0000
,
0001
1000
0100
1000
0001
0010
0001
0000
,
1000
0001
0010
0001
1000
0100
1000
0000
,
0001
0100
0020
0000
0000
1000
0000
0000
,
0130
0000
0000
0002
0000
0000
0013
0000
,
0100
0010
0002
0000
0000
0100
0000
0000
,
0013
0000
0000
0200
0000
0000
1300
0000
,
1001
0000
1000
0020
0000
0000
0100
0000
,
0000
1030
0000
0000
0200
0000
0310
0000
,
1000
0000
0100
2000
0000
0000
0001
0000
,
0000
3010
0000
0000
0200
0000
0310
0000
,
1001
1001
0000
0000
0000
0000
0000
0000
,
0000
0000
0000
0000
,
0110
0110
0000
0000
0000
0000
0000
0000
,
1001
0000
0000
0010
0100
0000
1001
0000
0000
0010
0100
0000
0000
0000
0010
0000
,
1000
0001
1000
0001
0000
1000
0010
1000
,
0000
0001
0010
0001
0000
1000
0100
0040
,
0031
1000
0001
0010
0100
0010
0004
4003
,
3010
0100
0010
1000
0001
0010
1000
0010
,
0001
0100
0000
0100
1000
0000
1000
0100
,
0010
0100
0000
0001
0100
0010
1000
0004
,
0013
0100
4000
3400
0310
0100
1000
0001
,
0100
0010
1000
0001
0010
1000
0010
0001
,
0010
0100
0010
0000
0100
0000
1000
0000
,
0001
0000
0010
0000
0100
0010
0100
0000
,
0040
0034
0013
0000
0001
0000
1000
0000
,
0010
0000
4000
3400
0310
0000
0100
0000
,
0010
0001
0100
0000
0010
1000
0100
0000
,
0010
0000
0100
0000
0010
0001
1000
0000
,
0001
0100
0010
0000
1000
0010
0100
0000
,
0001
0010
1000
0010
0001
0010
0100
1000
,
0002
0000
0000
0200
0000
0000
0303
0000
,
0002
0000
0000
2000
0000
0000
3003
0000
,
0002
0000
0000
0020
0000
0000
0033
0000
,
0002
0000
0000
0000
0000
0000
2000
0000
0003
0000
0000
0000
3001
0100
0010
1000
,
0002
0000
0000
0200
0000
0000
0303
0000
,
0020
0000
0000
2000
0000
0000
3030
0000
,
0010
0100
0010
0100
0010
0100
0010
0100
,
0110
0000
0000
1000
0001
0000
0110
0000
0000
1000
0001
0000
0000
0000
1000
0001
,
1000
0100
0000
1000
0010
1000
0001
0000
,
0100
0001
0000
0100
0001
1000
0010
0400
,
0301
0010
0000
0001
1000
0100
4000
3004
,
0013
0100
0000
0010
0001
1000
0100
0010
,
0100
0010
0000
0010
0001
0100
1000
0100
,
0010
1000
0000
0001
0100
1000
0100
0040
,
1030
0001
0000
0001
0010
1000
0010
0100
,
1000
0100
0000
0100
1000
0001
0010
0100
,
1000
0001
0200
0000
0301
0020
0000
0031
,
2000
0000
3100
2000
0000
3010
0200
0000
,
0310
1000
0200
0000
0310
0002
0000
0103
,
0020
0000
0130
0002
0000
1003
0200
0000
,
1300
0001
1000
0000
0000
0000
0001
1000
0001
0000
0000
0000
0000
0000
0000
0000
,
0100
0010
0100
0000
0000
0000
0010
0100
0010
0000
0000
0000
0000
0000
0000
0000
,
1000
0001
1000
0000
0000
0000
0001
1000
0001
0000
0000
0000
0000
0000
0000
0000
,
0010
0000
0000
0010
0100
0000
0001
0000
0000
0010
0100
0000
1000
0100
0010
0100
,
2000
0000
0000
0002
0000
0000
3003
0000
,
0200
0000
0000
0020
0000
0000
0330
0000
,
2000
0000
0000
0020
0000
0000
3030
0000
,
0200
0000
0000
0002
0000
0000
0000
0000
,
0303
0000
0000
0000
;

//---------------dance-single - ----------------
#NOTES:
     dance-single:
     :
     Medium:
     4:
     0.235440,0.342852,0.076853,0.239100,0.000000,193.000000,184.000000,9.000000,28.000000,0.000000,0.000000,0.235440,0.342852,0.076853,0.239100,0.000000,193.000000,184.000000,9.000000,28.000000,0.000000,0.000000:
0000
0000
0000
0000
,
0000
0000
0000
0000
,
0000
0000
0000
0000
,
0000
0000
0000
0000
,
0000
0000
0000
0000
,
0020
0000
0000
0030
,
0020
0000
0000
0030
,
2002
0000
0000
0000
,
3000
0000
0000
0003
0000
0000
0000
0000
,
1000
0000
0000
1000
0000
0000
0000
0000
,
0001
0000
0000
0001
0000
0000
0000
0000
,
0100
0000
0000
0100
0000
0000
0000
0000
,
0010
0000
0000
0010
0000
0000
0000
0000
,
1000
0000
0000
0010
0000
0000
0000
0000
,
0100
0000
0000
0001
0000
0000
0000
0000
,
0010
0000
0000
0100
0000
0000
0000
0000
,
1000
0000
0000
0001
0000
0000
0000
0000
,
1000
0010
1000
0000
0000
0010
0000
0000
,
0100
0000
0000
0001
0000
0000
0010
0000
,
0100
0010
0001
0000
0000
0010
0000
0000
,
0100
0000
0000
0010
0000
0000
0001
0000
,
1000
0000
0000
1000
0000
0000
0000
0000
,
0010
0000
0000
0010
0000
0000
0000
0000
,
0100
0000
0000
0100
0000
0000
0000
0000
,
0001
0000
0000
0001
0000
0000
0000
0000
,
1000
0001
0000
0000
0000
0000
0000
0000
,
0000
0000
0000
0000
,
1000
0001
0000
0000
0000
0000
0000
0000
,
0110
0000
0000
1001
0000
0000
0110
0000
,
0010
1000
0010
0100
,
0001
0010
0100
0010
,
0001
0000
0010
0000
0100
0000
1000
0100
,
1000
0100
1000
0010
,
0100
0001
0010
0001
,
1000
0100
1000
0010
,
0100
0001
0010
0100
,
0010
0001
1000
0100
,
0020
0100
0100
0100
,
0100
0100
0032
1003
,
0020
0100
0100
0100
,
0100
0000
0130
0100
0010
0000
1000
0000
,
1002
1000
1000
1000
,
0100
0100
0100
0100
,
2003
3100
0002
0103
,
0002
0013
2000
3010
,
1002
0000
0000
0000
,
2003
0000
0000
0000
,
3020
0000
0000
0000
,
0230
0000
0000
0000
0000
0000
0310
0100
,
2002
0000
0000
3000
,
0200
0000
0000
0300
,
0020
0000
0000
0033
,
0011
0000
0000
1100
0000
0000
0000
0010
,
0001
0000
0000
0100
0000
0000
0000
0000
,
0010
0000
0000
1000
0000
0000
0000
0001
,
1000
0000
0000
0100
0000
0000
1000
0010
,
0100
0000
0000
0010
0000
0000
0000
0000
,
1000
0000
0000
0001
0000
0000
0000
0000
,
0010
0000
0000
0001
0000
0000
0000
0100
,
0010
0000
0000
1000
0000
0000
0000
0000
,
0010
0000
0000
0100
0000
0000
0000
0000
,
0010
1000
0100
0000
0000
0001
0000
0000
,
0100
0000
0000
1000
0000
0000
0010
0000
,
0001
0010
1000
0000
0000
0010
0000
0000
,
0100
0000
0000
0001
0000
0000
1000
0000
,
0001
0100
0000
0001
1000
0000
0000
0000
,
1000
0100
0000
1000
0001
0000
0000
0000
,
0001
1000
0000
0010
0100
0000
0000
0000
,
0100
0010
0000
1000
0001
0000
0000
0000
,
2000
0000
0000
0020
0000
0000
3030
0000
,
0002
0000
0000
0200
0000
0000
0303
0000
,
0002
0000
0000
2000
0000
0000
3003
0000
,
0200
0000
0000
0020
0000
0000
0000
0000
,
0330
0000
0000
0000
;

//---------------dance-single - ----------------
#NOTES:
     dance-single:
     :
     Easy:
     3:
     0.164686,0.218178,0.034157,0.068314,0.000000,135.000000,131.000000,4.000000,8.000000,0.000000,0.000000,0.164686,0.218178,0.034157,0.068314,0.000000,135.000000,131.000000,4.000000,8.000000,0.000000,0.000000:
0000
0000
0000
0000
,
0000
0000
0000
0000
,
0000
0000
0000
0000
,
0000
0000
0000
0000
,
0000
0000
0000
0000
,
1001
0000
0000
0000
,
0000
0000
0000
0000
,
0010
0010
0010
0010
,
1001
0000
0000
0000
,
0100
0000
0000
0100
0000
0000
0000
0000
,
0010
0000
0000
0010
0000
0000
0000
0000
,
1000
0000
0000
1000
0000
0000
0000
0000
,
0001
0000
0000
0001
0000
0000
0000
0000
,
1000
0000
0000
0010
0000
0000
0000
0000
,
0100
0000
0000
0001
0000
0000
0000
0000
,
0010
0000
0000
0100
0000
0000
0000
0000
,
1000
0000
0000
0001
0000
0000
0000
0000
,
0000
0000
0100
0000
0000
0010
0000
0000
,
1000
0000
0000
0001
0000
0000
1000
0000
,
0000
0000
0001
0000
0000
1000
0000
0000
,
0010
0000
0000
0100
0000
0000
0010
0000
,
0000
0000
0000
1000
0000
0000
0010
0000
,
0000
0100
0000
0000
0001
0000
0000
1000
,
0000
0000
0000
0001
0000
0000
0010
0000
,
0000
0100
0000
0000
1000
0000
0000
0001
,
1000
0000
0000
0000
,
0000
0000
0000
0000
,
0001
0000
0000
0000
,
1001
0000
0000
0000
,
1000
0000
0000
0010
,
0000
0100
0000
0010
,
1000
0001
0000
1000
,
0001
0100
0000
0001
,
0010
0000
0001
0000
,
1000
0000
0100
1000
,
0001
0000
0100
0000
,
0010
1000
0010
0100
,
0002
0000
0000
0000
,
0000
0000
1000
0000
,
2003
0000
0000
0000
,
0000
0000
0010
0000
,
3010
1000
0000
0010
,
0000
0100
0000
0001
,
1000
0001
0000
0100
,
0000
0010
1000
0001
,
0200
0000
0000
0000
,
0000
0000
0000
0000
,
0000
0000
0000
0000
,
0000
0000
0000
0310
,
1002
0000
0000
0000
,
0000
0000
0000
0000
,
1003
1000
1000
1000
,
0001
0000
0000
1000
0000
0000
0000
0000
,
0010
0000
0000
1000
0000
0000
0000
0000
,
0100
0000
0000
0010
0000
0000
0000
0000
,
0001
0000
0000
0010
0000
0000
0000
0000
,
0001
0000
0000
1000
0000
0000
0000
0000
,
0010
0000
0000
0100
0000
0000
0000
0000
,
0010
0000
0000
1000
0000
0000
0000
0000
,
0001
0000
0000
1000
0000
0000
0000
0000
,
0100
0000
0000
1000
0000
0000
0000
0000
,
0000
0000
0010
0000
0000
1000
0000
0000
,
0010
0000
0000
0100
0000
0000
0001
0000
,
0000
0000
0100
0000
0000
0001
0000
0000
,
0010
0000
0000
0100
0000
0000
1000
0000
,
0000
0000
0000
0100
0000
0000
1000
0000
,
0000
0001
0000
0000
0100
0000
0000
0010
,
0000
0000
0000
1000
0000
0000
0010
0000
,
0100
0001
0010
0100
,
2000
0000
0000
0000
,
3002
0000
0000
0000
,
0203
0000
0000
0000
,
0320
0000
0000
0000
,
0030
0000
0000
0000
;

//---------------dance-single - ----------------
#NOTES:
     dance-single:
     :
     Beginner:
     1:
     0.089052,0.184448,0.076853,0.000000,0.000000,73.000000,64.000000,9.000000,0.000000,0.000000,0.000000,0.089052,0.184448,0.076853,0.000000,0.000000,73.000000,64.000000,9.000000,0.000000,0.000000,0.000000:
0000
0000
0000
0000
,
0000
0000
0000
0000
,
0000
0000
0000
0000
,
0000
0000
0000
0000
,
0000
0000
0000
0000
,
0010
0000
0000
0000
,
0000
0000
0000
0000
,
0100
0000
0000
0000
,
1001
0000
0000
0000
,
1000
0000
0000
0000
,
1000
0000
0000
0000
,
1000
0000
0000
0000
,
1000
0000
0000
0000
,
0001
0000
0000
0000
,
0001
0000
0000
0000
,
0100
0000
0000
0000
,
0100
0000
0000
0000
,
0010
0000
0000
0000
,
1000
0000
0000
0000
,
0001
0000
0000
0000
,
0100
0000
0000
0000
,
0010
0000
0000
0000
,
1000
0000
0000
0000
,
0001
0000
0000
0000
,
1000
0000
0000
0000
,
0110
0000
0000
0000
,
0000
0000
0000
0000
,
1001
0000
0000
0000
,
0110
0000
0000
0000
,
1001
0000
0000
0000
,
0001
0000
0000
0000
,
1000
0000
0000
0010
,
0010
0000
0000
0000
,
0100
0000
0000
0000
,
0010
0000
0000
0000
,
1000
0000
0001
0000
,
1000
0000
0000
0000
,
0010
0000
0000
0000
,
0000
0000
0100
0000
,
0001
0000
0000
0000
,
0000
0000
1000
0000
,
1000
0000
0000
0000
,
0000
0000
0000
0000
,
0001
0000
0000
0000
,
1000
0000
0000
0000
,
0110
0000
0000
0000
,
0000
0000
0000
0000
,
0000
0000
0000
0000
,
0000
0000
0000
0000
,
1001
0000
0000
0000
,
0000
0000
0000
0000
,
0010
0000
0000
0000
,
0100
0000
0000
0000
,
1001
0000
0000
0000
,
0001
0000
0000
0000
,
1000
0000
0000
0010
,
0010
0000
0000
0000
,
0100
0000
0000
0000
,
0001
0000
0000
0000
,
1000
0000
0000
0000
,
0010
0000
0000
0000
,
1000
0000
0000
0000
,
0001
0000
0000
0000
,
0100
0000
0000
0000
,
0010
0000
0000
0000
,
0100
0000
0000
0000
,
0001
0000
0000
0000
,
1000
0000
0000
0000
,
0010
0000
0000
0000
,
1001
0000
0000
0000
,
1000
0000
0000
0000
,
1000
0000
0000
0000
,
1000
0000
0000
0000
;

//---------------dance-single - ----------------
#NOTES:
     dance-single:
     :
     Challenge:
     11:
     0.747796,0.903882,0.170785,0.435503,0.695951,613.000000,593.000000,20.000000,51.000000,0.000000,0.000000,0.747796,0.903882,0.170785,0.435503,0.695951,613.000000,593.000000,20.000000,51.000000,0.000000,0.000000:
// measure 0
0000
0000
0000
0000
,  // measure 1
0000
0000
0000
0000
,  // measure 2
0000
0000
0000
0000
,  // measure 3
0000
0000
0000
0000
,  // measure 4
0000
0000
0000
0000
,  // measure 5
2020
0000
0030
0200
0000
0000
3300
0000
,  // measure 6
0022
0000
0030
0200
0000
0000
0303
0000
,  // measure 7
0001
1000
0001
1000
0001
1000
0001
1000
0001
1000
0001
1000
0001
1000
0001
0000
,  // measure 8
1001
0000
0000
0010
0100
0000
1001
0000
0000
0100
0010
0000
0000
0000
0010
0100
,  // measure 9
1000
0010
1000
0000
0001
0000
0010
0001
0010
0000
0001
0000
1000
0000
0000
0000
,  // measure 10
0001
0100
0001
0000
1000
0000
0100
1000
0100
0000
1000
0000
0001
0000
0000
0000
,  // measure 11
1000
0010
1000
0000
0001
0000
0100
0001
0100
0000
0001
0000
1000
0000
0000
0000
,  // measure 12
0001
0010
0001
0000
0010
0000
0100
1000
0100
0000
1000
0000
0001
0000
0000
0000
,  // measure 13
1000
0010
0100
0000
0010
0000
0100
0001
0010
0000
0100
0000
1000
0000
0000
0000
,  // measure 14
0001
1000
0010
0000
0100
0000
0010
1000
0100
0000
0010
0000
0001
0000
0000
0000
,  // measure 15
0010
0001
0100
0000
0010
0000
1000
0010
0100
0000
0001
0000
1000
0000
0000
0000
,  // measure 16
1000
0001
0010
0000
0100
0000
0010
0001
0100
0000
1000
0000
0010
0000
0000
0000
,  // measure 17
0100
0001
0020
0100
0130
2000
0001
3001
,  // measure 18
0200
0000
0010
0000
0310
0000
0002
0000
1000
0000
1003
0000
0001
0010
0100
1000
,  // measure 19
0001
1000
0200
0010
0310
0002
1000
1003
,  // measure 20
0020
0100
0130
2000
0000
0100
3100
0000
,  // measure 21
1000
0001
0100
0020
1000
1030
0200
1000
,  // measure 22
1300
0020
0100
0130
2000
0001
3001
0000
,  // measure 23
1000
0001
0010
0001
0100
1000
0100
0001
,  // measure 24
1001
0000
0000
0010
0100
0000
1001
0000
0000
0010
0100
0000
0000
0000
0010
0000
,  // measure 25
0110
1001
0000
0000
0000
0000
0000
0000
,  // measure 26
0000
0000
0000
0000
,  // measure 27
1001
0110
0000
0000
0000
0000
0000
0000
,  // measure 28
1010
0000
0000
0100
0001
0000
0011
0000
0000
0010
0100
0000
0000
0000
0100
1000
,  // measure 29
0001
0010
0001
0100
0000
0010
1000
0100
,  // measure 30
0000
0010
0001
0100
0000
0010
1000
0004
,  // measure 31
1003
0000
0000
0100
0000
0000
1000
0000
0000
0010
0000
0000
0100
0000
0000
0001
0000
0000
1000
0001
0100
0001
0100
0001
,  // measure 32
0010
0000
0100
0000
1000
0000
0100
0000
1000
0000
0010
0100
0010
1000
0001
1000
,  // measure 33
0001
0100
0000
0100
0001
0000
0100
0010
,  // measure 34
1000
0001
0000
1000
0010
1000
0001
0040
,  // measure 35
0130
0000
0010
0000
0001
0010
0100
1000
0001
0000
0100
0010
1000
0000
0001
0000
,  // measure 36
1000
0000
0100
0000
0010
0000
0001
0010
0000
0100
1000
0000
0010
0100
0001
1000
,  // measure 37
0100
1000
0100
0000
1000
0010
1000
0000
0010
0100
0010
0000
0100
0001
0100
0000
,  // measure 38
0001
1000
0001
0000
1000
0010
1000
0000
0100
0001
0010
0000
0100
1000
0010
0000
,  // measure 39
0100
0010
0100
0000
0001
0100
0001
0000
0010
0100
0010
0000
0100
1000
0100
0000
,  // measure 40
0100
0010
0100
0000
0100
0001
0100
0000
0001
1000
0001
0000
0010
1000
0010
0000
,  // measure 41
2000
0000
0020
3000
0200
0030
0002
0300
0010
0003
0002
0000
0100
0003
0020
0000
,  // measure 42
2000
0030
0200
3000
2000
0300
0010
3000
0200
0000
0020
0300
2000
0030
0100
3000
,  // measure 43
0020
0000
0200
0030
2000
0300
0010
3000
0100
0000
0002
0000
0020
0003
0100
0030
,  // measure 44
0020
0000
0002
0030
0200
0003
0020
0300
2000
0030
0200
3000
0320
0000
0032
0000
,  // measure 45
1003
0010
0000
1000
0001
0000
1000
0100
0000
1000
0001
0000
1000
0000
0001
0100
,  // measure 46
0001
0010
0000
0001
1000
0000
0001
0100
0000
0001
1000
0000
0001
0000
1000
0001
,  // measure 47
0100
0010
0000
0100
0001
0000
0100
0010
0000
0100
0001
0000
0100
0000
0010
1000
,  // measure 48
0010
0100
0000
0010
1000
0000
0010
0100
0000
0010
1000
0000
0001
0010
0100
1000
,  // measure 49
0001
0010
0000
0100
1000
0000
1000
0010
0000
0100
0001
0000
0010
0000
0100
0010
,  // measure 50
0001
0100
0000
0010
1000
0000
1000
0100
0000
0100
0010
0000
0001
0000
0010
0001
,  // measure 51
0100
0010
0100
0010
0100
0010
0100
0010
0100
0010
0100
0010
0100
0010
0100
0000
,  // measure 52
1001
0000
0000
0010
0100
0000
1001
0000
0000
0010
0100
0000
0000
0000
0010
0100
,  // measure 53
0001
0100
0001
0000
1000
0000
0100
1000
0100
0000
1000
0000
0001
0000
0000
0000
,  // measure 54
1000
0010
1000
0000
0001
0000
0010
0001
0010
0000
0001
0000
1000
0000
0004
0000
,  // measure 55
0013
0000
0000
0001
0000
0000
0010
0000
0000
0000
0000
0000
0100
0000
0000
0000
0000
0000
1000
0000
0000
0100
0000
0000
1000
0000
0000
0000
0000
0000
0100
0000
0000
0000
0000
0000
0010
0000
0001
0000
0100
0000
0010
0000
1000
0000
0001
0000
,  // measure 56
0100
0001
0100
0000
0001
0000
1000
0010
1000
0000
0010
0100
0010
1000
0001
0010
,  // measure 57
0001
1000
0001
0000
1000
0000
0010
0100
0010
0000
1000
0000
0010
0000
0000
0000
,  // measure 58
0100
0010
0100
0000
0001
0000
0010
0100
0010
0000
0100
0000
1000
0000
0004
0000
,  // measure 59
1003
0100
1000
0000
0001
0000
0010
0001
1000
0000
0100
0000
0010
0000
0000
0000
,  // measure 60
0010
0001
0100
0000
0010
0000
0100
0010
1000
0000
0001
1000
0010
1000
0001
0010
,  // measure 61
0100
1000
1010
0000
0000
0101
0000
0000
,  // measure 62
0011
0000
0000
1010
0000
0000
0011
0000
,  // measure 63
0001
1000
0001
1000
0001
1000
0001
0000
0000
0100
0000
0000
0000
0000
0000
0001
0000
0000
0010
0000
0000
0100
0000
0000
,  // measure 64
0010
0001
0000
1000
0400
0000
0340
0000
0031
0010
0100
1000
0100
0010
0100
1000
,  // measure 65
0001
0100
0001
0000
0100
0000
0001
0100
0001
0100
0010
1000
0001
0010
0100
1000
,  // measure 66
0001
1000
0001
0000
0100
0000
0001
1000
0001
0010
0001
0100
0010
1000
0100
0010
,  // measure 67
0100
1000
0100
0000
1000
0000
0100
1000
0100
1000
0010
0100
0001
0010
0100
0010
,  // measure 68
0001
1000
0000
0010
0100
0000
0001
0100
0000
0010
1000
0000
1100
0000
1000
0001
,  // measure 69
0200
0000
0000
0020
0000
0000
0330
0000
,  // measure 70
2000
0000
0000
0002
0000
0000
3003
0000
,  // measure 71
2000
0000
0000
0020
0000
0000
3030
0000
,  // measure 72
0002
0000
0000
0200
0000
0000
0000
0000
,  // measure 73
0303
0000
0000
0000
;
