#VERSION:0.83;
#TITLE:Kung Brother;
#SUBTITLE:;
#ARTIST:PAUL BAZOOKA;
#TITLETRANSLIT:;
#SUBTITLETRANSLIT:;
#ARTISTTRANSLIT:;
#GENRE:;
#ORIGIN:;
#CREDIT:;
#BANNER:Kung Brother.png;
#BACKGROUND:Kung Brother-bg.png;
#PREVIEWVID:;
#JACKET:Kung Brother-jacket.png;
#CDIMAGE:;
#DISCIMAGE:;
#LYRICSPATH:;
#CDTITLE:;
#MUSIC:Kung Brother.mp3;
#OFFSET:-5.326001;
#SAMPLESTART:17.777794;
#SAMPLELENGTH:14.068966;
#SELECTABLE:YES;
#BPMS:0.000=145.000,
63.000=72.500,
64.000=145.000;
#STOPS:30.000=0.414,
204.000=0.414;
#DELAYS:;
#WARPS:;
#TIMESIGNATURES:0.000=4=4;
#TICKCOUNTS:0.000=4;
#COMBOS:0.000=1;
#SPEEDS:0.000=1.000=0.000=0;
#SCROLLS:0.000=1.000;
#FAKES:;
#LABELS:0.000=Song Start;
#BGCHANGES:;
#KEYSOUNDS:;
#ATTACKS:
;

//---------------dance-single - ----------------
#NOTEDATA:;
#CHARTNAME:;
#STEPSTYPE:dance-single;
#DESCRIPTION:;
#CHARTSTYLE:;
#DIFFICULTY:Hard;
#METER:9;
#RADARVALUES:0.572779,0.605057,0.116457,0.116457,0.274506,482.000000,468.000000,14.000000,14.000000,0.000000,0.000000,0.000000,0.000000,0.000000,0.572779,0.605057,0.116457,0.116457,0.274506,482.000000,468.000000,14.000000,14.000000,0.000000,0.000000,0.000000,0.000000,0.000000;
#CREDIT:;
#NOTES:
1000
0000
0010
0100
0000
0001
1000
0000
,
0100
0000
0010
0001
0000
1000
0010
0000
,
1000
0000
0010
1000
0000
0001
0100
0000
,
0001
0000
1000
0000
0010
0100
0002
0000
,
1003
0000
0000
0010
0000
0000
0100
0000
0000
0001
0000
0000
0010
0000
0000
0000
,
0100
0000
0010
0000
0001
0000
0100
0000
1000
0100
0000
0100
0010
0000
1000
0000
,
0001
0000
0000
0001
0000
0000
1000
0000
0000
1000
0000
0000
0010
0000
0000
0010
,
0000
0000
0100
0000
0000
0010
0000
0000
0000
0000
0000
0000
0110
0000
0000
0000
,
1001
0001
0010
0001
1000
0100
1000
0001
,
0100
0001
1000
0100
1000
0001
0010
0100
,
0010
0001
1000
0010
1000
0001
1000
0001
,
0100
0001
1000
0100
1000
0001
0010
0000
,
0110
0000
0010
0001
0101
0000
1000
0100
,
0001
0000
0100
0000
0010
0000
1000
0000
0001
0000
0010
0000
0100
0000
0000
0010
,
0000
0001
1000
0010
1000
0100
0010
0100
,
1000
0001
0020
0000
0032
0000
0203
0000
,
0310
0000
0000
1000
0100
1000
0001
0001
,
0100
0010
1000
0010
0200
0000
0301
0001
,
1000
1000
0100
0100
1000
0010
0001
0010
,
0100
0100
0010
1000
0001
0000
1000
0001
,
0100
0000
0010
0000
1000
0000
0100
0000
1000
0000
0000
0010
0000
0000
0100
0000
,
0001
0000
0010
0000
0001
0000
0010
0000
0001
0000
0000
0001
0000
0000
0001
0000
,
1000
0010
0001
0010
0100
0010
0100
0010
,
0100
0001
0010
0000
1001
0000
1010
0000
,
1000
0000
0000
0010
0000
0000
0200
0000
0010
0000
0000
0000
0310
0000
0000
0000
,
1000
0001
0010
0001
1000
0000
0001
0000
,
0100
0000
0010
0000
1000
0000
0100
0000
1000
0000
0001
0100
0001
0000
0010
0000
,
1000
0010
0001
1000
0100
1000
0010
0100
,
0001
0000
0000
0010
0000
0000
0001
0000
1000
0001
0000
0010
0100
0000
1000
0000
,
0001
0000
1000
0010
1000
0000
0001
0000
0010
0000
0001
0000
0100
0000
0001
0000
,
1000
0000
0000
1000
0000
0000
0010
0000
0100
0001
0000
1000
0010
0000
1000
0000
,
0100
0000
0001
0000
0100
0000
0010
0000
0001
0000
1000
0010
1000
0000
0001
0000
,
0010
0000
0000
0000
0001
0000
1000
0001
0100
0000
0001
0010
0001
0000
1000
0000
,
0001
0000
0100
0000
0100
0000
0001
0000
1000
0000
0010
1000
0010
0000
1000
0000
,
0100
0000
0000
0000
0010
0000
0001
0100
0010
0000
1000
0010
1000
0000
0001
0000
,
1000
0000
0001
0010
0100
0000
0010
0010
,
0001
0000
0001
0001
1000
0000
1000
1000
,
0010
0000
0010
0010
0100
0010
1000
0010
,
0100
0001
0010
0100
1000
0010
0001
0010
,
1000
0010
0001
0000
1002
0000
0103
0001
,
0010
0001
0100
0010
1000
0100
0001
0100
,
0010
1000
0010
1000
2001
0000
3010
1000
,
0100
1000
0010
0100
0001
0010
1000
0010
,
0100
1000
0010
0001
1002
0000
0013
0000
,
2001
3010
1002
0103
,
2001
0000
3100
0000
1000
0001
1000
0001
,
1000
0001
1000
0001
0100
0010
0100
0010
,
0100
0000
0100
0000
0100
0000
0000
0000
0001
0000
1000
0010
1000
0000
0100
0000
,
0010
0000
0001
0010
0001
0000
1000
0000
0010
0000
0010
0000
0010
0000
0010
0100
,
0000
0000
0010
0000
0200
0000
0000
0000
0301
0000
0010
0001
0010
0000
0100
0000
,
1000
0000
0001
1000
0001
0000
0100
0000
0020
0000
1030
0001
1000
0000
0001
0000
,
0000
0000
0000
0000
0001
0000
1000
0010
1000
0000
0001
0000
0010
0000
0100
1000
,
0100
0000
1000
0000
0001
0000
0001
0000
0001
0000
0001
1000
0010
0000
0100
0010
,
0100
0000
0010
0000
1000
0000
0001
0010
0001
0000
1000
0000
0010
0000
0100
0001
,
0100
0000
0001
0000
1000
0000
0001
1000
0100
0000
0100
1000
0000
0010
0100
0010
,
1001
0000
0000
0000
0001
0000
0000
0100
0001
0000
0000
0001
0010
0000
0000
0010
,
0100
0000
0000
0100
1000
0000
0000
1000
0001
0000
0000
0001
0100
0000
0000
0100
,
0010
0000
0000
0010
1000
0000
0000
1000
0100
0000
0000
0100
0010
0000
0000
0010
,
0001
0000
0000
0001
1000
0000
0000
1000
0010
0000
0000
0010
0100
0000
0000
0100
,
0001
0000
0000
0001
0010
0000
0001
0000
0100
0000
1000
0000
0100
0000
0010
0000
,
0100
0001
0010
1000
0010
0001
0010
0100
,
0010
0000
0001
0000
1000
0000
0000
0001
0100
0000
0000
0100
0010
0000
0000
0010
,
1000
0000
0000
1000
0001
0000
1000
0010
0100
0001
0010
0100
0010
0000
0001
1000
,
0001
1000
0110
0000
0000
0000
0000
0000
;

//---------------dance-single - ----------------
#NOTEDATA:;
#CHARTNAME:;
#STEPSTYPE:dance-single;
#DESCRIPTION:;
#CHARTSTYLE:;
#DIFFICULTY:Medium;
#METER:7;
#RADARVALUES:0.436120,0.475394,0.465828,0.266188,0.041592,367.000000,311.000000,56.000000,32.000000,0.000000,0.000000,0.000000,0.000000,0.000000,0.436120,0.475394,0.465828,0.266188,0.041592,367.000000,311.000000,56.000000,32.000000,0.000000,0.000000,0.000000,0.000000,0.000000;
#CREDIT:;
#NOTES:
1000
0000
0001
0100
0000
0010
1000
0000
,
0001
0000
1000
0000
0100
0010
0100
0000
,
0010
0000
0001
0010
0000
0100
1000
0000
,
0001
0000
0100
0000
0010
0010
0200
0000
,
0301
0000
1000
0010
0000
0010
0100
0000
,
0010
0000
1000
0000
0001
0010
0001
0000
,
0100
0000
0000
0100
0000
0000
0010
0000
0000
0010
0000
0000
1000
0000
0000
1000
,
0000
0000
0011
0000
0000
1100
0000
0000
0000
0000
0000
0000
0120
0000
0000
0000
,
1030
0000
0001
0000
0010
0001
0100
0000
,
0010
0000
1000
0001
0010
0000
0100
0000
,
1000
0000
0001
0100
0010
0000
0200
0000
,
0301
0020
0130
0000
,
1100
0000
0010
0001
0101
0000
0001
0100
,
1000
0000
0100
0000
0001
0000
0100
0000
0010
0000
1000
0000
0100
0000
0000
0100
,
0000
0100
0010
0001
1000
0100
1000
0001
,
0100
0001
2000
0000
3002
0000
0203
0000
,
0310
0000
1000
0000
0100
1000
0010
0000
,
0100
0001
0010
0000
0210
0000
0310
0001
,
0010
0001
0010
0001
1000
0000
0001
0000
,
0100
0000
0010
1000
0100
0000
0010
0000
,
0001
1000
0010
0100
,
0001
0000
0000
0000
1000
0000
0000
0000
0001
0000
0000
1000
0000
0000
0010
0000
,
1000
0001
0010
0100
1000
0000
1000
0000
,
0001
0001
0210
0310
,
0100
0000
0000
0001
0000
0000
0020
0000
0100
0000
0000
0000
0130
0000
0000
0000
,
1000
0001
0100
0001
,
0010
0000
0000
0100
0000
0000
2000
0000
0001
0000
0000
0000
3001
0000
0000
0000
,
0100
0010
1000
0000
0001
1000
0100
0000
,
1000
0000
0000
0001
0000
0000
0100
0000
0000
0010
0000
0000
1000
0000
0010
0000
,
0100
0001
1000
0100
0010
0000
0010
0000
,
0001
0001
1000
0001
,
0100
0010
0100
0000
0002
0000
0023
0000
,
0230
0320
0032
2003
,
3200
0010
0310
0000
2000
0000
3020
0000
,
0230
0320
2030
3002
,
0023
0000
0130
0010
0001
0000
1000
0010
,
1000
0000
0001
0100
0001
0000
0001
0010
,
0001
0000
0010
0100
0010
0000
0001
0000
,
0100
0000
1000
0000
0100
0010
0100
0010
,
0100
0010
1000
0000
1002
0000
0103
0000
,
0001
0010
0100
1000
,
0100
1000
1020
0130
,
0001
1000
0100
1000
,
0001
0100
0120
1030
,
0201
0301
0120
1030
,
0120
0031
0100
0010
,
1000
0000
0001
0000
0001
0100
0010
1000
,
0001
0001
0001
0000
1000
0000
1100
0000
,
0001
0000
0101
0000
0010
0100
0010
0100
,
0000
0100
0110
0000
0010
0000
1010
0000
,
1000
1001
0001
0011
,
0100
0010
0001
1000
0001
0000
0101
0000
,
0100
0000
0110
0000
0100
0010
0100
0010
,
0000
0010
1000
0000
0001
0000
1001
0000
,
1000
0000
1100
0000
1000
0100
0001
0100
,
2000
3000
1010
0101
,
1010
0101
0011
1100
,
0011
1100
1001
0110
,
1001
0110
0101
1010
,
1100
0011
0101
0101
,
1010
1010
1100
1100
,
0011
0011
0110
0110
,
1001
1001
0101
1010
,
1100
0011
1001
0000
;

//---------------dance-single - ----------------
#NOTEDATA:;
#CHARTNAME:;
#STEPSTYPE:dance-single;
#DESCRIPTION:;
#CHARTSTYLE:;
#DIFFICULTY:Easy;
#METER:4;
#RADARVALUES:0.297084,0.448983,0.216277,0.099820,0.000000,250.000000,224.000000,26.000000,12.000000,0.000000,0.000000,0.000000,0.000000,0.000000,0.297084,0.448983,0.216277,0.099820,0.000000,250.000000,224.000000,26.000000,12.000000,0.000000,0.000000,0.000000,0.000000,0.000000;
#CREDIT:;
#NOTES:
1000
0000
0000
0000
,
0001
0000
0000
0000
,
1000
0000
0000
0000
,
0001
0000
0100
0110
,
0010
0000
0000
0000
,
1000
0000
0001
0001
,
1000
0000
0001
0000
,
0100
0000
0000
1001
,
0001
0010
0001
1000
,
0100
1000
0010
0100
,
0001
0010
0001
1000
,
1000
0001
0001
1000
,
1001
0101
0011
0011
,
1100
0011
0101
1001
,
0001
1001
1000
1001
,
0110
0002
2003
3010
,
0101
0001
1000
1000
,
0001
0010
0101
0001
,
0001
0001
1000
0001
,
0010
0001
1001
1000
,
0010
0100
0010
1000
,
0001
0010
0100
0100
,
0010
0001
1001
0100
,
1001
0010
0110
0010
,
1000
1000
0010
0100
,
0001
0010
0110
0110
,
0100
0010
0001
1000
,
0100
1000
0001
0100
,
0010
0100
0001
0001
,
1000
0001
0010
0001
,
1000
0100
1000
0010
,
0100
0001
1000
0001
,
0100
0000
0001
1000
,
0100
0000
1000
0001
,
0010
0000
0001
1000
,
0010
0000
1000
0000
,
0100
0000
0010
0000
,
0001
0000
1000
0000
,
0001
0000
0100
0010
,
1000
0001
2000
3010
,
0100
0001
0010
1000
,
0010
0001
0200
0301
,
0010
0001
0100
1000
,
0100
0010
2000
3001
,
2000
3001
0002
1003
,
0002
1003
0002
0013
,
0020
0130
0100
0010
,
0001
1000
0001
0100
,
0001
1000
0100
0100
,
0000
0010
0001
1000
,
0010
0100
0001
1000
,
0200
0000
1300
0010
,
0001
0010
1000
1000
,
0010
0100
0001
0100
,
1000
0100
0010
1000
,
0002
0003
1000
0001
,
0010
0001
1000
0010
,
1000
0001
1000
0001
,
0100
0001
1000
0100
,
1000
0001
0100
0100
,
0010
0010
1000
1000
,
0001
0001
1000
0100
,
0010
0001
1001
0110
,
1001
0110
1001
0000
;

//---------------dance-single - ----------------
#NOTEDATA:;
#CHARTNAME:;
#STEPSTYPE:dance-single;
#DESCRIPTION:;
#CHARTSTYLE:;
#DIFFICULTY:Beginner;
#METER:1;
#RADARVALUES:0.116457,0.210455,0.041592,0.000000,0.000000,98.000000,93.000000,5.000000,0.000000,0.000000,0.000000,0.000000,0.000000,0.000000,0.116457,0.210455,0.041592,0.000000,0.000000,98.000000,93.000000,5.000000,0.000000,0.000000,0.000000,0.000000,0.000000,0.000000;
#CREDIT:;
#NOTES:
0010
0000
0000
0000
,
1000
0000
0000
0000
,
0010
0000
0000
0000
,
0100
0000
0000
0000
,
0001
0000
0000
0000
,
1000
0000
0000
0000
,
0001
0000
0000
0000
,
0100
0000
0000
0010
,
0000
0000
0000
1000
,
0000
0000
0000
0001
,
0000
0000
0000
0100
,
0000
0100
0000
0010
,
0000
1000
0000
0001
,
0000
1000
1000
1000
,
0000
0001
0000
0100
,
0000
0010
0000
1001
,
1000
0000
0000
0000
,
0001
0000
0100
0000
,
0000
0000
0010
0000
,
0000
0000
1000
0000
,
0000
0000
0010
0000
,
0000
0000
0100
0000
,
0010
0000
1000
0000
,
0001
0000
0100
0000
,
0010
0000
1000
0000
,
0000
0000
0001
0000
,
1000
0000
0100
0000
,
0000
0000
1000
0000
,
0010
0000
1000
0000
,
0000
0000
0001
0000
,
0010
0000
0001
0000
,
0000
0000
0100
0000
,
0000
0000
0000
0000
,
0000
0000
0010
0000
,
0000
0000
0000
0000
,
0000
0000
1000
0000
,
0000
0000
0001
0000
,
0000
0000
0100
0000
,
0000
0000
0010
0000
,
0000
0000
1001
0000
,
0000
0000
1000
0000
,
0000
0000
0110
0000
,
0000
0000
0010
0000
,
0000
0000
1000
0000
,
1000
0000
1000
0000
,
1000
0000
0001
0000
,
0001
0000
0001
0000
,
0001
0001
1001
0000
,
0100
0000
0010
0000
,
0000
0000
1000
0000
,
0001
0000
0100
0000
,
0000
0010
0000
1000
,
0000
0100
0000
0000
,
0000
1000
0000
0001
,
0000
0010
0000
0000
,
0000
0001
0000
1000
,
0000
0001
0000
1000
,
0000
0010
0000
0100
,
0000
0010
0000
0100
,
0000
0001
0000
0000
,
0000
0100
0000
0000
,
0000
0010
0000
1000
,
0000
0001
1000
0001
,
1000
0110
0000
0000
;

//---------------dance-single - ----------------
#NOTEDATA:;
#CHARTNAME:;
#STEPSTYPE:dance-single;
#DESCRIPTION:;
#CHARTSTYLE:;
#DIFFICULTY:Challenge;
#METER:11;
#RADARVALUES:0.754594,0.922714,0.390963,0.291143,0.594763,635.000000,588.000000,47.000000,35.000000,0.000000,0.000000,0.000000,0.000000,0.000000,0.754594,0.922714,0.390963,0.291143,0.594763,635.000000,588.000000,47.000000,35.000000,0.000000,0.000000,0.000000,0.000000,0.000000;
#CREDIT:;
#NOTES:
// measure 0
1000
0000
0001
0010
0000
0001
0001
1000
,  // measure 1
0010
0100
0001
0010
0100
0010
0010
0000
,  // measure 2
0001
1000
0000
0010
0000
0100
0001
0001
,  // measure 3
1000
0000
0100
0000
0010
0000
0001
0000
2000
3000
0002
0003
0020
0000
0030
0000
,  // measure 4
0001
0000
0000
0100
0000
0000
0020
0000
0000
0000
0130
0000
0010
0000
1000
0000
,  // measure 5
0001
0000
0010
0000
1000
0000
0010
0000
0100
1000
0000
0100
1000
0000
0001
0000
,  // measure 6
1000
0000
0001
0100
0000
1000
0100
0000
0001
0100
0000
1000
0100
0000
0001
0100
,  // measure 7
0000
0000
1000
0100
0000
0010
0001
0000
0100
0000
0000
0000
1002
0000
0000
0000
,  // measure 8
0013
0000
0001
0000
1100
0000
0001
0000
0100
0010
1000
0001
0010
0000
0100
0000
,  // measure 9
0021
0000
0130
0000
1000
0100
0010
0001
1000
0000
0010
0100
0002
0000
0013
0000
,  // measure 10
1001
0000
0000
0000
0001
0100
0000
0010
0000
1000
0000
0100
1000
0000
0001
0100
,  // measure 11
0010
0000
0100
0001
1000
0000
0100
0000
0010
0000
0100
0000
1000
0000
0000
0000
,  // measure 12
0101
0000
0000
0000
0001
0000
1000
0000
0110
0000
0000
0000
0110
0000
1000
0001
,  // measure 13
1000
0000
0110
0000
0001
0000
0100
0010
1000
0000
1001
0000
0101
0000
0000
0011
,  // measure 14
0000
0000
0100
0000
0110
0000
0100
0000
0100
0010
0001
0000
1000
0000
0001
1000
,  // measure 15
0001
0000
0000
0000
1000
0000
0000
0000
0020
0000
0000
0000
0000
0000
0000
0000
0230
0000
0000
0000
0000
0000
0000
0000
0301
0000
0000
0020
0000
0000
0000
0000
,  // measure 16
0130
0000
0000
0010
0000
0000
0001
0000
1000
0000
0010
0000
0100
0000
0100
0000
,  // measure 17
0001
1000
0010
0100
1002
0000
0010
0010
,  // measure 18
0010
0000
0010
0000
0010
0000
0013
0000
0100
0000
1000
0100
1000
0100
1000
0001
,  // measure 19
0100
0000
0001
0000
1000
0001
0000
0001
0010
0000
0000
0000
0200
0000
0000
0000
,  // measure 20
0310
0001
0100
0010
1000
0000
1000
0001
1000
0000
0000
0010
0000
0000
0001
0000
,  // measure 21
0010
0100
0010
0100
0001
0000
1000
0000
1100
0000
0000
0101
0000
0000
0010
0000
,  // measure 22
1001
0001
1001
1000
0010
0010
0100
0100
,  // measure 23
0010
0000
1000
0001
1000
0000
0000
0000
0201
0000
0000
0000
0310
0000
0000
0000
,  // measure 24
0100
0000
0010
1000
0000
1000
0200
0000
0010
0000
0000
0000
0310
0000
0000
0000
,  // measure 25
0100
0010
0001
1000
1020
0000
0100
0000
,  // measure 26
1030
0000
0001
0000
0010
0000
0001
0000
0100
0000
0010
0100
0010
0000
1000
0000
,  // measure 27
0100
0001
0100
0010
0001
1000
0100
1000
,  // measure 28
0010
0000
1000
0010
0000
0010
0100
0000
0001
1000
0000
0001
1000
0000
0010
0000
,  // measure 29
0100
0000
0001
0010
0100
0000
0010
0000
0001
0000
1000
0000
0010
0000
0100
0000
,  // measure 30
0001
0000
0010
0001
0000
0010
0001
0000
1000
0010
0000
0001
0010
0000
0100
0000
,  // measure 31
0010
0000
0001
0100
0010
0000
1000
0000
0001
0000
1000
0010
0100
0000
0001
0000
,  // measure 32
0010
0000
0000
0000
0100
0000
0010
0001
0100
0000
0010
0100
0001
0000
1000
0000
,  // measure 33
0100
0000
0010
0000
0010
0000
0100
0000
1000
0000
0001
1000
0010
0000
0100
0000
,  // measure 34
0001
0000
0000
0000
1000
0000
0001
1000
0100
0000
0010
0100
1000
0000
0001
0000
,  // measure 35
0100
0000
0000
0000
0010
0100
0001
1000
0001
0000
0000
0000
1000
0000
0001
0000
,  // measure 36
0010
0000
0100
0010
0001
0000
0100
0000
0010
0000
1000
0001
1000
0000
0010
0000
,  // measure 37
0100
0000
0010
1000
0001
0000
1000
0000
0010
0000
1000
0010
0100
0000
0001
0000
,  // measure 38
0010
0100
0010
0001
1000
0010
1000
0100
,  // measure 39
1000
0000
0001
0100
0001
0000
0000
0000
1002
0000
0000
0000
0013
0001
0100
0010
,  // measure 40
1000
0001
0010
0100
0010
0001
0100
0010
1000
0010
0100
0001
0010
0100
1000
0010
,  // measure 41
0100
0010
1000
0001
0010
0100
1000
0010
0200
0000
0000
0000
0310
1000
0010
0100
,  // measure 42
0001
0100
0001
0010
0001
0010
0100
1000
0100
1000
0010
0100
0001
0100
0010
1000
,  // measure 43
0001
0010
0100
0010
0001
0100
0010
1000
1001
0000
0001
0100
0020
0000
1030
0001
,  // measure 44
0200
0000
0310
1000
0200
0000
0310
0001
2000
0000
3001
0100
0020
0000
0130
0010
,  // measure 45
2000
0000
3100
0010
0002
0000
0013
0100
0010
0000
0010
0000
0001
0000
0001
0000
,  // measure 46
1000
0000
1000
0000
0010
0000
0010
0000
0100
0000
0010
0100
0010
0000
0010
0100
,  // measure 47
0110
0000
1001
0000
1001
0000
0000
0000
0101
0000
0001
0100
0010
0000
1000
0000
,  // measure 48
1100
0000
0100
0010
0001
0000
1000
0000
0010
0000
0010
0000
0010
0000
0100
0010
,  // measure 49
0100
0000
0001
0000
0020
0000
0100
0000
0130
0000
1000
0010
0100
0000
0001
0000
,  // measure 50
1000
0000
0100
0010
0100
0000
1000
0000
0020
0000
0130
0001
2000
0000
3200
0000
,  // measure 51
0000
0300
0000
0000
1001
0000
1000
0001
0100
0000
0010
0000
1010
0000
1000
0001
,  // measure 52
0010
0000
0100
0000
1100
0000
0100
0000
0100
0000
0100
0010
0200
0300
0020
0032
,  // measure 53
2003
3000
0020
0030
0100
0000
0010
1000
0001
0000
0010
0000
0100
0000
0010
0001
,  // measure 54
1000
0000
0010
0000
0100
0000
0010
1000
0001
0000
0010
0000
0000
0100
0010
0001
,  // measure 55
1001
0000
0000
0000
1001
0000
0001
0100
0101
0000
0100
0001
0101
0000
0001
0100
,  // measure 56
0101
0000
0001
1000
1010
0000
0010
1000
1010
0000
1000
0010
1010
0000
0010
1000
,  // measure 57
1010
0000
1000
0001
1001
0000
0001
1000
1001
0000
1000
0001
1001
0000
0001
1000
,  // measure 58
1001
0000
1000
0010
0110
0000
0100
0010
0110
0000
0010
0100
0110
0000
0100
0010
,  // measure 59
0110
0100
0001
0100
0010
1000
0001
0010
,  // measure 60
0100
0010
0001
0100
0010
1000
0100
0010
,  // measure 61
0100
1000
0001
0001
0100
0100
0010
0010
,  // measure 62
1000
0000
1000
0000
0010
0100
0001
1000
0010
0100
0001
0010
0100
0010
0001
0100
,  // measure 63
0010
1000
0001
0010
2002
0000
0000
0000
0000
0000
0000
0000
0000
0000
0000
0000
,  // measure 64
0000
0000
0000
0000
,  // measure 65
0000
3003
0000
0000
;
