#TITLE:Konohana Sakuya;
#SUBTITLE:;
#ARTIST:Nizikawa;
#TITLETRANSLIT:;
#SUBTITLETRANSLIT:;
#ARTISTTRANSLIT:;
#GENRE:;
#CREDIT:;
#BANNER:Konohana Sakuya.png;
#BACKGROUND:Konohana Sakuya-bg.png;
#LYRICSPATH:;
#CDTITLE:;
#MUSIC:Konohana Sakuya.ogg;
#OFFSET:-0.824000;
#SAMPLESTART:67.033897;
#SAMPLELENGTH:13.241379;
#SELECTABLE:YES;
#BPMS:0.000000=145.000000
;
#STOPS:
;
#BGCHANGES:;
#KEYSOUNDS:;
#ATTACKS:;

//---------------dance-single - ----------------
#NOTES:
     dance-single:
     :
     Hard:
     8:
     0.479122,0.582932,0.503078,0.063883,0.063883,420.000000,357.000000,63.000000,8.000000,0.000000,0.000000,0.479122,0.582932,0.503078,0.063883,0.063883,420.000000,357.000000,63.000000,8.000000,0.000000,0.000000:
0000
0000
0000
0000
,
0000
0000
0000
0000
,
0000
0000
0000
0000
,
0000
0000
0000
0000
,
1001
0010
0010
0010
,
0100
0100
0100
0100
,
0001
0100
0001
0100
0010
1000
0010
1000
,
0010
0001
0010
1000
0001
0000
0000
0000
,
1000
0100
0000
0100
0000
1000
0000
1000
,
0000
0001
0000
0001
0000
0100
0000
0100
,
0000
0010
0000
0010
0000
0100
0000
0100
,
0000
0001
1000
0001
0100
0001
1000
0001
,
0010
0000
0100
0110
0000
0000
0000
0100
,
1000
0000
0001
1001
0000
0000
0000
1000
,
0010
0000
0100
0101
0000
0000
0000
1000
,
0001
0000
1000
0000
0001
1000
0020
0000
,
1030
0100
1000
0100
,
1000
0000
0100
0010
0001
0010
0100
0010
,
0001
0100
0001
0100
,
0001
0100
0001
1000
0001
0010
0100
1000
,
0001
1000
0010
0100
,
0001
0000
0100
0010
1000
0001
0010
0001
,
1000
1000
0100
0100
,
1000
0100
0010
0100
1000
0010
0001
0010
,
1000
1000
1000
1000
,
0001
0001
0001
0001
,
0100
0100
0100
0100
,
0010
0000
0010
0000
0010
0000
0010
1000
,
0001
0100
0010
0100
0010
0100
0010
1000
,
0001
0010
0100
0010
0100
1000
0010
0100
,
0001
0000
0001
0000
0001
0000
0001
0100
,
0010
0000
0100
0010
1000
0000
0001
0000
,
1001
0001
0001
0001
,
1000
0000
1000
0000
1000
0000
1000
0100
,
0010
0010
0100
0100
,
0010
0001
0001
0001
,
1001
1001
1001
1001
,
0110
0110
0110
0110
,
0001
0100
0010
1000
0001
0100
0010
1000
,
0001
0010
0100
1000
2002
0000
0000
3003
,
0001
1000
0010
1000
,
0001
0000
0100
0010
1000
0000
0001
0000
,
0010
0000
0100
1000
0010
0000
1000
0000
,
0010
0000
0000
0000
0100
0000
0000
0000
0001
0000
0000
0000
1000
0010
1000
0010
,
1000
0100
1000
0010
,
0100
0000
0001
0100
0010
0000
1000
0000
,
0001
0000
1000
0010
0100
0000
0001
0000
,
0110
0000
1001
0000
0020
0000
0000
0030
,
1001
0000
0000
0000
1000
0000
0010
0000
0000
0000
0100
0001
0100
0000
0001
0000
,
0000
0000
0000
0000
1100
0000
0000
0000
0000
0000
0010
0001
0010
0000
0000
0000
,
0000
0000
0000
0000
0001
0000
0100
0000
0000
0000
0010
0100
0010
0000
0100
0000
,
0010
0000
0000
0000
1000
0000
0001
1000
0001
0000
0100
0000
0001
0010
0001
0010
,
0100
0000
0000
0000
1000
0000
0001
0000
0000
0000
1000
0010
1000
0000
0001
0000
,
0000
0000
0000
0000
0011
0000
0000
0000
0000
0000
0100
1000
0100
0000
0000
0000
,
0000
0000
0000
0000
1000
0000
0010
0000
0000
0000
0100
0010
0100
0000
0010
0000
,
0100
0000
0001
0010
1000
0000
0010
0000
,
1001
1001
0110
0110
,
1001
0000
0100
0001
1000
0000
0011
0000
,
1010
0000
1000
0010
0100
0000
0011
0000
,
1001
0000
0000
0000
1010
0000
0000
0000
0101
0000
0000
0000
0001
1000
0001
0100
,
0010
1010
0011
1100
,
1001
0000
1000
0010
0100
0000
1001
0000
,
0011
0000
0010
0001
0100
0000
1010
0000
,
1001
0000
0110
0000
2002
0000
0000
3003
,
1001
1001
1010
1010
,
0101
0000
0110
0010
0110
0000
0110
0000
,
0101
0000
1010
1000
1010
0000
1010
0000
,
1001
0000
0000
0000
0011
0000
0000
0000
0110
0000
0000
0000
1000
0100
1000
0001
,
1000
0011
0110
1100
,
0110
0000
0110
0010
0011
0000
1001
0000
,
1000
0010
1000
0010
0100
0001
0100
0001
,
0000
0000
1000
0000
0100
0000
1000
0000
0001
0000
0010
1000
0010
0000
0001
0000
,
2002
0000
0000
0000
,
3003
0000
0000
0000
;

//---------------dance-single - ----------------
#NOTES:
     dance-single:
     :
     Medium:
     5:
     0.338808,0.402463,0.063883,0.063883,0.000000,297.000000,289.000000,8.000000,8.000000,0.000000,0.000000,0.338808,0.402463,0.063883,0.063883,0.000000,297.000000,289.000000,8.000000,8.000000,0.000000,0.000000:
0000
0000
0000
0000
,
0000
0000
0000
0000
,
0000
0000
0000
0000
,
0000
0000
0000
0000
,
0002
0000
0000
0000
,
0000
0000
0000
0000
,
1003
0100
0010
0001
,
1000
0100
0010
0001
1000
0000
0000
0000
,
0001
0100
0001
0100
,
0010
1000
0010
1000
,
0001
0100
0001
0100
,
0001
1000
0100
1000
,
1001
0000
0001
0100
0000
0000
0000
0010
,
0100
0000
0010
1000
0000
0000
0000
0010
,
0100
0000
0100
0001
0000
0000
0000
0001
,
2000
0000
3002
0000
0103
0001
0100
0000
,
0001
0001
1000
1000
,
0001
0000
1000
0000
0010
0100
0001
1000
,
0010
0010
0100
0100
,
0001
0000
0100
0000
0010
1000
0010
0100
,
0001
0001
1000
1000
,
0100
0000
1000
0000
0100
0010
0100
1000
,
0001
0001
1000
1000
,
0000
0001
1000
0010
0100
0001
1000
0010
,
0100
0000
0001
0000
,
1000
0000
0100
0000
,
1000
0000
0010
0000
,
0100
0000
0000
0000
0001
0000
0001
1000
,
0001
0000
1000
0000
,
0100
0000
1000
0000
,
0010
0000
0010
0000
0010
0000
0010
1000
,
0010
0000
0010
0100
0010
0000
0100
0000
,
0101
0001
0001
0001
,
1000
0000
1000
0000
1000
0000
0100
1000
,
0010
0010
0100
0100
,
0001
1000
1000
1000
,
0100
0100
0100
0100
,
0010
0010
0001
0001
,
0101
1010
1100
0011
,
2002
0000
3003
0000
,
0001
1000
0010
1000
,
0001
0000
0100
0001
0100
0000
0010
0000
,
1000
0000
0100
1000
0100
0000
1000
0000
,
0010
1000
0010
0200
,
0301
0100
0010
0100
,
0001
0000
1000
0100
0010
0000
0100
0000
,
1000
0000
0001
1000
0010
0000
0100
0000
,
0001
1000
0200
0300
,
1000
0100
0001
0100
,
1000
0000
0010
0001
0010
0000
1000
0000
,
0010
0000
0001
0010
1000
0000
0100
0000
,
0001
0000
0001
0000
0100
0000
0010
0001
,
1000
1000
0001
0001
,
0100
0000
1000
0100
0001
0000
0010
0000
,
1000
0000
0010
0001
0010
0000
0100
0010
,
0100
0000
1000
0100
0010
0000
0001
0000
,
1001
1000
1000
0100
,
1000
0000
0100
1000
0010
0000
0100
0000
,
0001
0000
0001
1000
0010
0000
1000
0000
,
0001
0000
0100
0000
0010
0000
1000
0100
,
0010
0010
0100
0100
,
1000
0000
0100
1000
0010
0000
0100
0000
,
0001
0000
1000
0010
1000
0000
0001
0100
,
0001
1000
0200
0000
,
1300
0100
1000
0010
,
0001
0000
0010
0100
0001
0000
1000
0000
,
0100
0000
1000
0010
0001
0000
0001
0000
,
0010
0000
0100
0000
0010
0000
0100
0010
,
1000
1000
0001
0001
,
1000
0000
0001
0100
0001
0000
0100
0000
,
0010
1000
0010
0100
,
0000
0010
0100
0001
1000
0001
0010
0100
,
1000
0000
0000
0000
;

//---------------dance-single - ----------------
#NOTES:
     dance-single:
     :
     Easy:
     4:
     0.297740,0.488705,0.135751,0.079854,0.000000,261.000000,244.000000,17.000000,10.000000,0.000000,0.000000,0.297740,0.488705,0.135751,0.079854,0.000000,261.000000,244.000000,17.000000,10.000000,0.000000,0.000000:
0000
0000
0000
0000
,
0000
0000
0000
0000
,
0000
0000
0000
0000
,
0000
0000
0000
0000
,
0001
1000
0001
1000
,
0010
0100
0010
0100
,
0001
1000
0010
0100
,
0001
1000
0010
0000
,
1000
1000
1000
1000
,
0001
0001
0001
0001
,
1000
1000
1000
1000
,
0010
0100
0001
1000
,
0001
0000
1000
0000
,
0010
0000
0100
0000
,
0001
0000
1000
0000
,
0001
1000
0020
0000
,
0130
0100
0100
0100
,
0100
0010
1000
0001
,
0010
0010
0010
0010
,
0001
0010
0100
0010
,
0001
0001
0001
0001
,
0001
1000
0001
0010
,
0100
0100
0100
0100
,
0010
0001
1000
0010
,
0100
0000
0000
0000
,
0100
0000
0000
0000
,
0001
0000
0000
0000
,
1000
0000
0000
0010
,
1000
0000
0000
0000
,
0100
0000
0000
0000
,
0010
0010
0010
0001
,
0010
0001
1000
0100
,
1001
0001
0001
0001
,
1000
1000
1000
0100
,
1000
1000
0010
0010
,
0100
0100
0100
0100
,
1001
1001
1001
1001
,
0110
0110
0110
0110
,
0100
0010
1000
0001
,
2000
3002
2000
3003
,
0001
1000
0010
1000
,
0001
0100
0001
0010
,
0001
1000
0100
1000
,
0001
0001
0001
0200
,
0310
1000
0100
0010
,
0100
1000
0010
0100
,
0001
0010
0100
1000
,
0001
1000
0020
0030
,
0100
0100
0001
1000
,
0001
0010
0010
0001
,
1000
0100
0010
0100
,
1000
1000
1000
0020
,
0130
0100
0001
0100
,
0001
0010
0001
1000
,
0100
1000
1000
0010
,
0110
0100
0110
0010
,
1001
0001
0001
0010
,
0001
1000
0100
0100
,
1000
0010
0001
0010
,
0100
0100
0100
0020
,
1030
0010
0100
0001
,
0010
0100
0010
0001
,
1000
0010
0001
0010
,
0110
1001
0220
0330
,
1001
0001
0001
0001
,
1000
0001
0010
0001
,
1000
0100
0001
0100
,
0010
0010
0010
0100
,
1000
0100
1000
0010
,
0100
0001
0010
0001
,
1000
0100
0010
0001
,
0000
1000
0001
0100
,
1001
0000
0000
0000
;

//---------------dance-single - ----------------
#NOTES:
     dance-single:
     :
     Beginner:
     1:
     0.120921,0.258726,0.063883,0.000000,0.000000,106.000000,98.000000,8.000000,0.000000,0.000000,0.000000,0.120921,0.258726,0.063883,0.000000,0.000000,106.000000,98.000000,8.000000,0.000000,0.000000,0.000000:
// measure 0
0000
0000
0000
0000
,  // measure 1
0000
0000
0000
0000
,  // measure 2
0000
0000
0000
0000
,  // measure 3
0000
0000
0000
0000
,  // measure 4
0010
0000
0000
0000
,  // measure 5
0000
0000
0000
0000
,  // measure 6
0100
0000
0000
0000
,  // measure 7
1000
0000
0001
0000
,  // measure 8
1000
0000
0000
0000
,  // measure 9
1000
0000
0000
0000
,  // measure 10
1000
0000
0000
0000
,  // measure 11
0010
0000
0100
0000
,  // measure 12
0001
0000
0000
0000
,  // measure 13
0001
0000
0000
0000
,  // measure 14
0001
0000
0000
0000
,  // measure 15
1001
0000
0000
0000
,  // measure 16
0010
0000
0000
0000
,  // measure 17
0100
0000
0000
0000
,  // measure 18
0001
0000
0000
0000
,  // measure 19
1000
0000
0001
0000
,  // measure 20
0010
0000
0000
0000
,  // measure 21
0001
0000
0000
0000
,  // measure 22
1000
0000
0000
0000
,  // measure 23
0100
0000
0010
0000
,  // measure 24
1001
0000
0000
0000
,  // measure 25
1000
0000
0000
0000
,  // measure 26
0001
0000
0000
0000
,  // measure 27
0100
0000
0000
0000
,  // measure 28
0010
0000
0000
0000
,  // measure 29
1000
0000
0000
0000
,  // measure 30
0100
0000
0000
0000
,  // measure 31
1000
0000
0001
0000
,  // measure 32
0100
0000
0000
0000
,  // measure 33
0100
0000
0000
0000
,  // measure 34
0010
0000
0000
0000
,  // measure 35
0010
0000
0000
0000
,  // measure 36
1000
0000
1000
0000
,  // measure 37
0001
0000
0001
0000
,  // measure 38
1000
0000
0001
0000
,  // measure 39
1001
0110
1001
0000
,  // measure 40
0010
0000
0000
0000
,  // measure 41
0100
0000
0000
0000
,  // measure 42
0001
0000
0000
0000
,  // measure 43
1000
1000
1000
0000
,  // measure 44
0001
0000
0000
0000
,  // measure 45
0010
0000
0000
0000
,  // measure 46
0001
0000
0000
0000
,  // measure 47
1000
1000
1000
0000
,  // measure 48
1001
0000
0000
0000
,  // measure 49
0100
0000
0000
0000
,  // measure 50
0010
0000
0000
0000
,  // measure 51
1000
1000
1000
0000
,  // measure 52
0001
0000
0000
0000
,  // measure 53
0010
0000
0000
0000
,  // measure 54
0001
0000
0000
0000
,  // measure 55
1000
1000
0001
1000
,  // measure 56
0010
0000
0000
0000
,  // measure 57
1000
0000
0000
0000
,  // measure 58
0100
0000
0000
0000
,  // measure 59
1000
0000
1000
0000
,  // measure 60
0001
0000
0000
0000
,  // measure 61
0100
0000
0000
0000
,  // measure 62
0010
0000
0100
0000
,  // measure 63
0010
0010
0010
0000
,  // measure 64
1001
0000
0000
0000
,  // measure 65
1000
0000
0000
0000
,  // measure 66
0001
0000
0000
0000
,  // measure 67
0010
0010
0010
0100
,  // measure 68
0010
0000
0000
0000
,  // measure 69
0001
0000
0000
0000
,  // measure 70
1000
0000
0001
0000
,  // measure 71
1000
0001
0100
0010
,  // measure 72
1001
0000
0000
0000
;
