#VERSION:0.82;
#TITLE:仮想空間の旅人たち;
#SUBTITLE:;
#ARTIST:DJ MURASAME;
#TITLETRANSLIT:Kasoukuukan no tabibitotachi;
#SUBTITLETRANSLIT:;
#ARTISTTRANSLIT:;
#GENRE:;
#ORIGIN:;
#CREDIT:;
#BANNER:Kasoukuukan no tabibitotachi.png;
#BACKGROUND:Kasoukuukan no tabibitotachi-bg.png;
#PREVIEWVID:;
#JACKET:Kasoukuukan no tabibitotachi-jacket.png;
#CDIMAGE:;
#DISCIMAGE:;
#LYRICSPATH:;
#CDTITLE:;
#MUSIC:Kasoukuukan no tabibitotachi.ogg;
#OFFSET:-3.307001;
#SAMPLESTART:90.739990;
#SAMPLELENGTH:12.000000;
#SELECTABLE:YES;
#BPMS:0.000=151.000;
#STOPS:;
#DELAYS:;
#WARPS:;
#TIMESIGNATURES:0.000=4=4;
#TICKCOUNTS:0.000=4;
#COMBOS:0.000=1;
#SPEEDS:0.000=1.000=0.000=0;
#SCROLLS:0.000=1.000;
#FAKES:;
#LABELS:0.000=Song Start;
#BGCHANGES:;
#KEYSOUNDS:;
#ATTACKS:
;

//---------------dance-single - ----------------
#NOTEDATA:;
#CHARTNAME:;
#STEPSTYPE:dance-single;
#DESCRIPTION:;
#CHARTSTYLE:;
#DIFFICULTY:Hard;
#METER:9;
#RADARVALUES:0.719728,0.821429,0.580952,0.457143,0.304762,420.000000,61.000000,48.000000,0.000000,0.000000,0.000000,0.000000,0.000000,0.719728,0.821429,0.580952,0.457143,0.304762,420.000000,61.000000,48.000000,0.000000,0.000000,0.000000,0.000000,0.000000;
#CREDIT:;
#NOTES:
// measure 0
1000
0010
0100
0010
1000
0001
0010
0001
,  // measure 1
1000
0001
0010
0100
0010
0001
0100
0010
,  // measure 2
1000
0010
0100
1000
0100
0010
1000
0001
,  // measure 3
0010
0100
0010
0001
0100
0001
1000
0100
,  // measure 4
0010
0000
0000
0010
0000
0000
0001
0000
0000
0010
0001
0000
0100
0000
0010
0000
,  // measure 5
1000
0000
0000
1000
0000
0000
0010
0000
0000
0100
0001
0100
0001
0000
0001
0000
,  // measure 6
1000
0000
0000
1000
0000
0000
0100
0000
0000
0010
0100
0000
1000
0000
0001
0000
,  // measure 7
0100
0000
0000
0010
0000
0000
1000
0000
0000
0001
0100
0010
1000
0000
0001
0000
,  // measure 8
0010
0100
1100
0000
1000
0101
0000
0000
,  // measure 9
0001
1000
0010
0000
0100
0001
0010
0100
0000
0100
1000
0001
1000
0000
0100
0000
,  // measure 10
0010
0001
0101
0000
0001
1100
0000
0000
,  // measure 11
0000
1000
0001
1000
0000
0001
0100
0001
0100
0000
0010
1000
0001
0010
0100
0000
,  // measure 12
2100
3100
0000
0100
0120
0031
0000
0001
,  // measure 13
0201
0310
0000
0010
2010
3100
0000
1000
,  // measure 14
1200
0310
0000
0010
0012
0103
0010
1000
,  // measure 15
0101
0000
0101
0000
0000
1100
0000
1100
,  // measure 16
0000
0000
0000
0000
0000
1001
0000
0000
,  // measure 17
1010
0000
1010
0000
0000
0011
0000
0011
,  // measure 18
0000
0000
0000
0000
0000
0201
0000
0300
,  // measure 19
0110
0000
0110
0000
0000
1010
0000
1010
,  // measure 20
0000
0000
0000
0000
1000
0010
0100
0001
,  // measure 21
2000
0100
0010
3001
,  // measure 22
0002
0100
0010
1003
,  // measure 23
0000
0001
0100
0010
0100
0001
1000
0000
0100
1000
0100
1000
0100
0010
0001
0000
,  // measure 24
0000
1000
0100
1000
0100
1000
0000
0100
0010
0001
1000
0001
1000
0010
0100
0001
,  // measure 25
1000
0000
0001
0000
0100
0020
0000
0000
1000
0000
0000
0100
0000
0000
1030
0000
,  // measure 26
0010
0000
0100
0000
0001
0020
0000
0000
1000
0000
0000
0001
0000
0000
0130
0000
,  // measure 27
0010
0000
0001
0000
1000
0200
0000
0000
1000
0000
0000
0010
0000
0000
0001
0000
,  // measure 28
0301
0000
0010
0000
0100
0000
1000
0000
0001
0100
0010
1000
1001
0000
0000
0000
,  // measure 29
0210
1000
0010
0001
,  // measure 30
0010
1000
0010
0001
,  // measure 31
0320
1000
0100
0001
,  // measure 32
0100
1000
0100
0001
,  // measure 33
0100
1000
0100
0001
,  // measure 34
0230
1000
0010
0001
,  // measure 35
0010
1000
0010
0001
,  // measure 36
0310
0000
0100
0001
0100
0001
0000
1000
0000
0010
0000
0100
0001
0010
0100
1000
,  // measure 37
0001
0000
0000
0100
0000
0000
1010
0000
0000
0000
0101
0000
0000
0000
0000
0000
,  // measure 38
0001
0000
0000
0010
0000
0000
1100
0000
0000
0000
1001
0000
0000
0000
0000
0000
,  // measure 39
0001
0000
0000
0100
0000
0000
1010
0000
0000
0000
0101
0000
0000
0000
0000
0000
,  // measure 40
0001
0000
0000
1000
0000
0000
1100
0000
0000
0000
1001
0000
0000
0000
0000
0000
,  // measure 41
1100
0000
0000
0110
0000
0000
0021
0000
0000
0000
0130
0000
0000
0000
0000
0000
,  // measure 42
1100
0000
0000
0110
0000
0000
0021
0000
0000
0000
0130
0000
0000
0000
0000
0000
,  // measure 43
0110
0000
0000
0011
0000
0000
2100
0000
0000
0000
3001
0000
0000
0000
0000
0000
,  // measure 44
0101
0000
0000
1010
0000
0000
1001
0000
0001
1000
0001
1000
0001
1000
0001
1000
,  // measure 45
0001
0100
0010
1000
0001
0010
0100
0020
,  // measure 46
0000
0032
0000
2003
0000
3001
0000
0000
,  // measure 47
0100
0010
1000
0001
0010
0100
1000
0020
,  // measure 48
0000
0230
0000
0302
0000
0013
0000
0000
,  // measure 49
0100
0010
0001
1000
0010
0100
0001
2000
,  // measure 50
0000
3200
0000
2300
0000
3010
0100
0000
,  // measure 51
0001
0000
1000
0000
0010
0100
0001
0020
,  // measure 52
0000
0230
0000
0302
0000
1003
0000
0000
,  // measure 53
0001
0100
1000
0000
1000
0100
0001
0000
,  // measure 54
0001
0010
1000
0010
0100
0010
0001
1000
,  // measure 55
1001
0000
0101
0000
0001
0200
0000
1000
,  // measure 56
0000
0000
0000
0300
0000
1000
0100
0001
,  // measure 57
0020
0000
0100
0000
0031
0200
0000
1000
,  // measure 58
0000
0310
0000
0100
0001
0000
1000
0000
,  // measure 59
1001
0000
1100
0000
0100
0020
0000
0001
,  // measure 60
0000
0000
0000
0000
0030
0100
1000
0010
,  // measure 61
0002
0000
0010
0000
0013
0200
0000
0010
,  // measure 62
0000
1000
0000
0010
0000
0301
0100
0000
,  // measure 63
1001
0000
1010
0000
1000
0020
0000
0001
,  // measure 64
0000
0000
0000
0030
0000
0001
0010
1000
,  // measure 65
0200
0000
0010
0000
1300
0020
0000
0001
,  // measure 66
0000
0130
0000
0100
0010
0000
1000
0000
,  // measure 67
0101
0000
1001
0000
0001
0200
0000
1000
,  // measure 68
0000
0000
0000
0000
0300
0010
0001
0100
,  // measure 69
0020
0000
1030
0000
1000
0002
0000
0003
,  // measure 70
1020
0000
2030
0000
,  // measure 71
3002
0000
0000
0023
,  // measure 72
0031
1000
1001
0001
0000
0001
1001
1000
,  // measure 73
0000
1000
1001
0001
0000
1001
0000
1001
,  // measure 74
0000
0000
0001
0100
0001
0000
0100
0000
0000
0000
0010
1000
2002
0000
0000
0000
,  // measure 75
3003
0000
0000
0000
;

//---------------dance-single - ----------------
#NOTEDATA:;
#CHARTNAME:;
#STEPSTYPE:dance-single;
#DESCRIPTION:;
#CHARTSTYLE:;
#DIFFICULTY:Medium;
#METER:7;
#RADARVALUES:0.487075,0.500000,0.361905,0.085714,0.095238,311.000000,38.000000,9.000000,0.000000,0.000000,0.000000,0.000000,0.000000,0.487075,0.500000,0.361905,0.085714,0.095238,311.000000,38.000000,9.000000,0.000000,0.000000,0.000000,0.000000,0.000000;
#CREDIT:;
#NOTES:
// measure 0
0001
0000
1000
0000
0100
1000
0100
0000
,  // measure 1
1000
0000
0010
0000
0100
0001
0100
0010
,  // measure 2
1000
0000
0010
0000
0100
0001
0010
0000
,  // measure 3
0100
0000
1000
0000
0100
1000
0010
0100
,  // measure 4
0001
0000
0000
1000
0000
0000
0001
0000
0000
1000
0000
0000
0010
0000
0100
0000
,  // measure 5
0001
0000
0000
0100
0000
0000
0010
0000
0000
1000
0000
0000
0010
0000
0100
0000
,  // measure 6
0001
0000
0000
0001
0000
0000
1000
0000
0000
1000
0000
0000
0100
0000
1000
0000
,  // measure 7
0010
0000
0000
0100
0000
0000
0010
0000
0000
0000
0100
0000
0001
0000
1000
0000
,  // measure 8
0100
0000
0000
0010
0000
0000
0100
0000
0000
1000
0000
0000
0010
0000
0100
0000
,  // measure 9
0001
0000
0000
1000
0000
0000
0010
0000
0000
0000
0100
0000
0010
0000
0100
0000
,  // measure 10
0001
0000
0000
0001
0000
0000
1000
0000
0000
1000
0000
0000
0100
0000
1000
0000
,  // measure 11
0010
0000
0000
0100
0000
0000
0001
0000
0000
0000
1000
0000
0100
0000
0010
0000
,  // measure 12
0001
0100
0000
0000
0010
1000
0000
0000
,  // measure 13
1000
0001
0000
0000
0001
0010
0000
0000
,  // measure 14
0010
0100
0000
0000
0010
0001
0000
1000
,  // measure 15
0001
0000
1001
0000
0000
1000
0000
1010
,  // measure 16
0000
0000
0000
0000
0000
0010
0000
0000
,  // measure 17
0110
0000
0110
0000
0000
1001
0000
1001
,  // measure 18
0000
0000
0000
0000
0000
0101
0000
0000
,  // measure 19
0011
0000
0011
0000
0000
0110
0000
0110
,  // measure 20
0000
0000
0000
0000
0010
0100
1000
0010
,  // measure 21
0100
0010
0000
0010
,  // measure 22
0000
0010
0000
0010
,  // measure 23
0000
0100
0010
1000
0001
0010
0100
1000
,  // measure 24
0000
0100
1000
0010
0100
0001
1000
0001
,  // measure 25
0100
0000
0001
0000
0010
0000
0000
0000
0100
0000
0000
0010
0000
0000
0001
0000
,  // measure 26
1000
0000
0010
0000
0100
0000
0000
0000
0010
0000
0000
1000
0000
0000
0001
0000
,  // measure 27
1000
0000
0100
0000
0010
0000
0000
0000
0100
0000
0000
1000
0000
0000
0010
0000
,  // measure 28
0100
0010
1000
0000
0010
0100
1001
0000
,  // measure 29
2000
0000
0000
0000
,  // measure 30
0000
0000
0000
3000
,  // measure 31
0002
0000
0000
0000
,  // measure 32
0000
0000
0000
0000
,  // measure 33
0000
0000
0000
0003
,  // measure 34
0020
0000
0000
0000
,  // measure 35
0000
0000
0000
0030
,  // measure 36
0000
0001
0010
0100
1000
0001
0010
0100
,  // measure 37
1000
0000
0010
0100
0000
0001
0000
0000
,  // measure 38
1000
0000
0010
0100
0000
0001
0000
0000
,  // measure 39
1000
0000
0100
1000
0000
0010
0000
0000
,  // measure 40
0100
0000
0010
1000
0000
0001
0000
0000
,  // measure 41
1000
0000
0000
0100
0000
0000
0010
0000
0000
0000
0001
0000
0000
0000
0000
0000
,  // measure 42
0001
0000
0000
0010
0000
0000
0100
0000
0000
0000
1000
0000
0000
0000
0000
0000
,  // measure 43
1000
0000
0000
0100
0000
0000
1000
0000
0000
0000
0010
0000
0000
0000
0000
0000
,  // measure 44
0100
0000
0000
0010
0000
0000
1000
0000
0001
0000
0100
0000
0001
0000
0100
0000
,  // measure 45
0001
0000
1000
0000
0100
1000
0000
0010
,  // measure 46
0000
0001
0000
0010
0000
0100
0001
0000
,  // measure 47
1000
0000
1001
0000
0001
1000
0000
0010
,  // measure 48
0000
0100
0000
0001
0000
0010
0000
0000
,  // measure 49
0100
0000
0010
0000
0001
1000
0000
0100
,  // measure 50
0000
1000
0000
0010
0000
0100
0001
0000
,  // measure 51
1000
0000
0010
0000
1000
0000
0001
0010
,  // measure 52
0000
0100
0000
0010
0000
0001
0000
0000
,  // measure 53
1000
0001
0100
0001
,  // measure 54
1000
0000
0010
0000
0100
0010
1000
0001
,  // measure 55
1001
0000
0101
0000
0001
0100
0000
1010
,  // measure 56
0000
0000
0000
0000
0000
1000
0010
0100
,  // measure 57
0001
0000
1001
0000
1000
1100
0000
0101
,  // measure 58
0000
1100
0000
0000
0000
0000
0000
0000
,  // measure 59
1000
0000
1010
0000
0010
0100
0000
0101
,  // measure 60
0000
0000
0000
0000
0000
0100
0010
1000
,  // measure 61
1001
0000
0101
0000
0001
0010
0000
0110
,  // measure 62
0000
1001
0000
0110
0000
0000
0000
0000
,  // measure 63
1001
0000
0101
0000
0001
0100
0000
0110
,  // measure 64
0000
0000
0000
0000
0000
0100
0001
0010
,  // measure 65
0100
0000
1100
0000
0100
1000
0000
1010
,  // measure 66
0000
0101
0000
0000
0000
0000
0000
0000
,  // measure 67
1001
0000
1010
0000
1000
1100
0000
0101
,  // measure 68
0000
0000
0000
0000
0000
0001
0010
0100
,  // measure 69
1000
0000
0100
0000
1000
0010
0000
0000
,  // measure 70
0200
0300
0020
0030
,  // measure 71
2000
3000
0000
0002
,  // measure 72
0103
0010
1000
0100
0000
0001
0100
1000
,  // measure 73
0000
1000
0100
0001
0000
0001
0100
1000
,  // measure 74
0000
1000
0100
0001
0100
0010
2002
0000
,  // measure 75
3003
0000
0000
0000
;

//---------------dance-single - ----------------
#NOTEDATA:;
#CHARTNAME:;
#STEPSTYPE:dance-single;
#DESCRIPTION:;
#CHARTSTYLE:;
#DIFFICULTY:Easy;
#METER:5;
#RADARVALUES:0.340136,0.464286,0.076190,0.133333,0.000000,228.000000,8.000000,14.000000,0.000000,0.000000,0.000000,0.000000,0.000000,0.340136,0.464286,0.076190,0.133333,0.000000,228.000000,8.000000,14.000000,0.000000,0.000000,0.000000,0.000000,0.000000;
#CREDIT:;
#NOTES:
0001
1000
0010
0010
,
1000
0001
0010
0010
,
0001
1000
0100
0100
,
1000
0001
0100
0100
,
0010
0000
1000
0000
,
0010
0000
0100
0000
,
0001
0000
1000
0000
,
0100
0000
1000
0000
,
0010
1000
1000
0000
,
0010
0100
0100
0100
,
0001
0010
0010
0000
,
0100
0010
0001
1000
,
0001
0000
1000
0000
,
0010
0000
1000
0000
,
0100
0000
1000
0000
,
0001
0000
1000
0000
0000
0001
0000
1000
,
0000
0000
0000
0000
0000
0010
0000
0000
,
0100
0000
0001
0000
0000
0010
0000
0100
,
0000
0000
0000
0000
0000
0020
0000
0000
,
0130
0000
0100
0000
0000
1000
0000
1000
,
0000
0000
0000
0000
0001
0010
0100
2000
,
0002
0000
0000
0000
,
3003
0000
0000
0000
,
0001
1000
1010
0101
,
0001
0010
0110
1001
,
0001
1000
0020
0030
,
1000
0001
0020
0030
,
0001
1000
0200
0300
,
1000
0100
0010
0001
,
1002
0000
0000
0000
,
0000
0000
0000
0000
,
0203
0000
0000
0000
,
0000
0000
0000
0000
,
0000
0000
0000
0000
,
0302
0000
0000
0000
,
0000
0000
0000
0000
,
1003
0100
0010
0001
,
1000
0000
0000
0010
0000
0100
0000
0000
,
0010
0000
0000
1000
0000
0001
0000
0000
,
0010
0000
0000
0100
0000
1000
0000
0000
,
0100
0000
0000
1000
0000
0010
0000
0000
,
0100
0000
0000
0010
0000
1000
0000
0000
,
0010
0000
0000
0100
0000
0001
0000
0000
,
0010
0000
0000
0100
0000
1000
0000
0000
,
0100
0000
0000
1000
0000
0001
0000
0000
,
1000
0000
0001
0000
0100
0001
0000
1000
,
0000
0100
0000
0010
0000
0001
0000
0000
,
0000
0000
0010
0000
0100
1000
0000
0001
,
0000
1000
0000
0010
0000
1000
0000
0000
,
0000
0000
0010
0000
0100
0010
0000
1000
,
0000
0001
0000
1000
0000
0100
0000
0000
,
0000
0000
0000
0000
1000
0000
0010
0100
,
0000
0001
0000
1000
0000
0100
0000
0000
,
0000
1001
0000
0110
,
0010
0100
0001
1000
,
0001
0000
1000
0000
0001
1000
0000
0001
,
0000
0000
0000
0000
0000
1000
0100
0010
,
0001
0000
0010
0000
0100
1000
0000
0100
,
0000
0010
0000
0000
0000
0000
0000
0000
,
0100
0000
0010
0000
0010
0001
0000
1000
,
0000
0000
0000
0000
0000
0001
0010
0100
,
1000
0000
0100
0000
1000
0010
0000
0100
,
0000
0001
0000
1000
0000
0100
0000
0000
,
0100
0000
1000
0000
0010
0100
0000
0001
,
0000
0000
0000
0000
0000
0010
0100
1000
,
0100
0000
1000
0000
0010
0100
0000
0001
,
0000
1000
0000
0000
0000
0000
0000
0000
,
0001
0000
1000
0000
0100
1000
0000
0010
,
0000
0000
0000
0000
0000
0100
0010
1000
,
0001
0000
0010
0000
0100
1000
0000
0000
,
0020
0000
0230
0000
,
0302
0000
0000
1000
,
1003
0001
1000
0001
0000
1000
0001
1000
,
0000
0001
1000
0001
0000
1000
0001
1000
,
0000
0001
1000
0001
1000
0001
2002
0000
,
3003
0000
0000
0000
;

//---------------dance-single - ----------------
#NOTEDATA:;
#CHARTNAME:;
#STEPSTYPE:dance-single;
#DESCRIPTION:;
#CHARTSTYLE:;
#DIFFICULTY:Beginner;
#METER:2;
#RADARVALUES:0.178231,0.213571,0.038095,0.000000,0.000000,127.000000,4.000000,0.000000,0.000000,0.000000,0.000000,0.000000,0.000000,0.178231,0.213571,0.038095,0.000000,0.000000,127.000000,4.000000,0.000000,0.000000,0.000000,0.000000,0.000000,0.000000;
#CREDIT:;
#NOTES:
1000
0000
0000
0000
,
1000
0000
0000
0000
,
0001
0000
0000
0000
,
0001
0000
0000
0000
,
0100
0000
0010
0000
,
0100
0000
0000
0000
,
0001
0000
1000
0000
,
0001
0000
0000
0000
,
1000
1000
1000
0000
,
0000
0001
0001
0000
,
0000
0100
0100
0000
,
0010
0000
0100
0000
,
0001
0000
1000
0000
,
0001
0000
0100
0000
,
0001
0000
0010
0000
,
0100
0100
0000
0000
,
0000
0000
0000
1000
,
0001
0001
0000
0001
,
0000
0000
0000
1000
,
0010
0010
0000
0010
,
0000
0000
0100
0010
,
1000
0000
0000
0000
,
0001
0000
0000
0000
,
1000
0000
0000
0000
,
0100
0000
0000
0000
,
1000
0000
0001
0000
,
1000
0000
0010
0000
,
1000
0000
0100
0000
,
1000
0000
0001
1001
,
0001
0000
0000
0000
,
0000
0000
0000
0000
,
0100
0000
0000
0000
,
0000
0000
0000
0000
,
0000
0000
0000
0000
,
0010
0000
0000
0000
,
0000
0000
0000
0000
,
1000
0000
0000
0000
,
0001
0000
0000
0000
,
0001
0000
0000
0000
,
0100
0000
0000
0000
,
0100
0000
0000
0000
,
0010
0000
0000
0000
,
0010
0000
0000
0000
,
1000
0000
0000
0000
,
1000
0000
0001
1000
,
1001
0000
0001
0000
,
0100
0100
0100
0000
,
0001
0000
1000
0000
,
0010
0010
0010
0000
,
1000
0000
0010
0000
,
0100
0000
0001
0001
,
1000
0000
0001
0000
,
0100
0000
0000
0000
,
0001
0000
1000
0000
,
0010
0000
0000
0110
,
0100
0000
0010
0000
,
1000
0000
0000
0001
,
0001
0000
1000
0000
,
0100
0000
0000
0000
,
1000
0000
0010
0000
,
0100
0000
0000
0001
,
0001
0000
1000
0000
,
0100
0100
0100
0000
,
1000
0000
0001
0000
,
0100
0000
0000
0001
,
0001
0000
1000
0000
,
0010
0000
0000
0000
,
1000
0000
0001
0000
,
0100
0000
0000
0010
,
0010
0000
0100
0000
,
0001
0000
1000
0000
,
0100
0000
0000
0010
,
0001
0000
0001
0000
,
0001
0000
1000
0000
,
0001
1000
0010
0110
;
