#VERSION:0.83;
#TITLE:怪盗BisCoの予告状!!;
#SUBTITLE:;
#ARTIST:Qrispy Joybox;
#TITLETRANSLIT:Kaitou BisCo no yokokujou!!;
#SUBTITLETRANSLIT:;
#ARTISTTRANSLIT:;
#GENRE:;
#ORIGIN:;
#CREDIT:;
#BANNER:Kaitou BisCo no yokokujou!!.png;
#BACKGROUND:Kaitou BisCo no yokokujou!!-bg.png;
#PREVIEWVID:;
#JACKET:Kaitou BisCo no yokokujou!!-jacket.png;
#CDIMAGE:;
#DISCIMAGE:;
#LYRICSPATH:;
#CDTITLE:;
#MUSIC:Kaitou BisCo no yokokujou!!.ogg;
#OFFSET:1.300999;
#SAMPLESTART:64.673004;
#SAMPLELENGTH:12.000000;
#SELECTABLE:YES;
#BPMS:0.000=160.000,
32.000=80.000,
33.000=160.000,
126.000=80.000,
127.000=160.000,
260.000=80.000,
261.000=160.000;
#STOPS:33.000=0.375,
58.000=0.375,
59.000=0.375,
88.000=0.375,
89.000=0.375,
127.000=0.375,
261.000=0.188;
#DELAYS:;
#WARPS:;
#TIMESIGNATURES:0.000=4=4;
#TICKCOUNTS:0.000=4;
#COMBOS:0.000=1;
#SPEEDS:0.000=1.000=0.000=0;
#SCROLLS:0.000=1.000;
#FAKES:;
#LABELS:0.000=Song Start;
#BGCHANGES:;
#KEYSOUNDS:;
#ATTACKS:
;

//---------------dance-single - ----------------
#NOTEDATA:;
#CHARTNAME:;
#STEPSTYPE:dance-single;
#DESCRIPTION:;
#CHARTSTYLE:;
#DIFFICULTY:Hard;
#METER:8;
#RADARVALUES:0.539488,0.669389,0.379588,0.243326,0.223860,388.000000,349.000000,39.000000,25.000000,0.000000,0.000000,6.000000,0.000000,0.000000,0.539488,0.669389,0.379588,0.243326,0.223860,388.000000,349.000000,39.000000,25.000000,0.000000,0.000000,6.000000,0.000000,0.000000;
#CREDIT:;
#NOTES:
0000
0000
0000
0000
,
0000
0000
0000
0000
,
0000
0000
0000
0000
,
0000
0000
0000
0000
,
0000
0000
0000
0000
0000
0000
0001
0001
,
0100
0000
0010
0000
0000
0000
0000
0000
1000
0000
0000
1000
0000
0000
1000
0000
,
0001
0000
0010
0000
0000
0000
0000
0000
0001
0000
0000
0001
0000
0000
0001
0000
,
0100
0000
0010
0000
0000
0000
0000
0000
0100
0000
0000
0100
0000
0000
0100
0000
,
4004
0000
0000
0000
3003
0000
0000
0000
0100
0000
0001
0000
1000
0100
0000
1000
,
0000
0000
0001
0000
1000
0000
0100
0000
1000
0000
0001
0000
0010
0100
0000
0010
,
0000
0000
0011
0000
0011
0000
0011
0000
0000
0000
0001
0000
1000
0010
0000
0100
,
0000
0000
0010
0000
1000
0000
0100
0000
1000
0000
0001
0000
1000
0100
0000
0100
,
0020
0000
0000
0000
0032
0000
0000
0000
0103
0000
0010
0000
1000
0010
0000
0100
,
0000
0000
0001
0000
0010
0000
0001
0000
1000
0000
0010
0000
1000
0100
0000
1000
,
0000
1001
1001
1001
0011
0000
1010
0000
,
0011
0000
1010
0000
0011
0001
1000
0001
,
0000
0000
0100
0000
0010
1000
0000
0100
0000
0000
1000
0000
0001
0000
0010
0000
,
0001
0000
0100
0000
0010
1000
0000
0100
0000
0000
0110
0000
0110
0000
0110
0000
,
0000
0000
0010
0000
0100
1000
0000
0001
0000
0000
0100
0000
0001
0000
0010
0000
,
0100
0000
0010
0000
0001
1000
0000
0010
0200
0000
0000
0000
0302
0000
0000
0000
,
0013
0000
0001
0000
0100
0010
0000
0100
0000
0000
0010
0000
1000
0000
0001
0000
,
0100
0000
0001
0000
0010
0001
0000
1000
0000
0000
1100
0000
1100
0000
1100
0000
,
1010
0000
0011
0000
1000
0001
1000
0001
,
1000
0001
1000
0001
0200
0000
0001
0000
,
0010
0000
0301
0011
0011
0000
0001
0000
,
1000
0010
2100
0010
,
0100
0000
3010
1010
1010
0000
1000
0000
,
0001
0000
0010
0001
0102
0000
0010
0000
,
0100
0000
0013
0011
0011
0000
0001
0000
,
2000
3010
1100
0101
,
0011
0000
1010
0000
0001
1000
0010
0100
,
0001
1000
0010
0100
4004
0000
3003
0000
,
0001
0010
0001
0001
,
1000
0100
2000
0000
,
3001
1000
0010
0010
,
1000
0001
0200
0000
,
0301
0010
0001
0001
,
1000
0100
2000
0000
,
3001
0100
0010
0010
,
1001
0110
1001
0110
,
0001
0000
0001
0000
0000
0000
0000
0000
1000
0000
0000
1000
0000
0000
1000
0000
,
0100
0000
0000
0000
0000
0000
0000
0000
0020
0030
0000
0000
0002
0003
0000
0000
,
1000
0000
0001
0000
0001
0000
0010
0000
0001
0000
0000
0001
0000
0000
0100
0000
,
0010
0000
1000
0000
0010
1000
0000
0200
0000
0000
0010
0000
0010
0000
0010
0000
,
0310
0000
0100
0000
1000
0000
0001
0000
0100
0000
0000
0001
0000
0000
0010
0000
,
0001
0000
1000
0000
0010
1000
0000
0100
0020
0000
0000
0000
0032
0000
0000
0000
,
1003
0000
0010
0000
0010
0000
1000
0000
0010
0000
0000
0010
0000
0000
0100
0000
,
0001
0000
0010
0000
0001
1000
0000
0200
0000
0000
0010
0000
0010
0000
0010
0000
,
0310
0000
0000
0000
0000
0000
0000
0000
0001
0000
0000
0001
0000
0000
0001
0000
,
1000
0010
1000
0010
1000
0010
0100
0001
,
0100
0000
0010
0000
0010
0000
1000
0000
0010
0000
0000
0010
0000
0000
1000
0000
,
0100
0000
0010
0000
0001
0100
0000
0002
0000
0000
1000
0000
1000
0000
1000
0000
,
1003
0000
0001
0000
0100
0000
0010
0000
1000
0000
0000
0010
0000
0000
1000
0000
,
0100
0000
0010
0000
0001
0100
0000
0001
2000
0000
0000
0000
3020
0000
0000
0000
,
0130
0000
0001
0000
0001
0000
0100
0000
0010
0000
0000
1000
0000
0000
0001
0000
,
0010
0100
0010
0100
0010
0001
1000
0100
,
0010
0001
1000
0010
1000
0000
1000
0001
,
0010
0001
0010
0001
0010
0100
1000
0100
,
0020
0000
0000
0000
,
0000
0000
0000
0000
,
0031
0000
0001
0000
0000
0000
0000
0000
0100
0000
0000
0100
0000
0000
0100
0000
,
0010
0000
0010
0000
0000
0000
0000
0000
2000
3000
0000
0000
0002
0003
1000
0000
,
0001
0000
0000
0000
0100
0010
1000
0001
,
1000
0000
0000
0000
0100
0010
1000
0001
,
1000
0000
1000
0001
1000
0000
1000
0001
,
4004
0000
3003
0220
0330
0000
0000
0000
;

//---------------dance-single - ----------------
#NOTEDATA:;
#CHARTNAME:;
#STEPSTYPE:dance-single;
#DESCRIPTION:;
#CHARTSTYLE:;
#DIFFICULTY:Medium;
#METER:6;
#RADARVALUES:0.347608,0.572667,0.321190,0.155728,0.000000,250.000000,217.000000,33.000000,16.000000,0.000000,0.000000,0.000000,0.000000,0.000000,0.347608,0.572667,0.321190,0.155728,0.000000,250.000000,217.000000,33.000000,16.000000,0.000000,0.000000,0.000000,0.000000,0.000000;
#CREDIT:;
#NOTES:
0000
0000
0000
0000
,
0000
0000
0000
0000
,
0000
0000
0000
0000
,
0000
0000
0000
0000
,
0000
0000
0000
0000
,
1001
0000
0001
0010
,
1001
0000
1000
0010
,
1001
0000
0001
0010
,
2002
3003
0001
0100
,
0010
1000
0010
0100
,
0001
1000
1000
1000
0001
0000
1000
0000
,
0010
1000
0100
0010
,
0011
1100
0100
1000
,
0010
0100
0001
0010
,
0100
0010
0010
0010
0100
0000
0010
0000
,
0100
0000
0010
0000
0100
0010
0100
0010
,
0100
0010
0001
0010
,
0100
0000
1000
0000
0001
0100
0100
0100
,
0001
0100
0010
1000
,
0010
0100
1001
0110
,
0001
1000
0010
1000
,
0001
0000
0010
0000
0100
1000
1000
1000
,
1100
0000
0011
0000
0010
1000
0010
1000
,
0010
1000
0010
1000
0002
0000
0000
0000
,
0000
0000
0000
1003
1001
0000
0000
0000
,
0000
0000
2000
0000
,
0000
0000
0000
3001
1001
0000
0000
0000
,
0000
0000
0020
0000
,
0000
0000
0000
0130
0110
0000
0000
0000
,
0000
0000
0110
0110
,
1001
1001
0101
1010
,
1100
0011
2002
3003
,
0002
0000
0000
0000
,
0203
0000
0000
0000
,
0320
0000
0000
0000
,
2030
0000
0000
0000
,
3200
0000
0000
0000
,
2300
0000
0000
0000
,
3002
0000
0000
0000
,
1003
0011
1000
0101
,
1001
0000
0010
0000
,
0110
0000
0010
0100
,
1001
0001
0010
0001
,
1000
0000
0100
0000
1000
0010
1000
0010
,
1000
0010
0100
0001
,
0010
0010
0110
0011
,
0101
0001
1000
0010
,
1000
0000
0001
0000
0100
0010
1000
0010
,
1000
0000
0001
0000
,
0100
0000
0100
0000
0010
0100
0001
1000
,
0001
0010
0001
1000
,
0100
0000
0100
0000
1000
0001
1000
0001
,
1000
0001
0100
0010
,
1000
0010
0110
1001
,
0001
0010
0001
1000
,
0100
1000
0010
0100
,
0001
0100
0010
1000
,
0001
1000
0001
1000
0001
0010
0100
1000
,
0200
0000
0000
0000
,
0000
0000
0000
0300
,
1000
1000
0000
0000
0001
0000
0000
0000
,
0100
0100
0000
0000
0010
0000
0100
0010
,
0100
0000
0000
0000
0010
0000
0100
0010
,
0100
0000
0000
0000
0010
0000
0100
0010
,
0100
0000
0010
0100
0010
0000
0100
0010
,
2000
0000
3000
1001
0000
0000
0000
0000
;

//---------------dance-single - ----------------
#NOTEDATA:;
#CHARTNAME:;
#STEPSTYPE:dance-single;
#DESCRIPTION:;
#CHARTSTYLE:;
#DIFFICULTY:Easy;
#METER:4;
#RADARVALUES:0.229421,0.445407,0.097330,0.126529,0.000000,165.000000,155.000000,10.000000,13.000000,0.000000,0.000000,0.000000,0.000000,0.000000,0.229421,0.445407,0.097330,0.126529,0.000000,165.000000,155.000000,10.000000,13.000000,0.000000,0.000000,0.000000,0.000000,0.000000;
#CREDIT:;
#NOTES:
0000
0000
0000
0000
,
0000
0000
0000
0000
,
0000
0000
0000
0000
,
0000
0000
0000
0000
,
0000
0000
0000
0000
,
1000
0000
0001
0000
,
1000
0000
0100
0000
,
1000
0000
0010
0000
,
0110
0000
0000
1000
,
0000
0001
0000
1000
,
0000
0001
0100
0001
0000
0000
0100
0000
,
0000
0010
0000
1000
,
1001
0110
0010
0100
,
0000
0010
0000
1000
,
0000
0001
0100
0001
0010
0000
0100
0000
,
1000
1000
0100
0100
,
0000
1000
0000
0001
,
0000
0000
0100
0000
0000
0010
0100
0010
,
0000
0100
0000
0010
,
0000
1000
1001
0110
,
0000
0100
0000
0010
,
0000
0000
1000
0000
0000
0001
0100
0001
,
0010
0100
0010
0010
,
0010
0010
0200
0000
,
0000
0000
0000
1000
1300
0000
0000
0000
,
0000
0000
2000
0000
,
0000
0000
0000
0001
3001
0000
0000
0000
,
0000
0000
0002
0000
,
0000
0000
0000
0100
0103
0000
0000
0000
,
0000
0000
0010
0010
,
0100
0100
0110
1001
,
0110
1001
0220
0330
,
0100
0000
0000
0000
,
0010
0000
0000
0000
,
1000
0000
0000
0000
,
0001
0000
0000
0000
,
0010
0000
0000
0000
,
0001
0000
0000
0000
,
1000
0000
0000
0000
,
0100
0100
0010
0010
,
0000
0000
0000
0000
,
0000
0000
0010
0001
,
1000
0001
0100
0010
,
1000
1000
2000
0000
,
3000
0001
1000
0010
,
1000
0100
2000
0000
,
3000
0100
1000
0010
,
0100
0001
0020
0000
,
0130
0010
0001
1000
,
0001
0001
1000
1000
,
0000
0001
0100
0010
,
1000
1000
0020
0000
,
0130
0001
0010
0100
,
0010
0010
0200
0000
,
1300
0100
1000
0010
,
0100
0100
0001
0001
,
1000
0100
0010
0001
,
1000
1000
1000
1000
,
0002
0000
0000
0000
,
0000
0000
0000
0000
,
0003
0000
0000
0000
,
0000
0000
0000
1000
,
0001
0000
0000
0000
0100
0000
0001
1000
,
0000
0000
0000
0000
0100
0000
0001
1000
,
0000
0000
0001
1000
0000
0000
0001
2000
,
0002
0000
0000
3003
0000
0000
0000
0000
;

//---------------dance-single - ----------------
#NOTEDATA:;
#CHARTNAME:;
#STEPSTYPE:dance-single;
#DESCRIPTION:;
#CHARTSTYLE:;
#DIFFICULTY:Beginner;
#METER:2;
#RADARVALUES:0.112625,0.253059,0.058398,0.000000,0.000000,81.000000,75.000000,6.000000,0.000000,0.000000,0.000000,0.000000,0.000000,0.000000,0.112625,0.253059,0.058398,0.000000,0.000000,81.000000,75.000000,6.000000,0.000000,0.000000,0.000000,0.000000,0.000000,0.000000;
#CREDIT:;
#NOTES:
// measure 0
0000
0000
0000
0000
,  // measure 1
0000
0000
0000
0000
,  // measure 2
0000
0000
0000
0000
,  // measure 3
0000
0000
0000
0000
,  // measure 4
0000
0000
0000
0000
,  // measure 5
0000
0000
0000
0000
,  // measure 6
0000
0000
0000
0000
,  // measure 7
0000
0000
0000
0000
,  // measure 8
1001
0000
1000
0000
,  // measure 9
0000
0000
0000
0000
,  // measure 10
0000
0001
0000
0000
,  // measure 11
0000
0000
0000
0000
,  // measure 12
0100
0100
0000
0000
,  // measure 13
0000
0000
0000
0000
,  // measure 14
0000
0010
1000
0001
,  // measure 15
1000
0000
0000
0000
,  // measure 16
0001
0000
0000
0000
,  // measure 17
0000
0000
0000
0100
,  // measure 18
0000
0000
0000
0000
,  // measure 19
0000
0000
0010
0010
,  // measure 20
1000
0000
0000
0000
,  // measure 21
0001
0000
0000
0000
,  // measure 22
1000
0001
0100
0100
,  // measure 23
0100
0100
1001
0000
,  // measure 24
0000
0000
0001
0000
,  // measure 25
0000
0000
1001
0000
,  // measure 26
0000
0000
1000
0000
,  // measure 27
0000
0000
0110
0000
,  // measure 28
0000
0000
0010
0000
,  // measure 29
0000
0000
0100
0000
,  // measure 30
0010
0000
1000
1000
,  // measure 31
0001
0001
0000
0000
,  // measure 32
0100
0000
0000
0000
,  // measure 33
0010
0000
0000
0000
,  // measure 34
1000
0000
0000
0000
,  // measure 35
0001
0000
0000
0000
,  // measure 36
0010
0000
0000
0000
,  // measure 37
0001
0000
0000
0000
,  // measure 38
1000
0000
0000
0000
,  // measure 39
0100
0100
1000
1000
,  // measure 40
0000
0000
0000
0000
,  // measure 41
0000
0000
0000
0000
,  // measure 42
1001
0000
0000
0000
,  // measure 43
0001
0000
1000
0000
,  // measure 44
0100
0000
0000
0000
,  // measure 45
0100
0000
1000
0000
,  // measure 46
0010
0000
0000
0000
,  // measure 47
0100
0000
0000
0000
,  // measure 48
0001
0000
0000
0000
,  // measure 49
1000
0000
1000
0000
,  // measure 50
0001
0000
0000
0000
,  // measure 51
0010
0000
0001
0000
,  // measure 52
1000
0000
0000
0000
,  // measure 53
0100
0000
1000
0000
,  // measure 54
0010
0000
0000
0000
,  // measure 55
0100
0000
0100
0000
,  // measure 56
0010
0000
1000
0000
,  // measure 57
0001
0000
0001
0000
,  // measure 58
1001
0000
0000
0000
,  // measure 59
0000
0000
0000
0000
,  // measure 60
0000
0000
0000
0000
,  // measure 61
0000
0000
0000
0000
,  // measure 62
0010
0000
0100
0000
,  // measure 63
0000
0000
0100
0000
,  // measure 64
0100
0000
0100
0000
,  // measure 65
0010
0000
0000
0000
;
