#VERSION:0.83;
#TITLE:KOTOBUKI;
#SUBTITLE:;
#ARTIST:REVen-G;
#TITLETRANSLIT:;
#SUBTITLETRANSLIT:;
#ARTISTTRANSLIT:;
#GENRE:;
#ORIGIN:;
#CREDIT:;
#BANNER:KOTOBUKI.png;
#BACKGROUND:KOTOBUKI-bg.png;
#PREVIEWVID:;
#JACKET:KOTOBUKI-jacket.png;
#CDIMAGE:;
#DISCIMAGE:;
#LYRICSPATH:;
#CDTITLE:CDtitle.png;
#MUSIC:KOTOBUKI.mp3;
#OFFSET:-0.149000;
#SAMPLESTART:27.561571;
#SAMPLELENGTH:12.428572;
#SELECTABLE:YES;
#BPMS:0.000=70.000,
16.000=140.000,
111.000=70.000,
131.000=280.000,
159.000=140.000,
161.000=280.000,
254.000=140.000;
#STOPS:62.000=0.429,
221.000=0.643;
#DELAYS:;
#WARPS:;
#TIMESIGNATURES:0.000=4=4;
#TICKCOUNTS:0.000=4;
#COMBOS:0.000=1;
#SPEEDS:0.000=1.000=0.000=0;
#SCROLLS:0.000=1.000;
#FAKES:;
#LABELS:0.000=Song Start;
#BGCHANGES:;
#KEYSOUNDS:;
#ATTACKS:
;

//---------------dance-single - ----------------
#NOTEDATA:;
#CHARTNAME:;
#STEPSTYPE:dance-single;
#DESCRIPTION:;
#CHARTSTYLE:;
#DIFFICULTY:Hard;
#METER:9;
#RADARVALUES:0.621910,1.281056,0.166371,0.166371,0.429791,471.000000,453.000000,18.000000,18.000000,0.000000,0.000000,0.000000,0.000000,0.000000,0.621910,1.281056,0.166371,0.166371,0.429791,471.000000,453.000000,18.000000,18.000000,0.000000,0.000000,0.000000,0.000000,0.000000;
#CREDIT:;
#NOTES:
// measure 0
0000
0000
0000
0000
,  // measure 1
0000
0000
0000
0000
,  // measure 2
1100
0000
1020
0000
0030
0000
0000
0000
0100
0001
0001
0010
0001
1000
0010
0100
,  // measure 3
0001
1000
0100
0010
0001
0010
0100
0010
0001
0100
1000
0100
0001
0010
1000
0010
,  // measure 4
0001
0000
0000
1000
0010
0000
0100
0000
0010
0000
0000
0001
0100
0000
0010
0000
,  // measure 5
0100
0000
0000
0010
1000
0000
0001
0000
0010
0000
0001
0000
1001
0000
0000
0000
,  // measure 6
0001
0000
0000
1000
0010
0000
0100
0000
0010
0000
0000
0010
1000
0000
0010
0000
,  // measure 7
0100
0000
0001
0000
0010
0000
0100
1000
0100
0010
0100
1000
0001
0100
0001
1000
,  // measure 8
0010
0000
0000
1000
0000
0000
0100
0000
0000
0010
0000
0000
0001
0000
0010
0000
,  // measure 9
0100
0000
0000
0001
0000
0000
0100
0000
0000
0010
0000
0000
1001
0000
0000
0000
,  // measure 10
1000
0000
0000
0001
0000
0000
0100
0000
0000
0010
0000
0000
1000
0000
0100
0000
,  // measure 11
0010
0000
0001
0000
0100
0000
0010
0000
1000
0010
0000
0100
0001
0000
0100
0000
,  // measure 12
0001
1000
0100
1000
0001
0000
0000
0000
,  // measure 13
0100
0001
0100
0001
0100
0001
0100
0001
0100
0000
0010
0000
0100
0000
0010
0000
,  // measure 14
1000
0100
1000
0001
0100
0001
0010
0100
,  // measure 15
0010
0001
0100
0010
1001
0000
0201
0000
,  // measure 16
0310
2010
3100
1002
,  // measure 17
0103
0010
1000
0000
0000
0000
0100
0010
,  // measure 18
0001
0100
0010
1000
0001
0000
0010
0000
0100
0010
0001
1000
0100
0000
1000
0100
,  // measure 19
1000
0000
0100
0010
0100
0000
0010
0001
0010
0000
0001
0000
1000
0000
0010
0000
,  // measure 20
0010
0010
1000
0010
0010
0010
1000
0010
,  // measure 21
0010
0000
0010
0000
0100
0010
1000
0001
0010
0000
0100
1000
0001
0000
1000
0000
,  // measure 22
1000
1000
0001
1000
1000
1000
0001
0010
,  // measure 23
1000
0000
0010
0000
0100
0010
0001
0100
0010
0000
0100
0010
0100
0000
0010
0000
,  // measure 24
0010
0010
0100
0010
0010
0010
0100
0010
,  // measure 25
0010
0000
0010
0000
0100
0010
1000
0001
1000
0000
0001
1000
0001
0000
0100
0000
,  // measure 26
0100
0100
0001
0100
0010
1000
1001
0001
,  // measure 27
0011
0000
0010
0000
0010
0100
1000
0100
0010
0001
0010
0001
1002
0000
2003
0000
,  // measure 28
3100
0010
0002
0000
0203
0000
0001
0000
1000
0000
0310
0100
0120
0000
0001
0000
,  // measure 29
1030
0000
0100
0000
0010
0000
0000
0000
0120
0000
0000
0000
0001
0000
0000
0000
1000
0000
0000
0000
0031
0000
0000
0000
1000
0001
0100
0000
0010
0000
1000
0000
,  // measure 30
0101
0000
0000
0000
0001
0010
0000
0000
0100
0000
0000
1000
0010
0000
1000
0000
0001
1000
0000
1000
0001
0000
0000
0000
0100
0010
1000
0001
0010
0000
0010
0000
,  // measure 31
0100
0000
0000
0000
1000
0000
0000
0000
0001
0100
0001
0100
0010
1000
0010
1000
0001
0010
0001
0010
0100
1000
0100
1000
0100
0000
1000
0000
1000
0000
0001
0000
,  // measure 32
0001
0100
0100
0010
1000
0001
0010
1000
0010
0001
0100
0010
1000
0000
0000
0000
,  // measure 33
0100
1000
0001
0100
,  // measure 34
0001
0010
0001
1000
,  // measure 35
0010
0100
0001
0010
,  // measure 36
0100
0010
0001
1000
,  // measure 37
0010
0000
1000
0000
0001
0000
1000
0001
,  // measure 38
0010
0001
1000
0100
0010
0001
0100
0000
,  // measure 39
0000
0000
0000
0000
0000
0000
0000
2002
,  // measure 40
0000
3003
0001
0000
0100
0000
1000
0000
,  // measure 41
0100
0001
0010
1000
,  // measure 42
0010
0001
0010
0100
,  // measure 43
1000
0100
0010
0001
,  // measure 44
1000
0000
0001
0100
0000
0010
1000
0000
,  // measure 45
0100
0010
0010
0100
,  // measure 46
0100
0000
0000
0001
0010
0000
0001
0000
,  // measure 47
1000
0000
0010
0100
0010
0000
1001
0000
,  // measure 48
0000
1000
0010
1000
,  // measure 49
0010
0100
0001
0010
,  // measure 50
0100
0000
1000
0010
1000
0010
1000
0010
,  // measure 51
1000
0010
1000
0000
0100
0000
1000
0000
,  // measure 52
0001
0010
1000
0010
,  // measure 53
0001
0100
1000
0100
,  // measure 54
0001
1000
0100
0010
,  // measure 55
0100
1001
1020
1000
,  // measure 56
2030
0001
3002
0010
,  // measure 57
0023
0100
0230
1000
,  // measure 58
1300
0100
0010
0100
,  // measure 59
1000
0000
0001
0000
1000
0001
1000
0001
,  // measure 60
1000
0100
0010
0001
1000
0001
1000
0001
,  // measure 61
1000
0100
0010
0001
1000
0001
1000
0001
,  // measure 62
1000
0100
0010
0001
0010
0100
0010
0001
,  // measure 63
0010
0000
0100
0000
1000
0000
0001
0000
0000
0100
0010
1000
0100
1000
0001
0100
,  // measure 64
0020
0000
0000
0000
,  // measure 65
0000
0000
0000
0000
,  // measure 66
0030
0000
0000
0000
;

//---------------dance-single - ----------------
#NOTEDATA:;
#CHARTNAME:;
#STEPSTYPE:dance-single;
#DESCRIPTION:;
#CHARTSTYLE:;
#DIFFICULTY:Medium;
#METER:7;
#RADARVALUES:0.442335,0.828157,0.147885,0.138642,0.166371,335.000000,319.000000,16.000000,15.000000,0.000000,0.000000,0.000000,0.000000,0.000000,0.442335,0.828157,0.147885,0.138642,0.166371,335.000000,319.000000,16.000000,15.000000,0.000000,0.000000,0.000000,0.000000,0.000000;
#CREDIT:;
#NOTES:
// measure 0
0000
0000
0000
0000
,  // measure 1
0000
0000
0000
0000
,  // measure 2
1010
0011
0000
0000
0001
0010
0001
1000
,  // measure 3
0100
1000
0010
0100
0001
0010
0001
0100
0010
1000
0001
0010
0001
0010
0100
1000
,  // measure 4
1100
1000
0010
0100
,  // measure 5
0001
0010
0100
1001
,  // measure 6
0001
1000
0010
1000
,  // measure 7
0100
0000
1000
0000
0010
0100
0001
1000
,  // measure 8
0001
1000
0010
1000
,  // measure 9
0100
0010
0001
0011
,  // measure 10
0001
0010
0001
1000
,  // measure 11
0010
0200
0000
0300
,  // measure 12
0010
1000
0101
0000
,  // measure 13
0001
0010
0100
1000
0100
0000
1000
0000
,  // measure 14
0010
0100
0001
1000
,  // measure 15
0010
0000
0100
0010
1000
0000
0101
0000
,  // measure 16
0001
0101
0001
0101
,  // measure 17
0100
0100
0001
0000
0000
0000
1000
0001
,  // measure 18
0010
0000
0001
1000
0010
0000
1000
0000
,  // measure 19
0001
0000
0100
0000
0010
0000
1000
0010
,  // measure 20
0010
0010
1000
0010
0010
1000
0010
0010
,  // measure 21
0010
1000
0010
0000
1010
0000
0001
0100
,  // measure 22
0100
0100
0001
0100
0100
0100
0001
0100
,  // measure 23
0001
0000
0100
0000
0001
0000
0000
0000
0101
0000
0000
0000
0000
0000
1000
0100
,  // measure 24
0000
0000
0100
0010
0000
0000
0010
0001
0000
0000
0001
0010
0000
0000
0010
0100
,  // measure 25
0000
0000
0100
1000
0000
0000
1000
0100
0000
0000
0000
0000
0010
0000
0001
0000
,  // measure 26
1000
1000
0001
0100
0010
0010
0100
0010
,  // measure 27
1000
0001
1000
0100
0001
0100
2000
3100
,  // measure 28
0002
0103
2000
3020
0032
0023
2030
3100
,  // measure 29
0002
0000
0103
0000
2000
0000
3020
0000
0032
0000
0023
0000
0130
0010
0000
0010
,  // measure 30
1000
0000
1000
0000
0001
0000
0100
0000
0010
1000
0100
0000
1000
1000
0001
0010
,  // measure 31
0000
0000
0000
0000
0100
0100
0010
0010
0001
0001
1000
1000
0000
0001
0100
0010
,  // measure 32
1000
0001
0100
0010
1000
0001
0010
0001
1000
0100
0010
0001
1000
0000
0000
0000
,  // measure 33
0010
0100
0001
0010
,  // measure 34
0100
1000
0001
1000
,  // measure 35
0100
1000
0001
0100
,  // measure 36
0001
1000
0001
1000
,  // measure 37
0100
1000
0010
0100
,  // measure 38
0010
1000
0001
0010
,  // measure 39
0000
0000
0000
0000
0000
0000
0000
0110
,  // measure 40
0000
1000
0001
0010
,  // measure 41
0001
0100
0001
1000
,  // measure 42
0001
0001
1000
0010
,  // measure 43
1000
0100
1000
0010
,  // measure 44
1000
0000
0001
0100
0000
0010
1000
0000
,  // measure 45
0100
1000
0001
0100
,  // measure 46
0100
0000
0000
0010
0100
0000
0001
0000
,  // measure 47
0100
0000
0001
1000
0001
0000
1001
0000
,  // measure 48
0000
1000
0010
1000
,  // measure 49
0010
0100
0000
0000
,  // measure 50
0000
0010
0010
0010
,  // measure 51
0010
0100
0010
1000
,  // measure 52
0001
1000
0100
0001
,  // measure 53
0100
1000
0010
0001
,  // measure 54
0010
1000
0010
0100
,  // measure 55
0001
0010
0012
0000
,  // measure 56
0103
0000
1020
0000
,  // measure 57
0130
0000
1001
0000
,  // measure 58
0001
1000
0010
0000
,  // measure 59
0000
0000
1000
0100
,  // measure 60
0010
0010
0001
0100
,  // measure 61
0010
0000
0010
0000
1000
0000
0000
0100
,  // measure 62
0010
0000
0000
0010
0001
0000
0000
1000
,  // measure 63
0001
0000
0100
0000
0001
0000
0100
0000
0000
0001
0100
0001
0100
0010
1000
0010
,  // measure 64
0100
0000
0000
0000
;

//---------------dance-single - ----------------
#NOTEDATA:;
#CHARTNAME:;
#STEPSTYPE:dance-single;
#DESCRIPTION:;
#CHARTSTYLE:;
#DIFFICULTY:Easy;
#METER:4;
#RADARVALUES:0.272003,0.443656,0.166371,0.009243,0.000000,206.000000,188.000000,18.000000,1.000000,0.000000,0.000000,0.000000,0.000000,0.000000,0.272003,0.443656,0.166371,0.009243,0.000000,206.000000,188.000000,18.000000,1.000000,0.000000,0.000000,0.000000,0.000000,0.000000;
#CREDIT:;
#NOTES:
// measure 0
0000
0000
0000
0000
,  // measure 1
0000
0000
0000
0000
,  // measure 2
1000
0001
0000
0000
0100
0000
0010
0000
,  // measure 3
1000
0010
0100
0001
1000
0100
0010
0001
,  // measure 4
1001
0000
0001
0000
,  // measure 5
1000
0000
0010
1001
,  // measure 6
0100
0000
0010
0000
,  // measure 7
1000
1000
0001
0010
,  // measure 8
0001
0100
0010
1000
,  // measure 9
0010
0100
0001
0011
,  // measure 10
0001
1000
0100
1000
,  // measure 11
0010
0100
1010
0011
,  // measure 12
1000
1000
1000
0000
,  // measure 13
0001
0100
0001
0010
,  // measure 14
0100
0010
0001
1000
,  // measure 15
0010
0100
1001
0001
,  // measure 16
0101
0100
0110
0010
,  // measure 17
1000
0010
1000
0000
0000
0000
0100
0000
,  // measure 18
0010
1000
0010
0100
,  // measure 19
0001
0010
0100
1000
,  // measure 20
1000
1000
1000
1000
,  // measure 21
1000
0001
1000
0010
,  // measure 22
0010
0010
0010
0100
,  // measure 23
0100
0010
1000
0001
,  // measure 24
0001
1000
1000
0010
,  // measure 25
0010
0100
0010
1000
,  // measure 26
1000
0001
0001
1001
,  // measure 27
0110
1001
0110
0001
,  // measure 28
0100
0000
0010
1000
0010
1000
0010
0000
,  // measure 29
0100
0000
0001
1000
0001
1000
0100
0000
,  // measure 30
1000
0000
0010
0000
0100
0000
0001
0001
,  // measure 31
0000
0000
1000
0010
0100
0001
0020
0000
,  // measure 32
0000
0000
0000
0130
,  // measure 33
0000
1000
0000
0010
,  // measure 34
0000
0100
0000
0001
,  // measure 35
0000
1000
0000
0010
,  // measure 36
0000
1000
0000
0010
,  // measure 37
0000
0100
0000
0001
,  // measure 38
1000
0001
1000
0001
,  // measure 39
0000
0000
0000
0000
,  // measure 40
0000
0001
0000
0100
,  // measure 41
0000
0010
0000
1000
,  // measure 42
0000
0010
0000
0100
,  // measure 43
0000
0001
0000
0010
,  // measure 44
0000
0100
0000
0000
,  // measure 45
0000
0010
0000
0000
,  // measure 46
0000
0001
0000
0000
,  // measure 47
0000
1000
0000
1001
,  // measure 48
0000
0001
0000
0100
,  // measure 49
0000
0010
0000
0000
,  // measure 50
0000
1000
0001
1000
,  // measure 51
0001
1000
0000
0100
,  // measure 52
0000
1000
0000
0010
,  // measure 53
0000
0100
0000
0001
,  // measure 54
0000
0010
0000
0100
,  // measure 55
0000
1100
1000
0000
,  // measure 56
0010
0000
1000
0000
,  // measure 57
0001
0000
0100
0000
,  // measure 58
0010
1000
0010
0000
,  // measure 59
0000
0000
1000
0000
,  // measure 60
0001
0000
0100
0000
,  // measure 61
0010
0000
1010
0000
,  // measure 62
0011
0000
1100
0000
,  // measure 63
0101
0000
0000
0000
0000
0001
1000
0010
,  // measure 64
0100
0000
0000
0000
;

//---------------dance-single - ----------------
#NOTEDATA:;
#CHARTNAME:;
#STEPSTYPE:dance-single;
#DESCRIPTION:;
#CHARTSTYLE:;
#DIFFICULTY:Beginner;
#METER:2;
#RADARVALUES:0.125438,0.205422,0.036971,0.000000,0.000000,95.000000,91.000000,4.000000,0.000000,0.000000,0.000000,0.000000,0.000000,0.000000,0.125438,0.205422,0.036971,0.000000,0.000000,95.000000,91.000000,4.000000,0.000000,0.000000,0.000000,0.000000,0.000000,0.000000;
#CREDIT:;
#NOTES:
// measure 0
0000
0000
0000
0000
,  // measure 1
0000
0000
0000
0000
,  // measure 2
1001
0000
1000
0000
,  // measure 3
0001
0000
0100
0000
,  // measure 4
0110
0000
0000
0000
,  // measure 5
0000
0000
0000
0010
,  // measure 6
0010
0000
0000
0000
,  // measure 7
1000
0000
0001
0000
,  // measure 8
0100
0000
0000
0000
,  // measure 9
0001
0000
0000
1001
,  // measure 10
1000
0000
0000
0000
,  // measure 11
0010
0000
0000
0000
,  // measure 12
1000
0000
0000
0000
,  // measure 13
0001
0001
0001
0000
,  // measure 14
0100
0000
0010
0000
,  // measure 15
1000
0000
0100
1000
,  // measure 16
0000
1000
0000
1000
,  // measure 17
0000
0000
0000
0001
,  // measure 18
0000
0000
0000
0100
,  // measure 19
0000
0000
0000
0010
,  // measure 20
0000
0010
0000
0010
,  // measure 21
0000
0010
0010
0100
,  // measure 22
0000
0100
0000
0100
,  // measure 23
0100
0100
0000
0001
,  // measure 24
0000
0001
0000
0001
,  // measure 25
0001
0001
0000
1000
,  // measure 26
0000
1000
0000
1000
,  // measure 27
1000
1000
0000
1001
,  // measure 28
0000
0010
0000
0100
,  // measure 29
0000
0001
0000
1000
,  // measure 30
0000
0001
0000
0100
,  // measure 31
0000
0010
0010
0100
,  // measure 32
0000
0000
0000
0001
,  // measure 33
0000
0000
0000
0001
,  // measure 34
0000
0000
0000
1000
,  // measure 35
0000
0000
0000
1000
,  // measure 36
0000
0000
0000
0010
,  // measure 37
0000
0000
0000
0100
,  // measure 38
0000
0010
0000
1000
,  // measure 39
0000
0000
0000
0000
,  // measure 40
0000
0001
0000
0000
,  // measure 41
0000
1000
0000
0000
,  // measure 42
0000
0100
0000
0000
,  // measure 43
0000
1000
0000
0000
,  // measure 44
0000
0010
0000
0000
,  // measure 45
0000
0000
0000
0000
,  // measure 46
0000
0000
0100
0000
,  // measure 47
0000
0000
0000
0000
,  // measure 48
0000
0010
0000
0000
,  // measure 49
0000
1000
0000
0000
,  // measure 50
0000
0001
0000
0001
,  // measure 51
0000
0001
0000
0000
,  // measure 52
0000
1000
0000
0000
,  // measure 53
0000
0001
0000
0000
,  // measure 54
0000
0100
0000
0000
,  // measure 55
0000
0010
1000
0000
,  // measure 56
0000
0000
0001
0000
,  // measure 57
0000
0000
0100
0000
,  // measure 58
0100
0000
0100
0000
,  // measure 59
0000
0000
0010
0000
,  // measure 60
0000
0000
1000
0000
,  // measure 61
0000
0000
0001
0000
,  // measure 62
0000
0000
0100
0000
,  // measure 63
0001
0000
1000
0000
;

//---------------dance-single - ----------------
#NOTEDATA:;
#CHARTNAME:;
#STEPSTYPE:dance-single;
#DESCRIPTION:;
#CHARTSTYLE:;
#DIFFICULTY:Challenge;
#METER:10;
#RADARVALUES:0.714338,1.525066,0.184857,0.129400,0.683969,541.000000,521.000000,20.000000,14.000000,0.000000,0.000000,0.000000,0.000000,0.000000,0.714338,1.525066,0.184857,0.129400,0.683969,541.000000,521.000000,20.000000,14.000000,0.000000,0.000000,0.000000,0.000000,0.000000;
#CREDIT:;
#NOTES:
// measure 0
0000
0000
0000
0000
,  // measure 1
0000
0000
0000
0000
,  // measure 2
1020
0000
0031
0000
0000
0000
0000
0000
0001
0010
0010
1000
0001
0001
1000
0010
,  // measure 3
0100
0000
0001
0100
0001
0100
0010
0100
0010
1000
0010
1000
0010
1000
0001
1000
0001
0010
0001
0010
0001
0010
0100
0010
0100
1000
0100
0010
0001
0010
0100
1000
,  // measure 4
0001
0000
0000
1000
0010
0000
0100
0000
0001
0000
0000
0010
0100
0000
1000
0000
,  // measure 5
0001
0000
0000
1000
0010
0000
0100
0000
0001
0000
0010
0000
1100
0000
0000
0000
,  // measure 6
1001
0000
0000
1000
0001
0000
0010
0000
0100
0000
0000
0010
0001
0000
0100
0000
,  // measure 7
0010
0000
1000
0000
0001
0000
0010
0000
0100
0010
0001
0100
0010
1000
0001
1000
,  // measure 8
0100
0000
0000
0001
0000
0000
0100
0000
0000
1000
0000
0000
0010
0000
0001
0000
,  // measure 9
0010
0000
0000
1000
0000
0000
0010
0000
0000
0100
0000
0000
1001
0000
0000
0000
,  // measure 10
0001
0000
0000
0010
0000
0000
1000
0000
0000
0010
0000
0000
0100
0000
1000
0000
,  // measure 11
0010
0000
0000
0100
0000
0000
0001
0000
1000
0001
0000
0001
1000
0000
0000
0000
,  // measure 12
0001
0100
0010
1000
0100
0000
0000
0000
,  // measure 13
0010
0001
0010
0001
0010
0001
0010
0001
0010
0000
0001
0000
1000
0000
0100
0000
,  // measure 14
1000
0001
0100
0001
1000
0010
1000
0001
,  // measure 15
0010
0100
1000
0001
0110
0000
2010
0000
,  // measure 16
3100
0021
0130
1002
,  // measure 17
0103
0000
0001
0000
0010
0000
0000
0000
0000
0000
0000
0000
0100
0010
0100
0010
,  // measure 18
0001
0010
0100
1000
0100
0010
0100
0010
0001
0010
0100
1000
0100
0010
0100
0010
,  // measure 19
0001
0010
0100
1000
0001
0010
0100
0010
0100
1000
0100
0010
0001
0000
1000
0000
,  // measure 20
1000
1000
0001
1000
1000
1000
0001
1000
,  // measure 21
1000
0000
1000
0000
0001
0100
0010
1000
0001
0000
1000
0100
0010
0000
0100
0000
,  // measure 22
0100
0100
0010
0100
0100
0100
0010
1000
,  // measure 23
0010
0000
0001
0000
1000
0001
0100
0010
0100
0000
0010
1000
0100
0000
0010
0000
,  // measure 24
0010
0010
0100
0010
0010
0010
0100
0010
,  // measure 25
0010
0000
0010
0000
0100
0010
0001
0100
0010
0000
0010
0100
0010
0000
0100
0000
,  // measure 26
0100
0100
0010
1000
0001
1000
1001
0010
,  // measure 27
1001
0000
0000
0000
0100
0000
0000
0000
0001
0000
0100
0000
0010
0000
0100
0000
0001
0000
1000
0000
0100
0000
1000
0000
0001
1000
0010
0000
0100
0000
0000
0000
,  // measure 28
0010
1000
0100
0000
0010
0000
0000
0000
0100
0010
0001
0000
0010
0001
0100
0000
0010
1000
0100
0000
1000
0010
0100
0000
0010
1000
0001
0000
1000
0000
0000
0000
,  // measure 29
0001
1000
0010
0000
0100
0000
0000
0000
0010
1000
0100
0000
0010
0001
0100
0000
0010
1000
0001
0000
0010
0100
1000
0000
0001
1000
0100
0000
0010
0000
0001
0000
,  // measure 30
1000
0000
0010
0000
0100
0001
0000
0000
0011
0000
0000
0010
0001
0000
0100
0000
0010
1000
0000
1000
0001
0000
0000
0000
1000
0010
1000
0010
0100
0001
0010
0100
,  // measure 31
0010
0000
0000
0000
0001
0000
0000
0000
1000
0000
0010
0000
1000
0000
0010
0000
0100
0000
0001
0000
0100
0000
0001
0000
0020
0000
0130
0010
0001
0100
0010
1000
,  // measure 32
0001
0100
0010
1000
0001
0100
0010
1000
0001
0010
0100
0010
0001
1000
0100
0010
0100
1000
0001
0010
0100
1000
0001
0010
0100
0000
0000
0000
0010
0000
0000
0000
,  // measure 33
0100
0000
0010
0001
0010
0000
0001
0100
,  // measure 34
0001
0000
0100
0010
0100
0000
0010
1000
,  // measure 35
0010
0000
1000
0100
1000
0000
0100
0010
,  // measure 36
0100
0000
0010
0001
0010
0000
0001
0000
,  // measure 37
1000
0000
0010
0000
1000
0000
0001
1000
,  // measure 38
0010
1000
0100
1000
0001
0010
0001
0000
,  // measure 39
0000
0000
0000
0000
0000
0000
0000
0220
,  // measure 40
0000
0330
1000
0001
0100
0000
0010
1000
,  // measure 41
0100
0000
0010
0001
0100
0000
0010
1000
,  // measure 42
0001
0000
1000
0010
0100
0000
0010
1000
,  // measure 43
0100
0000
0010
0001
0100
0000
0010
1000
,  // measure 44
0100
0000
0010
0001
0000
1000
0100
0000
,  // measure 45
1000
0010
0001
0011
,  // measure 46
0001
0000
0000
0001
0100
0000
0010
0000
,  // measure 47
1000
0000
0001
1000
0001
0000
0110
0000
,  // measure 48
0000
1000
0010
0100
,  // measure 49
0100
0010
1000
0001
,  // measure 50
0001
0000
0010
0100
0010
0100
0010
0100
,  // measure 51
0010
0100
0010
0000
0001
0000
0100
0000
,  // measure 52
0010
1000
0001
1000
,  // measure 53
0100
1000
0001
1000
,  // measure 54
0010
0100
0001
0010
,  // measure 55
0100
1100
2100
3100
,  // measure 56
0120
0130
0021
0031
,  // measure 57
0102
0103
0210
0310
,  // measure 58
0010
1000
0002
1000
,  // measure 59
1000
0000
1003
0000
0001
1000
0001
1000
,  // measure 60
0001
0010
0100
1000
0001
1000
0001
1000
,  // measure 61
0001
0010
0100
1000
0001
1000
0001
1000
,  // measure 62
0001
0010
0100
1000
0100
0010
0100
1000
,  // measure 63
0100
0000
0010
0000
0001
0000
1000
0000
0000
0010
0100
0001
0010
0001
1000
0010
,  // measure 64
0200
0000
0000
0000
,  // measure 65
0000
0000
0000
0000
,  // measure 66
0300
0000
0000
0000
;
