#TITLE:KARAKURI TOWN;
#SUBTITLE:;
#ARTIST:DOLL$BOXX;
#TITLETRANSLIT:;
#SUBTITLETRANSLIT:;
#ARTISTTRANSLIT:;
#GENRE:;
#CREDIT:;
#BANNER:KARAKURI TOWN.png;
#BACKGROUND:KARAKURI TOWN-bg.png;
#LYRICSPATH:;
#CDTITLE:;
#MUSIC:KARAKURI TOWN.ogg;
#OFFSET:-0.658000;
#SAMPLESTART:64.342293;
#SAMPLELENGTH:18.571434;
#SELECTABLE:YES;
#BPMS:0.000000=210.000000
;
#STOPS:220.000000=0.571000
;
#BGCHANGES:;
#KEYSOUNDS:;
#ATTACKS:;

//---------------dance-single - ----------------
#NOTES:
     dance-single:
     :
     Hard:
     11:
     0.766809,1.009670,0.321276,0.227244,0.121458,685.000000,644.000000,41.000000,29.000000,0.000000,0.000000,0.766809,1.009670,0.321276,0.227244,0.121458,685.000000,644.000000,41.000000,29.000000,0.000000,0.000000:
0000
0000
0000
0000
,
0000
0000
0000
0000
,
0000
0000
0000
0000
,
0000
0000
0000
0000
,
0002
0000
1003
0200
0000
1300
0002
0000
,
0103
0020
0000
1030
0002
0000
1003
0000
,
0100
0000
0010
0001
0000
0001
0100
0000
,
0100
0010
0000
0010
1000
0000
0001
0000
,
2000
0000
3010
0200
0000
0310
2000
0000
,
3100
0020
0000
0031
0200
0000
0301
0000
,
1000
0100
0010
0001
0010
0100
0010
0001
,
0010
0100
1000
0100
0000
0210
0000
0000
,
2300
0000
3010
0200
0000
0301
0020
0000
,
0130
2000
0000
3001
0200
0000
0310
0000
,
1000
0000
0001
0100
0000
0001
1000
0000
,
0001
0010
0000
0001
1000
0000
0100
0000
,
0020
0000
0031
0200
0000
0301
0020
0000
,
0130
2000
0000
3100
0020
0000
0031
0000
,
1000
0100
0010
0100
1000
0001
0010
0100
,
0010
0001
1000
0010
0000
0010
0100
0100
,
1001
0000
0000
0000
,
0000
0000
0000
0000
,
0001
0000
1000
0010
0000
1000
0001
0000
,
1000
0100
0000
1000
0010
0000
0100
0001
,
0010
0000
0100
1000
0100
0000
1000
0000
,
0001
0000
0100
0000
0010
1000
0001
0000
,
1000
0001
0010
0001
,
1000
0000
0010
0000
0100
0000
0001
1000
,
0100
1100
0011
0001
,
1000
0001
0000
0101
0000
0000
0001
1000
,
0020
0000
1030
0001
0200
0000
0301
1000
,
0002
0000
0013
0100
2000
0000
3001
0000
,
1000
0001
0100
0000
0010
0000
0100
0000
,
1000
0000
0100
1000
0010
0000
0100
0000
,
0010
1000
0100
0000
0010
0001
0100
0000
,
0010
1000
0001
0010
0100
1000
0100
0010
,
0002
0000
0100
0000
0100
0000
0103
0001
,
1000
0000
0100
0000
0001
0000
0001
0100
,
0010
0000
0010
0001
0100
0000
0100
0010
,
1000
0001
0100
0001
,
1000
0100
0001
0100
1000
0100
0001
0100
,
1000
0100
0001
0100
1000
0100
0001
0000
,
0001
0010
1000
0010
0001
0010
1000
0010
,
0001
0010
1000
0010
0001
0010
1000
0000
,
0010
0001
1000
0010
1000
0001
0010
0001
,
1000
0010
1000
0001
0010
0001
1000
0000
,
0001
0101
0011
0010
,
0110
0000
0100
1000
0000
1000
0001
0000
,
0001
0010
1000
0010
0001
0010
1000
0010
,
0001
0010
1000
0010
0001
0010
1000
0000
,
1000
0100
0001
0100
1000
0100
0001
0100
,
1000
0100
0001
0100
1000
0100
0001
0000
,
0100
1000
0001
0100
0001
1000
0100
1000
,
0001
0100
0001
1000
0100
1000
0001
0000
,
2000
0000
3001
0200
0000
0310
2000
0000
,
3100
0000
0010
1001
,
0100
0001
0010
0100
0010
0000
0101
0000
,
0100
0010
1000
0001
0100
0000
0011
0000
,
0010
0100
1000
0001
1000
0000
1001
0000
,
1000
0001
0010
0000
0001
0010
0100
1000
,
0100
0010
0100
1000
0100
0010
0001
0010
,
0100
0010
0001
1000
0001
0000
1000
0000
,
0010
0000
0000
0100
0000
0000
0001
0000
0101
0000
0000
0000
1010
0000
0000
0000
,
1000
0100
1000
0100
1000
0100
1000
0100
1000
0000
0000
0000
0011
0000
0000
0000
,
0010
0100
1000
0001
0100
0000
0110
0000
,
0100
0001
0010
0100
0010
0000
1100
0000
,
1000
0100
0010
0100
1000
0000
1001
0000
,
1000
0010
1000
0000
1000
0100
0010
0001
,
0010
0100
0010
0001
1000
0100
0010
0001
,
0010
0100
0010
0001
1000
0000
0100
0000
,
1000
0000
0001
0000
1000
0000
0001
0000
0101
0000
0000
0101
0000
0000
0001
0000
,
0011
0000
0000
0011
0000
0000
0011
0000
0001
0000
0000
0000
1100
0000
0000
0000
,
0100
1000
0010
0100
0001
0000
0011
0000
,
0100
0010
0001
1000
0010
0000
0110
0000
,
0001
0100
0010
1000
0001
0000
1001
0000
,
1000
0010
1000
0001
1000
0100
0001
0100
,
0010
0001
0010
1000
0010
0100
1000
0010
,
0001
1000
0010
0100
0001
0000
1000
0000
,
0010
0000
0000
0100
0000
0000
0001
0000
1001
0000
0000
0000
1010
0000
0000
0000
,
1000
0001
1000
0001
1000
0001
1000
0001
1000
0000
0000
0000
1010
0000
0000
0000
,
0010
1000
0001
0010
0100
0000
0110
0000
,
0001
0010
0001
1000
0100
0000
1100
0000
,
0100
1000
0010
0100
0001
0000
1001
0000
,
0001
0010
0001
0000
1000
0001
0100
0001
,
0010
0100
1000
0010
0100
0001
0010
0100
,
1000
0001
1000
0001
0010
0000
0001
0000
,
0100
0000
0001
0000
1000
0000
0001
0000
1001
0000
0000
1001
0000
0000
1000
0000
,
1010
0000
0000
1010
0000
0000
1000
0000
0001
0000
0000
0000
0010
0000
0000
0000
,
0100
1000
0000
0010
0000
0100
0000
0010
,
0100
0001
0010
0100
1000
0000
0100
0000
,
1000
0100
0000
0010
0000
0001
0000
0100
,
0010
0001
1000
0010
0100
0001
0010
0100
,
1000
0010
0100
0001
0010
0100
0010
0001
,
0100
0010
1000
0001
1000
0000
0001
0100
,
0000
0001
1000
0000
0001
0010
0000
0010
,
0001
1000
0001
1000
0001
1000
0001
1000
0001
0000
0000
0000
0010
0000
0000
0000
,
0001
1000
0000
0100
0000
1000
0000
0001
,
0010
0001
1000
0010
1000
0000
0001
1000
,
0000
1000
0100
0000
0100
0010
0000
0010
,
0001
0000
0100
0000
0010
1000
0100
1000
,
0010
0100
0001
1000
0100
0010
0001
0010
,
0100
0010
0001
1000
0010
0000
1000
0100
,
0000
0000
0100
0000
0010
0000
0001
0000
1000
0001
1000
0001
1000
0010
0100
0010
,
0100
0001
0100
0001
0100
0010
1000
0010
1000
0000
0010
0000
0100
0000
0000
0000
,
0010
1000
0100
1000
0001
1000
0000
0100
,
0000
0000
0010
0000
0100
0000
1000
0000
0001
0100
0010
1000
0010
0000
0100
0001
,
0100
0000
0010
0100
0001
1000
0100
0000
0010
0000
0011
0000
0000
0000
1010
0000
,
0000
0100
1001
0011
0000
0000
0000
0000
;

//---------------dance-single - ----------------
#NOTES:
     dance-single:
     :
     Medium:
     8:
     0.472399,0.715183,0.203736,0.242916,0.050934,422.000000,396.000000,26.000000,31.000000,0.000000,0.000000,0.472399,0.715183,0.203736,0.242916,0.050934,422.000000,396.000000,26.000000,31.000000,0.000000,0.000000:
0000
0000
0000
0000
,
0000
0000
0000
0000
,
0000
0000
0000
0000
,
0000
0000
0000
0000
,
2000
0000
0000
3010
0000
0000
0200
0000
,
0000
0301
0000
0000
0010
0000
0100
0000
,
0010
0000
0001
1000
0000
0001
0100
0000
,
0001
1000
0000
0001
0010
0000
0100
0000
,
0020
0000
0000
0031
0000
0000
0002
0000
,
0000
1003
0000
0000
0010
0000
1000
0000
,
0001
0100
0010
1000
0001
0100
0010
1000
,
0100
0010
0100
1000
0000
2002
0000
3003
,
2000
0000
0000
3010
0000
0000
0020
0000
,
0000
0130
0000
0000
0010
0000
1000
0000
,
0001
0000
1000
0001
0000
0100
0001
0000
,
1000
0001
0000
0100
0001
0000
1000
0000
,
0020
0000
0000
1030
0000
0000
2000
0000
,
0000
3100
0000
0000
0010
0000
0001
0000
,
0001
0010
0100
0010
0001
1000
0100
0010
,
0100
1000
0001
1000
0000
0001
1000
1000
,
1001
0000
0000
0000
,
0000
0000
0000
0000
,
0001
0000
0100
0001
0000
0001
0010
0000
,
0010
0100
0000
0100
1000
0000
0100
0000
,
1000
0000
0000
0100
0000
0000
1000
0000
,
0000
0010
0000
0000
0100
0010
1000
0000
,
0000
0000
0010
0000
0000
0100
0000
0000
,
0010
0000
1000
0000
0010
0000
0100
0001
,
0000
1001
1010
0000
,
1000
0100
0000
1100
0000
0000
1000
0100
,
2000
0000
3020
0000
,
0230
0000
0302
0000
,
1003
0000
0001
0000
0100
0000
0001
0100
,
0000
0010
0000
1000
0000
0010
0000
0000
,
0100
0000
0010
0000
1000
0000
0001
0010
,
0000
0000
0100
0000
0010
0000
0000
0200
,
0000
0000
0000
0000
0000
0000
1300
0020
,
0000
0000
0000
0000
0030
0000
0100
0010
,
1000
0010
0100
0001
,
0010
0100
1000
0010
0100
0000
0000
0000
,
0001
0000
0100
0001
0000
0100
0000
0001
,
0000
0100
0000
1000
0000
0000
0000
0000
,
1000
0000
1000
0100
0000
0010
0000
0100
,
0000
0010
0000
0001
0000
0000
0000
0000
,
0001
0000
0001
0010
0000
0100
0000
0010
,
0000
1000
0000
0010
0000
0000
0100
0000
,
0010
1001
0110
0000
,
0110
0000
0100
0010
0000
0000
0000
0000
,
1000
0000
1000
0010
0000
0100
0000
0001
,
0000
0010
0000
1000
0000
0000
0000
0000
,
0010
0000
0000
0100
0000
1000
0000
0100
,
0000
0001
0000
0100
0000
0000
0000
0000
,
0010
0000
0010
0100
0000
0010
0000
0001
,
0000
0010
0000
1000
0000
0000
0010
0000
,
0200
0000
0000
2300
0000
0000
3010
0000
,
1001
0010
1002
0000
,
0003
0000
0100
1000
0010
0000
0000
0100
,
0000
0001
2001
0000
,
3000
0000
0100
0010
0001
0000
0000
0100
,
0000
0010
1000
0000
,
0001
0000
0000
0100
0000
0000
0001
0000
0100
0000
0000
0000
0000
0000
0010
0000
,
1000
0000
0010
0000
,
0100
0000
0010
0000
1000
0000
0001
0000
0000
1000
0000
0000
,
1100
0011
2001
0000
,
0000
0000
3010
1000
0010
0000
0000
0100
,
0000
0010
0000
1000
,
0010
0000
0000
0000
1000
0000
0000
0000
0001
0000
0000
0000
0100
0000
0000
0000
0000
0000
0000
0000
0000
0010
0000
0000
,
0000
1000
0001
0000
,
0000
0010
0100
2000
0000
0000
0000
0000
,
0000
0100
3100
0000
,
0000
0000
1000
0000
0100
0000
0010
0000
0001
0000
0000
0001
0000
0000
0001
0000
,
1000
0000
0000
1000
0000
0000
1000
0000
1020
0000
0000
0000
0000
0000
0000
0000
,
0000
0000
0130
0001
0010
0000
0000
0100
,
0000
1000
2001
0000
,
3000
0000
0001
0010
0001
0000
0000
1000
,
0000
0100
1100
0000
,
0100
0000
0000
0010
0000
0000
0100
0000
2000
0000
0000
0000
0000
0000
0010
0000
,
3010
0000
0000
0100
0002
0000
0000
0000
,
1003
0000
0000
0100
0000
0000
1000
0000
1010
0000
0000
0000
0101
0000
0000
0000
,
1010
0101
1002
0000
,
0000
0000
1003
0001
0010
0000
0000
0100
,
0000
0010
0000
0001
,
1000
0000
0000
0000
0010
0000
0000
0000
0100
0000
0000
0000
0002
0000
0000
0000
0000
0000
0000
0000
0000
0013
0000
0000
,
0000
0100
1001
0000
,
0000
1000
0001
0020
0000
0000
0000
0000
,
0000
0100
0130
0000
,
0000
0000
0010
0000
0001
0000
1000
0000
0010
0000
0000
0010
0000
0000
0010
0000
,
0100
0000
0000
0100
0000
0000
0100
0000
2002
0000
0000
0000
0000
0000
0000
0000
,
0000
0000
0000
0000
,
0000
3003
1000
0010
,
0100
0010
1000
0001
,
0010
0000
0100
0000
0010
0001
0010
0000
,
0100
0000
1000
0100
1000
0000
0100
0000
,
0010
0001
0010
0000
0100
0000
0010
0001
,
0000
0001
1000
0000
1000
0010
0000
0010
,
0100
0010
1000
0010
,
0100
0001
0010
0100
,
0010
0010
0100
1000
,
0100
1000
0010
0100
,
0001
0000
1000
0000
0001
0100
0001
0000
,
0100
0000
0010
1000
0010
0000
1000
0000
,
0001
0100
0001
0000
1000
0000
1000
0001
,
0000
0001
1000
0000
1000
0100
0010
0001
,
1000
0100
0010
0001
1000
0010
1000
0000
,
0010
0000
0100
0000
0001
0010
0000
0100
,
0000
0010
0001
0100
0010
1000
0001
0000
,
1000
1000
0001
0100
0001
0010
0000
0011
,
0000
0010
0100
1100
0000
0000
0000
0000
;

//---------------dance-single - ----------------
#NOTES:
     dance-single:
     :
     Easy:
     6:
     0.376128,0.546904,0.156720,0.172392,0.000000,336.000000,316.000000,20.000000,22.000000,0.000000,0.000000,0.376128,0.546904,0.156720,0.172392,0.000000,336.000000,316.000000,20.000000,22.000000,0.000000,0.000000:
0000
0000
0000
0000
,
0000
0000
0000
0000
,
0000
0000
0000
0000
,
0000
0000
0000
0000
,
1000
0000
0000
0010
0000
0000
1000
0000
,
0000
0100
0000
0000
1000
0000
0010
0000
,
0100
0000
0000
0100
0000
0000
0100
0000
,
0000
0100
0000
0000
0100
0000
0100
0000
,
0010
0000
0000
1000
0000
0000
0010
0000
,
0000
0100
0000
0000
0001
0000
0100
0000
,
0010
0100
0010
1000
,
0001
0000
0010
0000
0000
2002
0000
3003
,
0001
0000
0000
0001
0000
0000
1000
0000
,
0000
1000
0000
0000
0001
0000
1000
0000
,
0010
0000
0000
0010
0000
0000
0010
0000
,
0000
0010
0000
0000
0010
0000
0010
0000
,
0100
0000
0000
0010
0000
0000
1000
0000
,
0000
0010
0000
0000
0100
0000
0010
0000
,
1000
0100
0010
0001
,
0010
0000
0100
0000
0000
1000
0100
0010
,
0001
0000
0000
0000
,
0000
0000
0000
0000
,
0001
0000
0000
0001
0000
0000
0001
0000
,
0000
0001
0000
0000
0001
0000
0001
0000
,
1000
0010
1000
0000
,
0001
0100
0001
0000
,
0100
0010
0100
0000
,
0010
1000
0010
1000
,
0100
1100
1100
0000
,
0100
1000
0001
0000
,
2000
0000
3002
0000
,
0203
0000
0320
0000
,
1030
0010
0100
0000
,
0010
0100
0001
0000
,
0100
0010
1000
0001
,
0010
0001
1000
0100
,
2002
0000
0000
0000
3003
0000
0001
0020
,
0000
0000
0030
0001
,
1000
1000
0001
0001
,
0100
0000
0010
0000
,
1000
1000
1000
1000
,
1000
1000
1000
0000
,
0001
0001
0001
0001
,
0001
0001
0001
0000
,
0100
0100
0100
0100
,
0100
0100
0100
0000
,
0010
0110
0110
0000
,
0010
1000
0001
0000
,
1000
0001
1000
0001
,
1000
0001
1000
0000
,
0010
0100
0010
0100
,
0010
0100
0010
0000
,
1000
0010
1000
0010
,
1000
0010
1000
0000
,
0010
0000
0000
1000
0000
0000
0001
0000
,
1001
0001
0201
0000
,
0000
0000
0301
0000
0100
0000
0000
0001
,
0000
0010
0021
0000
,
0030
0000
0100
0000
0010
0000
0000
0100
,
0000
1000
0100
0000
,
1000
0001
0100
0000
,
0001
0000
0010
0000
,
0100
0010
0001
0001
,
1000
1000
1020
0000
,
0000
0000
1030
0000
0010
0000
0000
0100
,
0000
0010
0000
1000
,
0010
0000
0010
0000
1000
0000
0000
0001
,
0000
1000
0100
0000
,
0000
1000
0100
0020
0000
0000
0000
0000
,
0000
0130
0010
0000
,
0000
0001
1001
0000
,
1010
0000
0120
0000
,
0000
0000
1030
0000
0010
0000
0000
1000
,
0000
0001
2000
0000
,
3000
0000
0100
0000
1000
0000
0000
0010
,
0000
0100
0010
1000
,
0010
0100
0001
0010
,
0100
0010
0001
0000
,
1000
0001
0100
0100
,
0010
0010
1002
0000
,
0000
0000
1003
0000
0100
0000
0000
1000
,
0000
0010
0000
0100
,
0010
0000
0010
0000
1000
0000
0000
0010
,
0000
0100
1001
0001
,
0010
0100
0010
0001
,
0100
0010
1000
0010
,
0100
0010
0110
0000
,
1001
0000
0220
0000
,
0000
0000
0000
0000
,
0000
0000
0330
0000
1000
0000
0000
0001
,
0000
0000
1000
0000
0000
0001
0000
0000
,
1000
1000
0001
0100
,
0010
1000
0001
0100
,
0010
0000
1000
0000
0001
0000
0000
1000
,
0000
0000
0100
0000
0000
1000
0000
0000
,
0010
0100
1002
0000
,
0000
0000
0203
0000
,
0000
0000
0320
0000
,
0000
0000
2030
0000
,
0000
0000
3100
1000
,
0100
0010
0100
0010
,
0001
0000
0010
0000
0100
0000
0000
0010
,
0000
0000
0001
0000
1000
0100
0010
0001
,
1000
0100
0010
0001
1000
0000
0010
0000
,
0100
0000
0010
0000
1000
0010
0000
0100
,
0000
0010
0100
0000
0010
0100
0001
0000
,
0000
0100
0010
1000
0001
0100
0000
0001
,
0000
1000
0001
1001
0000
0000
0000
0000
;

//---------------dance-single - ----------------
#NOTES:
     dance-single:
     :
     Beginner:
     3:
     0.137690,0.336165,0.070524,0.000000,0.000000,123.000000,114.000000,9.000000,0.000000,0.000000,0.000000,0.137690,0.336165,0.070524,0.000000,0.000000,123.000000,114.000000,9.000000,0.000000,0.000000,0.000000:
// measure 0
0000
0000
0000
0000
,  // measure 1
0000
0000
0000
0000
,  // measure 2
0000
0000
0000
0000
,  // measure 3
0000
0000
0000
0000
,  // measure 4
1000
0000
0000
0000
,  // measure 5
0000
0000
0000
0000
,  // measure 6
0001
0000
0000
0000
,  // measure 7
0001
0000
0000
0000
,  // measure 8
0100
0000
0000
0000
,  // measure 9
0000
0000
0000
0000
,  // measure 10
0010
0000
0000
0000
,  // measure 11
0100
0000
0000
0000
,  // measure 12
0001
0000
0000
0000
,  // measure 13
0000
0000
0000
0000
,  // measure 14
1000
0000
0000
0000
,  // measure 15
1000
0000
0000
0000
,  // measure 16
0010
0000
0000
0000
,  // measure 17
0000
0000
0000
0000
,  // measure 18
0100
0000
0000
0000
,  // measure 19
0000
0000
0000
0010
,  // measure 20
0010
0000
0000
0000
,  // measure 21
0000
0000
0000
0000
,  // measure 22
1000
0000
0000
0000
,  // measure 23
0000
0000
0000
0000
,  // measure 24
0001
0000
0000
0000
,  // measure 25
1000
0000
0000
0000
,  // measure 26
0010
0000
0000
0000
,  // measure 27
1000
0000
1000
0000
,  // measure 28
1000
0000
0000
0000
,  // measure 29
0001
0000
0000
0000
,  // measure 30
0100
0000
0010
0000
,  // measure 31
1000
0000
0001
0000
,  // measure 32
1000
0000
0000
0000
,  // measure 33
0001
0000
0000
0000
,  // measure 34
0100
0000
0000
0000
,  // measure 35
0010
0000
0000
0000
,  // measure 36
1001
0000
0000
0000
,  // measure 37
1000
0000
0000
0000
,  // measure 38
0001
0000
0000
0000
,  // measure 39
1000
0000
0000
0000
,  // measure 40
0010
0000
0000
0000
,  // measure 41
0000
0000
0000
0000
,  // measure 42
0100
0000
0000
0000
,  // measure 43
0000
0000
0000
0000
,  // measure 44
0001
0000
0000
0000
,  // measure 45
0000
0000
0000
0000
,  // measure 46
1000
0001
0001
0000
,  // measure 47
1000
0000
0000
0000
,  // measure 48
0001
0000
0000
0000
,  // measure 49
0000
0000
0000
0000
,  // measure 50
0010
0000
0000
0000
,  // measure 51
0000
0000
0000
0000
,  // measure 52
0001
0000
0000
0000
,  // measure 53
0000
0000
0000
0000
,  // measure 54
1000
0000
0000
0000
,  // measure 55
1000
0000
0100
0000
,  // measure 56
0000
0000
0000
0000
,  // measure 57
0000
0000
1000
0000
,  // measure 58
0000
0000
0000
0000
,  // measure 59
0000
0000
0001
0000
,  // measure 60
0000
0000
0001
0000
,  // measure 61
0000
0000
0001
0000
,  // measure 62
0000
0000
1000
0000
,  // measure 63
0001
0000
1001
0000
,  // measure 64
0000
0000
0010
0000
,  // measure 65
0000
0000
0100
0000
,  // measure 66
0000
0000
0010
0000
,  // measure 67
0000
0000
1000
0000
,  // measure 68
0000
0001
0001
0000
,  // measure 69
0000
1000
1000
0000
,  // measure 70
0000
0000
0110
0000
,  // measure 71
1001
0000
0110
0000
,  // measure 72
0000
0100
0100
0000
,  // measure 73
0000
0000
0010
0000
,  // measure 74
0000
1000
1000
0000
,  // measure 75
0000
0000
0001
0000
,  // measure 76
0000
0000
0100
0000
,  // measure 77
0000
0000
0010
0000
,  // measure 78
0000
0000
1000
1000
,  // measure 79
0001
0001
1001
0000
,  // measure 80
0000
0000
1000
0000
,  // measure 81
0000
0000
0001
0000
,  // measure 82
0000
0000
0100
0000
,  // measure 83
0000
0000
0010
0000
,  // measure 84
0000
1000
1000
0000
,  // measure 85
0000
0001
0001
0000
,  // measure 86
0000
1000
0001
0000
,  // measure 87
0100
0000
0110
0000
,  // measure 88
0000
0000
0000
0000
,  // measure 89
0000
0000
0010
0000
,  // measure 90
0000
0000
0000
0000
,  // measure 91
0000
0000
1000
0000
,  // measure 92
0000
1000
0000
0000
,  // measure 93
1000
0000
0001
0000
,  // measure 94
0000
0000
0001
0000
,  // measure 95
0000
0000
1001
0000
,  // measure 96
0000
0000
0010
0000
,  // measure 97
0000
0000
0100
0000
,  // measure 98
0000
0000
0001
0000
,  // measure 99
0000
0000
1000
0000
,  // measure 100
0000
1000
0000
0000
,  // measure 101
1000
0000
0001
0000
,  // measure 102
0000
0000
1000
1000
,  // measure 103
0001
0001
0100
0000
,  // measure 104
0000
0000
0010
0000
,  // measure 105
0000
0000
1001
0000
,  // measure 106
0010
0000
0001
0000
,  // measure 107
1000
0001
0000
0000
;
