#VERSION:0.83;
#TITLE:Jungle Jungle;
#SUBTITLE:;
#ARTIST:DJ NAGAI;
#TITLETRANSLIT:;
#SUBTITLETRANSLIT:;
#ARTISTTRANSLIT:;
#GENRE:;
#ORIGIN:;
#CREDIT:;
#BANNER:Jungle Jungle.png;
#BACKGROUND:Jungle Jungle-bg.png;
#PREVIEWVID:;
#JACKET:;
#CDIMAGE:;
#DISCIMAGE:maxresdefault.jpg;
#LYRICSPATH:;
#CDTITLE:;
#MUSIC:Jungle Jungle.ogg;
#OFFSET:-1.238999;
#SAMPLESTART:64.891472;
#SAMPLELENGTH:9.795921;
#SELECTABLE:YES;
#BPMS:0.000=196.000;
#STOPS:69.000=0.153,
70.500=0.153,
73.000=0.153,
73.500=0.153,
334.000=2.143,
336.000=0.153,
337.500=0.153,
340.000=0.153;
#DELAYS:;
#WARPS:;
#TIMESIGNATURES:0.000=4=4;
#TICKCOUNTS:0.000=4;
#COMBOS:0.000=1;
#SPEEDS:0.000=1.000=0.000=0;
#SCROLLS:0.000=1.000;
#FAKES:;
#LABELS:0.000=Song Start;
#BGCHANGES:;
#KEYSOUNDS:;
#ATTACKS:
;

//---------------dance-single - ----------------
#NOTEDATA:;
#CHARTNAME:;
#STEPSTYPE:dance-single;
#DESCRIPTION:;
#CHARTSTYLE:;
#DIFFICULTY:Hard;
#METER:9;
#RADARVALUES:0.682972,0.915132,0.517326,0.115952,0.151630,536.000000,478.000000,58.000000,13.000000,0.000000,0.000000,8.000000,0.000000,0.000000,0.682972,0.915132,0.517326,0.115952,0.151630,536.000000,478.000000,58.000000,13.000000,0.000000,0.000000,8.000000,0.000000,0.000000;
#CREDIT:;
#NOTES:
0000
0000
0000
0000
,
1000
0000
1000
0000
0001
0001
0010
0001
,
0100
0100
0010
1000
0100
0100
0010
0100
,
1000
0000
0001
0000
0100
0100
0001
0010
,
0011
0000
0101
0000
0001
0100
1000
0000
,
0100
0000
0100
0000
0010
0010
1000
0100
,
1000
1000
0001
0010
0001
0001
1000
0100
,
0010
0000
0010
0000
0100
0100
0010
0001
,
1000
0001
1000
0000
0001
1000
0001
0000
1000
0000
0010
0000
0001
0000
0000
0000
,
0010
0010
0010
0010
,
0100
0000
0100
0001
0000
0001
0010
0100
,
1000
0000
1000
0000
1000
0000
1000
0001
,
0100
0000
0001
0100
0000
0100
0010
0000
,
1000
1000
0010
0100
0001
0001
0100
0010
,
1000
1000
0010
0100
0001
0001
0100
0010
,
1000
0000
0000
0001
1000
0000
0000
1000
0010
0000
0000
0010
0100
0000
0000
0100
,
0001
1000
0010
1000
0001
0100
0001
0010
0001
1000
0100
0010
,
0001
0000
0100
0000
0010
0000
1000
0000
0000
1000
0000
0010
0000
0100
0000
0001
0000
0000
0001
0000
0100
0000
0010
0000
,
1000
0000
0001
0000
0100
0000
0001
0000
0000
0000
0000
0000
1000
0000
0000
0001
0000
0000
0010
0000
0000
0001
0000
0000
,
0000
0010
0100
0000
1000
0010
0100
0010
,
0000
0100
0001
1000
0001
0010
0001
0010
,
0100
0000
1000
0000
0001
0000
0010
0110
,
0000
0011
0000
0000
0001
1000
0100
1000
,
0000
0100
0010
0000
0001
0100
0010
0100
,
0000
0010
1000
0001
1000
0100
1000
0100
,
0010
0000
0001
0000
0100
0000
0010
0000
0000
0000
1000
0001
1000
0000
0001
0000
,
0010
0001
1000
0000
0001
1000
0100
0010
,
0000
0100
0010
0001
0100
0010
1000
0010
,
0000
0100
0010
1000
0001
0010
0001
1000
,
0001
0000
0100
0000
1010
0000
1000
1100
,
0000
1001
0000
0000
1000
0001
0010
0100
,
0000
0010
0100
1000
0010
0100
0001
0100
,
0000
0010
0100
0001
1000
0100
1000
0001
,
1000
0010
0100
0001
0020
0000
0230
0000
,
1300
1001
0001
0021
,
0000
0000
0130
0010
0200
0000
1300
0002
,
0000
0013
2000
3010
,
0100
0001
0010
0100
,
0010
0001
0010
1200
,
0000
0000
0310
0001
0200
0000
0310
2000
,
0000
3100
0010
0011
,
0001
0100
4004
0000
,
0000
3003
0001
0001
,
0001
0000
0001
0000
0001
0000
0001
1000
,
0000
1000
0010
0100
0001
0000
0001
0000
,
0001
0000
0001
0100
0010
0000
0100
0010
,
0000
0010
0100
0000
0010
0000
0010
0000
,
0010
0000
0010
0000
0010
0000
0010
0100
,
0000
0100
0001
0000
0010
0000
0010
0000
,
0100
0000
0100
0000
0000
1000
0100
0001
,
0100
0000
1000
0000
0010
0000
0000
0000
0000
0000
0100
0010
0100
0000
0001
0000
,
0010
0001
1000
0000
0101
0000
0101
0000
,
0101
0000
0101
0000
0101
0000
0001
0100
,
0000
0100
0010
1000
1100
0000
1100
0000
,
1010
0000
0010
1000
0001
0000
0001
1001
,
0000
0110
0000
0000
1010
0000
1010
0000
,
1010
0000
1010
0000
1010
0000
1000
0001
,
0000
0001
0010
0000
0110
0000
0110
0000
,
1001
0000
0000
0000
0110
0000
0000
0000
0000
0000
1000
0001
1000
0000
0001
0000
,
0010
0001
0100
0000
0001
0010
0001
0010
,
0001
0010
0001
0010
0100
1000
0010
0100
,
0001
1000
0100
0001
0100
0010
0100
0010
,
0100
0010
0100
0010
0001
0000
1000
1001
,
0000
0110
0000
0000
1000
0010
1000
0010
,
1000
0010
1000
0010
1000
0001
0100
0001
,
1000
0100
1000
0000
0100
0010
0100
0010
,
0001
0000
1000
0000
0001
0000
1000
0000
0004
0400
0000
0000
0000
0000
0000
0000
,
0000
0303
0001
0001
,
1000
1000
0100
0010
0100
0100
0010
0001
,
1000
1000
0010
0100
0001
0000
0100
0000
,
0010
0010
1000
0001
0011
0000
0101
0000
,
0001
0010
1000
0000
0010
0000
0010
0000
,
0100
0100
0010
0001
1000
1000
0010
0100
,
0001
0001
0010
0100
1000
0000
0010
0000
,
0100
0100
0001
0020
0000
0000
0000
0000
,
0000
0030
0101
1100
,
0101
1100
4004
0000
,
0000
0000
0000
3003
1010
0000
0011
0000
,
1010
0011
4004
0000
,
0000
3003
0101
1100
,
1010
0000
0011
0000
1001
0000
0001
1001
,
0000
1000
1001
0000
0101
0000
0011
0000
,
0110
1100
0120
0000
,
0000
0000
0000
0000
0000
0000
0030
0000
0000
0001
0100
0010
,
1000
0000
0000
1000
0000
0010
0000
0100
0000
0001
0000
0000
0001
0000
0100
0000
0010
0000
1000
0000
0010
0000
0100
0000
,
0001
0220
0000
0000
0330
0000
0000
0000
;

//---------------dance-single - ----------------
#NOTEDATA:;
#CHARTNAME:;
#STEPSTYPE:dance-single;
#DESCRIPTION:;
#CHARTSTYLE:;
#DIFFICULTY:Medium;
#METER:7;
#RADARVALUES:0.493116,0.607412,0.294341,0.214066,0.004460,387.000000,354.000000,33.000000,24.000000,0.000000,0.000000,2.000000,0.000000,0.000000,0.493116,0.607412,0.294341,0.214066,0.004460,387.000000,354.000000,33.000000,24.000000,0.000000,0.000000,2.000000,0.000000,0.000000;
#CREDIT:;
#NOTES:
0000
0000
0000
0000
,
1000
0000
1000
0000
0001
0100
0001
0000
,
0100
0001
0100
0000
0001
0100
0001
0000
,
0010
0000
0100
0000
1000
0001
1000
0000
,
0001
0000
0100
0000
0010
1000
0100
0000
,
0010
0000
0010
0000
0100
1000
0100
0000
,
1000
0100
1000
0000
0100
1000
0100
0000
,
0001
0000
0100
0000
0010
0001
0010
0000
,
0001
0000
0100
0000
0010
1000
0001
0000
,
0010
0010
0010
0010
,
0100
0000
0010
0001
0000
0001
0100
0010
,
1000
0000
0001
0000
1000
0000
0001
0010
,
0100
0000
0010
0001
0000
0100
0000
0010
,
1020
0130
0102
0013
,
2100
3001
0021
0130
,
0001
0100
0010
1000
,
0004
4000
0000
0000
0000
0000
0000
0000
0000
3003
0000
0000
,
0201
0000
0310
2010
0000
3100
0021
0000
,
0130
1001
0001
0010
,
0001
0001
1000
0010
,
1000
0001
0010
0001
,
0100
0000
0010
0000
1000
0000
0001
0010
,
0000
0100
0010
0000
0001
0000
1000
0000
,
0100
0100
1000
0010
,
0100
0001
0010
0100
,
1000
0000
0100
0000
0000
0010
0100
1000
,
0010
0100
0001
0000
1000
0000
0001
0100
,
0000
0001
0000
0000
1000
0000
0001
0010
,
0000
0100
0010
0001
1000
0000
0010
1000
,
0100
0000
0010
0000
0100
0000
1000
0001
,
0000
1000
0000
0000
0001
0000
0100
0010
,
0000
1000
0000
0100
0010
0000
0001
0010
,
0000
0100
0010
0001
1000
0000
0001
0100
,
0010
0100
0002
0000
,
0000
0000
1003
0000
0100
0020
0001
0000
,
0000
0000
0000
0000
,
0000
0000
0030
0000
0001
1000
0100
0000
,
0000
0000
0000
0000
,
0000
0000
0000
0000
0010
0200
1000
0000
,
0000
0000
0000
0000
,
0000
0000
0300
0000
0010
0001
1000
0000
,
0000
0000
0002
2003
,
3002
0203
0310
1000
,
0010
0000
1000
0000
0010
0000
1000
0010
,
0000
0010
1000
0000
0001
0000
1000
0000
,
0001
0000
0010
0100
0010
0000
0001
0100
,
0000
0001
0000
0000
1000
0000
0001
0000
,
0010
0000
0001
0000
1000
0000
0100
1000
,
0000
1000
0010
0000
0100
0000
0010
0000
,
1000
0000
0001
0000
0000
1000
0100
0010
,
0001
0010
0100
0000
0000
0010
0100
1000
,
0100
0010
0001
0000
1000
0000
0010
0000
,
0100
0000
0001
0000
0010
0000
0100
0010
,
0000
0010
0001
0100
0010
0000
1000
0000
,
0001
0000
0010
0001
0100
0000
0010
1000
,
0000
0001
0000
0000
1000
0000
0010
0000
,
0100
0000
0001
0000
0010
0000
0100
0010
,
0000
0010
0100
0000
0010
0000
0100
0000
,
1000
0000
0001
0000
0000
1000
0100
0001
,
0100
1000
0001
0000
0100
0000
0100
0000
,
0100
0000
0100
0000
0100
0000
0010
1000
,
0000
1000
0010
0100
0001
0000
0001
0000
,
1000
0000
0001
0010
0100
0000
0010
0100
,
0000
0100
0000
0000
0010
0000
0010
0000
,
0010
0000
0010
0000
0010
0000
0100
0010
,
0000
0001
1000
0000
0010
0000
0010
0000
,
0100
0100
2002
0000
,
0000
3003
1000
0100
,
0010
0100
0010
0000
0100
0010
0100
0000
,
0010
0100
0010
0000
0100
0000
0100
0000
,
1000
0001
1000
0000
0101
0000
0101
0000
,
0001
1000
0100
0000
0010
0000
0010
0000
,
0001
1000
0001
0000
1000
0001
1000
0000
,
0001
1000
0001
0000
0100
0000
0100
0000
,
0010
1000
0001
0200
0000
0000
0000
0000
,
0000
0300
1001
1001
,
1001
1001
0020
0000
,
0000
0030
0110
0110
,
0110
0110
2000
0000
,
0000
3000
1001
1001
,
1001
0000
1001
0000
1001
0000
0001
1000
,
0000
1000
0001
0000
0110
0000
0110
0000
,
1001
1001
0200
0000
,
0000
0000
0300
1002
,
0013
2001
0000
3010
1001
0000
0110
0000
,
2002
3003
0000
0000
0000
0000
0000
0000
;

//---------------dance-single - ----------------
#NOTEDATA:;
#CHARTNAME:;
#STEPSTYPE:dance-single;
#DESCRIPTION:;
#CHARTSTYLE:;
#DIFFICULTY:Easy;
#METER:5;
#RADARVALUES:0.354228,0.683339,0.276502,0.098114,0.000000,278.000000,247.000000,31.000000,11.000000,0.000000,0.000000,0.000000,0.000000,0.000000,0.354228,0.683339,0.276502,0.098114,0.000000,278.000000,247.000000,31.000000,11.000000,0.000000,0.000000,0.000000,0.000000,0.000000;
#CREDIT:;
#NOTES:
0000
0000
0000
0000
,
0001
1000
0010
1000
,
0010
0100
0010
0100
,
0001
0001
1000
0100
,
1001
1001
0001
0100
,
0010
0010
1000
0010
,
1000
0100
1000
0001
,
0010
0010
0001
1000
,
1001
1001
0001
1000
,
0010
1000
0010
1000
,
0010
1000
0010
1000
,
0001
0100
0001
0100
,
0001
1000
0001
1000
,
0001
0001
1000
1000
,
0001
0001
1000
1000
,
0001
0010
0100
1000
,
0020
0000
0000
0000
,
0130
0000
0000
0100
0000
0000
0200
0000
,
0000
0300
1000
0001
,
0000
1000
0000
0001
,
0000
1000
0000
0001
,
0100
0001
0010
0000
,
0000
0000
0001
0000
,
1000
0000
0010
0000
,
1000
0000
0100
1000
,
0010
0100
0000
0001
,
0001
1000
0001
1000
,
0010
0000
1000
0001
,
0010
0000
0001
1000
,
0010
0100
0010
0000
,
0000
0000
1000
0001
,
0010
0000
0001
1000
,
0100
0000
1000
0010
,
0100
0001
0020
0000
,
0000
0000
0030
2000
,
0000
0000
0000
0000
,
0000
3000
0001
0011
,
0000
0000
0000
0000
,
0000
0000
0001
1020
,
0000
0000
0000
0000
,
0000
0030
0000
1001
,
0000
0000
0020
0000
,
0000
0030
1000
1000
,
1000
1000
0001
1000
,
0001
1000
0001
0001
,
0001
1000
0001
0001
,
1000
0001
0100
0100
,
0100
0100
0010
0100
,
0010
0100
0010
0010
,
0100
0100
0010
1000
,
0001
0100
0000
0001
,
0010
0001
1000
0001
,
0100
0001
0010
0001
,
1000
0100
1000
0010
,
0100
0001
0020
0000
,
0000
0030
0100
0010
,
0001
0100
1000
0100
,
0010
1000
0001
0001
,
1000
1000
0002
0000
,
0000
0003
0100
0100
,
0100
0100
0010
1000
,
0001
0010
0100
0100
,
0100
0010
0100
1000
,
0001
0000
1000
1000
,
1000
1000
0001
0010
,
0001
1000
0100
0100
,
1000
1000
0020
0000
,
0000
0030
1000
0000
,
0001
0000
0010
0000
,
0001
0000
1000
1000
,
0001
0000
1001
1001
,
0001
0010
0001
0000
,
0100
0000
0010
0000
,
1000
0000
0100
0100
,
1000
0001
0200
0000
,
0000
0300
1001
1001
,
1001
1001
0000
0000
,
0000
0000
0110
0110
,
0110
0110
0000
0000
,
0000
0000
1001
1001
,
1001
1001
1001
1001
,
1001
1001
0110
0110
,
0110
0110
0120
0000
,
0000
0000
0030
1000
,
0000
0001
0000
0000
1000
0000
0000
0000
,
0000
1001
0000
0000
0000
0000
0000
0000
;

//---------------dance-single - ----------------
#NOTEDATA:;
#CHARTNAME:;
#STEPSTYPE:dance-single;
#DESCRIPTION:;
#CHARTSTYLE:;
#DIFFICULTY:Beginner;
#METER:2;
#RADARVALUES:0.156727,0.265743,0.017839,0.000000,0.000000,123.000000,121.000000,2.000000,0.000000,0.000000,0.000000,0.000000,0.000000,0.000000,0.156727,0.265743,0.017839,0.000000,0.000000,123.000000,121.000000,2.000000,0.000000,0.000000,0.000000,0.000000,0.000000,0.000000;
#CREDIT:;
#NOTES:
// measure 0
0000
0000
0000
0000
,  // measure 1
1000
0000
0000
0000
,  // measure 2
0001
0000
0000
0000
,  // measure 3
0100
0000
0000
0000
,  // measure 4
0010
0000
0000
0100
,  // measure 5
0100
0000
0000
0000
,  // measure 6
0010
0000
0000
0000
,  // measure 7
1000
0000
0000
0000
,  // measure 8
0001
0001
0001
0000
,  // measure 9
1000
0000
0000
0000
,  // measure 10
0001
0000
0000
0000
,  // measure 11
1000
0000
0000
0000
,  // measure 12
0001
0000
0000
0000
,  // measure 13
1000
0000
1000
0000
,  // measure 14
1000
0000
1000
0000
,  // measure 15
0010
0000
0010
0000
,  // measure 16
0100
0000
0000
0000
,  // measure 17
0001
0000
0000
0001
0000
0000
0001
0000
,  // measure 18
0000
0000
1000
0000
,  // measure 19
0000
0000
1000
0000
,  // measure 20
0000
0000
0010
0000
,  // measure 21
0000
0000
0100
0000
,  // measure 22
0100
0000
0010
0000
,  // measure 23
0000
0000
1000
0000
,  // measure 24
0000
0000
0001
0000
,  // measure 25
0000
0000
0000
1000
,  // measure 26
1000
1000
0001
0000
,  // measure 27
0000
0000
0100
0000
,  // measure 28
0000
0000
0010
0000
,  // measure 29
0000
0000
1000
0000
,  // measure 30
0000
0000
0001
0000
,  // measure 31
0000
0000
0010
0000
,  // measure 32
0000
0000
0001
0000
,  // measure 33
0000
0000
1001
0000
,  // measure 34
0000
0000
0010
0000
,  // measure 35
0000
0000
0000
0000
,  // measure 36
0000
0000
0000
0100
,  // measure 37
0000
0000
0000
0000
,  // measure 38
0000
0000
0000
0001
,  // measure 39
0000
0000
0000
0000
,  // measure 40
0000
0000
0000
1000
,  // measure 41
0000
0000
0000
0000
,  // measure 42
0000
0000
0010
0000
,  // measure 43
0010
0000
0010
0000
,  // measure 44
0000
0000
1000
0000
,  // measure 45
1000
0000
0001
0000
,  // measure 46
0000
0000
0100
0000
,  // measure 47
0100
0000
0100
0000
,  // measure 48
0000
0000
0001
0000
,  // measure 49
0001
0000
1000
0000
,  // measure 50
0000
0000
0000
0010
,  // measure 51
0010
0010
0100
0000
,  // measure 52
0100
0000
0100
0000
,  // measure 53
0000
0000
0001
0000
,  // measure 54
1000
0000
0001
0000
,  // measure 55
0000
0000
1000
0000
,  // measure 56
1000
0000
1000
0000
,  // measure 57
0000
0000
0010
0000
,  // measure 58
0100
0000
0000
0010
,  // measure 59
0010
0010
1000
0000
,  // measure 60
0000
0001
0001
0001
,  // measure 61
0000
0000
0001
0000
,  // measure 62
0000
0000
1000
0000
,  // measure 63
0000
0000
0010
0000
,  // measure 64
0000
0100
0100
0000
,  // measure 65
0000
0010
1000
0000
,  // measure 66
1000
0000
0001
0000
,  // measure 67
0000
0000
1000
0000
,  // measure 68
0000
0000
0001
0000
,  // measure 69
0000
0000
0010
0000
,  // measure 70
0000
0000
0001
0000
,  // measure 71
0000
0000
1000
0000
,  // measure 72
0000
0000
0010
0000
,  // measure 73
0000
0000
1000
0000
,  // measure 74
1000
0000
1000
0000
,  // measure 75
0000
0000
0010
0010
,  // measure 76
0010
0010
0000
0000
,  // measure 77
0000
0000
0100
0100
,  // measure 78
0100
0100
0000
0000
,  // measure 79
0000
0000
0001
0001
,  // measure 80
0001
0001
0001
0000
,  // measure 81
0000
0000
1000
1000
,  // measure 82
1000
1000
1000
0000
,  // measure 83
0000
0000
0000
0010
,  // measure 84
0000
0100
0000
0000
0010
0000
0000
0000
,  // measure 85
0000
1001
0000
0000
0000
0000
0000
0000
;
