#TITLE:Jetlag;
#SUBTITLE:;
#ARTIST:UCast;
#TITLETRANSLIT:;
#SUBTITLETRANSLIT:;
#ARTISTTRANSLIT:;
#GENRE:;
#CREDIT:;
#BANNER:Jetlag.png;
#BACKGROUND:Jetlag-bg.png;
#LYRICSPATH:;
#CDTITLE:;
#MUSIC:Jetlag.ogg;
#OFFSET:-0.023000;
#SAMPLESTART:41.760132;
#SAMPLELENGTH:13.913044;
#SELECTABLE:YES;
#BPMS:0.000000=138.000000
;
#STOPS:
;
#BGCHANGES:;
#KEYSOUNDS:;
#ATTACKS:;

//---------------dance-single - ----------------
#NOTES:
     dance-single:
     :
     Hard:
     8:
     0.458546,0.605547,0.262545,0.321829,0.292187,379.000000,348.000000,31.000000,38.000000,0.000000,0.000000,0.458546,0.605547,0.262545,0.321829,0.292187,379.000000,348.000000,31.000000,38.000000,0.000000,0.000000:
// measure 0
0000
0000
0000
0000
,  // measure 1
0000
0000
0000
0000
,  // measure 2
0000
0000
0000
0000
,  // measure 3
0000
0000
0000
0000
,  // measure 4
0001
0001
0000
1100
0000
0000
0000
0000
,  // measure 5
0000
0000
0000
0000
,  // measure 6
1010
0000
0000
0011
0000
0000
0000
0000
,  // measure 7
0200
0000
0000
0300
,  // measure 8
1001
0010
0010
0010
,  // measure 9
0100
0000
0100
0000
0100
0000
0001
1000
,  // measure 10
0001
1000
0001
1000
,  // measure 11
0010
0000
0100
0000
0010
0000
0100
0001
,  // measure 12
0100
0010
1000
0010
,  // measure 13
0100
0000
0001
0000
0100
0000
0001
1000
,  // measure 14
0100
1000
0010
1000
,  // measure 15
0001
0010
0001
1000
,  // measure 16
0001
0100
0001
0100
0010
1000
0010
1000
,  // measure 17
0100
1000
0100
1000
0100
0010
0100
0010
,  // measure 18
0001
0010
0001
0010
0001
1000
0001
0100
,  // measure 19
0001
1000
0001
0010
0001
0010
0100
0010
,  // measure 20
0001
1000
0100
0010
0100
1000
0001
1000
,  // measure 21
0100
0001
0100
1000
0010
0001
0010
1000
,  // measure 22
0004
4000
0000
0000
0000
0000
0000
0000
0000
0000
0000
0000
0000
0000
3003
0000
,  // measure 23
0012
0000
0000
0000
1003
0100
1000
0100
1000
0100
0010
0001
1000
0000
0000
0000
,  // measure 24
0201
0000
0000
0310
0000
0000
1000
0000
1200
0000
0000
0310
0000
0000
0001
0000
,  // measure 25
0201
0000
0000
0310
0000
0000
0100
0000
2001
0000
0000
3100
0000
0000
0010
0000
,  // measure 26
0012
0000
0000
0103
0000
0000
0010
0000
2010
0000
0000
3100
0000
0000
0010
0000
,  // measure 27
0012
0000
0000
0103
0000
0000
0010
0000
2010
0000
0000
3100
0000
0000
1000
0000
,  // measure 28
1002
0000
0000
0013
0000
0000
0001
0000
2001
0000
0000
3010
0000
0000
1000
0000
,  // measure 29
1002
0000
0000
0013
0000
0000
0001
0000
2001
0000
0000
3010
0000
0000
1000
0000
,  // measure 30
0120
0000
0000
1030
0000
0000
0010
0000
0210
0000
0000
0301
0000
0000
0001
0000
,  // measure 31
0120
0000
0000
1030
0000
0000
1000
0000
0210
0000
0000
0301
0000
0000
0001
0000
,  // measure 32
1020
0000
0000
0130
0000
0000
0001
0000
0021
0000
0000
0130
0000
0000
1000
0000
,  // measure 33
1020
0000
0000
0130
0000
0000
0010
0000
1002
0000
0000
0013
0000
0000
0100
0000
,  // measure 34
2100
0000
0000
3010
0000
0000
0100
0000
0102
0000
0000
0013
0000
0000
0100
0000
,  // measure 35
2100
0000
0000
3010
0000
0000
0100
0000
0102
0000
0000
0013
0000
0000
0001
0000
,  // measure 36
2000
0000
0000
3010
0000
0000
0100
0000
0002
0000
0000
0013
0000
0000
0100
0000
,  // measure 37
2000
0000
0000
3001
0000
0000
1000
0000
0020
0000
0000
0130
0000
0000
0001
0000
,  // measure 38
0020
0000
0000
0130
0000
0000
0010
0000
0002
0000
0000
1003
0000
0000
0010
0000
,  // measure 39
0100
0000
0000
0000
,  // measure 40
1001
0000
0000
0001
0000
0000
0001
0000
1000
0000
0000
1000
0000
0000
1000
0000
,  // measure 41
0010
0000
0000
0010
0000
0000
0010
0000
0100
0000
0000
0100
0000
0000
0100
0000
,  // measure 42
0001
0000
0000
0100
0000
0000
0001
0000
1000
0000
0000
0010
0000
0000
1000
0000
,  // measure 43
0001
0000
0000
1000
0000
0000
0001
0000
0010
0000
0000
0001
0000
0000
0010
0000
,  // measure 44
0100
0000
0000
0010
0000
0000
0100
0000
1000
0000
0000
0010
0000
0000
0100
0000
,  // measure 45
0001
0000
0000
1000
0000
0000
0001
0000
0010
0000
0000
0100
0000
0000
0010
0000
,  // measure 46
0001
0000
0000
0100
0000
0000
1000
0000
0100
0000
0000
0001
0000
0000
0010
0000
,  // measure 47
1000
0000
0000
0010
0000
0000
0001
0000
0010
0000
0000
0100
0000
0000
1000
0000
,  // measure 48
0000
0001
0000
0001
0000
1000
0000
1000
,  // measure 49
0000
0010
0000
0010
0000
1000
0000
1000
,  // measure 50
0000
0100
0000
0100
0000
1000
0000
1000
,  // measure 51
0000
0001
0000
0001
0000
0010
0000
0010
,  // measure 52
0100
0010
0100
0010
0100
0010
0100
0010
,  // measure 53
0001
0000
1000
0000
0001
0000
1000
0000
0001
0000
1000
0000
0000
0001
0100
0001
,  // measure 54
0010
0100
0000
0100
1000
0010
0000
0100
0001
0010
0000
0100
1000
0010
0000
0100
,  // measure 55
0002
0003
0002
0000
2000
0003
0020
3000
0200
0000
0330
0000
1001
0000
0000
0000
,  // measure 56
1000
0000
0000
0001
0000
0000
0100
0000
0001
0000
0010
0000
0100
0000
0010
0000
,  // measure 57
0001
0000
0000
1000
0000
0000
0010
0000
1000
0000
0001
0000
0100
0000
0001
0000
,  // measure 58
0010
0000
0000
0100
0000
0000
0010
0000
0001
0000
1000
0000
0100
0000
1000
0000
,  // measure 59
0001
0000
0000
0100
0000
0000
0010
0000
1000
0000
0001
0000
0010
0000
0001
0000
,  // measure 60
1000
0000
0000
0100
0000
0000
0001
0000
0100
0000
0010
0000
0001
0000
1000
0000
,  // measure 61
0010
0000
0000
0001
0000
0000
0010
0000
0100
0000
0010
0000
1000
0000
0100
0000
,  // measure 62
1000
0000
0000
0100
0000
0000
0001
0000
0100
0000
0010
0000
0001
0000
1000
0000
,  // measure 63
0010
0000
0000
0001
0000
0000
0010
0000
1000
0000
0001
0000
0100
0000
0001
0000
,  // measure 64
0020
0000
0000
0000
,  // measure 65
0030
0000
0000
0000
;

//---------------dance-single - ----------------
#NOTES:
     dance-single:
     :
     Medium:
     7:
     0.352076,0.433623,0.194791,0.220199,0.127038,291.000000,268.000000,23.000000,26.000000,0.000000,0.000000,0.352076,0.433623,0.194791,0.220199,0.127038,291.000000,268.000000,23.000000,26.000000,0.000000,0.000000:
// measure 0
0000
0000
0000
0000
,  // measure 1
0000
0000
0000
0000
,  // measure 2
0000
0000
0000
0000
,  // measure 3
0000
0000
0000
0000
,  // measure 4
0000
0000
0000
0000
,  // measure 5
0000
0000
0000
0000
,  // measure 6
0000
0000
0000
0000
,  // measure 7
0000
0000
0000
0000
,  // measure 8
1001
0010
0010
0010
,  // measure 9
0010
0000
0010
0000
0010
0000
0010
0100
,  // measure 10
0010
1000
0010
1000
,  // measure 11
0001
0000
0100
0000
0001
0000
0100
0001
,  // measure 12
1000
1000
1000
1000
,  // measure 13
1000
0000
1000
0000
1000
0000
1000
0001
,  // measure 14
0100
0100
0001
0001
,  // measure 15
1000
1000
0010
0010
,  // measure 16
1000
0010
1000
0000
0010
0100
0010
0000
,  // measure 17
0100
0001
0100
0000
0001
0010
0001
0000
,  // measure 18
0010
0100
0010
0000
0100
1000
0100
0000
,  // measure 19
1000
0001
1000
0000
0100
0010
0100
0000
,  // measure 20
4004
0000
0000
0000
,  // measure 21
0000
0000
0000
0000
,  // measure 22
0000
0000
0000
3003
,  // measure 23
0102
0000
0013
0010
0100
0100
1001
0000
,  // measure 24
1020
0000
0000
1030
0000
0000
0010
0000
0200
0000
0000
0301
0000
0000
0010
0000
,  // measure 25
0200
0000
0000
1300
0000
0000
0010
0000
0200
0000
0000
0301
0000
0000
1000
0000
,  // measure 26
0002
0000
0000
0103
0000
0000
0010
0000
2000
0000
0000
3100
0000
0000
0010
0000
,  // measure 27
0002
0000
0000
0103
0000
0000
0010
0000
2000
0000
0000
3100
0000
0000
0010
0000
,  // measure 28
0200
0000
0000
1300
0000
0000
1000
0000
0002
0000
0000
1003
0000
0000
1000
0000
,  // measure 29
0020
0000
0000
0130
0000
0000
0100
0000
0002
0000
0000
0013
0000
0000
0010
0000
,  // measure 30
0200
0000
0000
1300
0000
0000
0100
0000
0020
0000
0000
0130
0000
0000
0010
0000
,  // measure 31
0002
0000
0000
1003
0000
0000
0100
0000
0020
0000
0000
0130
0000
0000
1000
0000
,  // measure 32
0020
0000
0000
1030
0000
0000
0010
0000
0200
0000
0000
1300
0000
0000
0010
0000
,  // measure 33
0200
0000
0000
1300
0000
0000
0100
0000
0020
0000
0000
0031
0000
0000
1000
0000
,  // measure 34
0002
0000
0000
0103
0000
0000
0010
0000
2000
0000
0000
3100
0000
0000
0010
0000
,  // measure 35
0002
0000
0000
0103
0000
0000
0010
0000
2000
0000
0000
3100
0000
0000
0010
0000
,  // measure 36
0100
0000
0000
1000
0000
0000
1000
0000
0001
0000
0000
1000
0000
0000
1000
0000
,  // measure 37
0010
0000
0000
0100
0000
0000
0100
0000
0001
0000
0000
0010
0000
0000
0010
0000
,  // measure 38
0100
0000
0000
1000
0000
0000
0100
0000
0010
0000
0000
0100
0000
0000
0010
0000
,  // measure 39
0002
0000
0000
0003
,  // measure 40
1001
0001
1001
0001
,  // measure 41
1001
0001
1001
0001
,  // measure 42
1001
1000
1001
1000
,  // measure 43
1001
1000
1001
1000
,  // measure 44
0110
0010
0110
0010
,  // measure 45
0110
0010
0110
0010
,  // measure 46
0110
0100
0110
0100
,  // measure 47
0110
0100
0110
0100
,  // measure 48
0000
0010
0000
0010
0000
1000
0000
1000
,  // measure 49
0000
0001
0000
0001
0000
0010
0000
0010
,  // measure 50
0000
0100
0000
0100
0000
1000
0000
1000
,  // measure 51
0000
0001
0000
0001
0000
1000
0000
0001
,  // measure 52
1000
0010
1000
0000
0010
0100
0010
0000
,  // measure 53
0100
0001
0100
0000
0001
0010
0000
0010
,  // measure 54
0100
0010
0001
1000
,  // measure 55
0001
0100
1000
0010
0001
0000
1001
0000
,  // measure 56
1000
0000
0010
0000
0100
0001
0100
0000
,  // measure 57
0001
0000
1000
0000
0100
1000
0100
0000
,  // measure 58
1000
0000
0010
0000
0100
0001
0100
0000
,  // measure 59
0001
0000
0010
0000
0100
0010
0100
0000
,  // measure 60
0010
0000
0001
0000
1000
0010
1000
0000
,  // measure 61
0001
0000
0010
0000
0100
0010
0100
0000
,  // measure 62
0010
0000
0001
0000
1000
0010
1000
0000
,  // measure 63
0001
0000
1000
0000
0010
0100
0010
0000
,  // measure 64
1001
0000
0000
0000
;

//---------------dance-single - ----------------
#NOTES:
     dance-single:
     :
     Easy:
     3:
     0.169384,0.271014,0.033877,0.110100,0.000000,140.000000,136.000000,4.000000,13.000000,0.000000,0.000000,0.169384,0.271014,0.033877,0.110100,0.000000,140.000000,136.000000,4.000000,13.000000,0.000000,0.000000:
0000
0000
0000
0000
,
0000
0000
0000
0000
,
0000
0000
0000
0000
,
0000
0000
0000
0000
,
0000
0000
0000
0000
,
0000
0000
0000
0000
,
0000
0000
0000
0000
,
0000
0000
0000
0000
,
1001
0000
1000
0000
,
1000
0000
1000
0000
,
0010
0000
0100
0000
,
0010
0000
0100
0000
,
0001
0000
0001
0000
,
0001
0000
0001
0000
,
0010
0000
0010
0000
,
0001
0000
0001
0000
,
1000
0000
0001
0000
,
0100
0000
0010
0000
,
1000
0000
0010
0000
,
0100
0000
0001
0000
,
2002
0000
0000
0000
,
0000
0000
0000
0000
,
0000
0000
0000
3003
,
0020
0230
0302
1003
,
1001
0001
0010
0001
,
1000
0010
1000
0010
,
1000
0100
1000
0100
,
1000
0001
0010
0001
,
1000
0001
1000
0001
,
0100
0001
0100
0001
,
0010
0001
0010
0001
,
0100
0010
1000
0001
,
1000
0100
1000
0010
,
1000
0001
0010
0001
,
0100
0010
1000
0010
,
0100
0010
1000
0010
,
0100
0000
0001
0000
,
0010
0000
0100
0000
,
0010
0000
0001
0000
,
1000
0000
0000
0000
,
0001
0000
1000
0000
,
0010
0000
1000
0000
,
0100
0000
1000
0000
,
0001
0000
0100
0000
,
0010
0000
1000
0000
,
0010
0000
0100
0000
,
0001
0000
1000
0000
,
0010
0000
0100
0000
,
0020
0000
0000
0030
,
2000
0000
0000
3000
,
0002
0000
0000
0003
,
0200
0000
0000
0300
,
0010
0010
0010
0010
,
0100
0100
0100
0000
,
0001
1000
0001
1000
,
0020
0230
0302
2003
,
3100
0000
1000
0000
,
0010
0000
0100
0000
,
0001
0000
0010
0000
,
0001
0000
1000
0000
,
0100
0000
1000
0000
,
0010
0000
0100
0000
,
0001
0000
0010
0000
,
0001
0000
1000
0000
,
1001
0000
0000
0000
;

//---------------dance-single - ----------------
#NOTES:
     dance-single:
     :
     Beginner:
     1:
     0.094371,0.162609,0.033877,0.000000,0.000000,78.000000,74.000000,4.000000,0.000000,0.000000,0.000000,0.094371,0.162609,0.033877,0.000000,0.000000,78.000000,74.000000,4.000000,0.000000,0.000000,0.000000:
0000
0000
0000
0000
,
0000
0000
0000
0000
,
0000
0000
0000
0000
,
0000
0000
0000
0000
,
0000
0000
0000
0000
,
0000
0000
0000
0000
,
0000
0000
0000
0000
,
0000
0000
0000
0000
,
0010
0000
0000
0000
,
0010
0000
0000
0000
,
1000
0000
0000
0000
,
1000
0000
0000
0000
,
0001
0000
0000
0000
,
0001
0000
0000
0000
,
0100
0000
0000
0000
,
0100
0000
0000
0000
,
0010
0000
0000
0000
,
1000
0000
0000
0000
,
0001
0000
0000
0000
,
0100
0000
0000
0000
,
0010
0000
0010
0000
,
0010
0000
0010
0000
,
0100
0000
0100
0000
,
1001
0000
0000
0000
,
0110
0000
0010
0000
,
0010
0000
0000
0000
,
1000
0000
1000
0000
,
0001
0000
0000
0000
,
0100
0000
0100
0000
,
0001
0000
0000
0000
,
0010
0000
0010
0000
,
0100
0000
0000
0000
,
1000
0000
1000
0000
,
0001
0000
0000
0000
,
0100
0000
0100
0000
,
0010
0000
0000
0000
,
1000
0000
1000
0000
,
0001
0000
0000
0000
,
0100
0000
0100
0000
,
0100
0000
0000
0000
,
0010
0000
0010
0000
,
0010
0000
0000
0000
,
1000
0000
1000
0000
,
1000
0000
0000
0000
,
0001
0000
0001
0000
,
0001
0000
0000
0000
,
0100
0000
0100
0000
,
0100
0000
0000
0000
,
0010
0000
0000
0000
,
1000
0000
0000
0000
,
0001
0000
0000
0000
,
0010
0000
0000
0000
,
0001
0000
0000
0000
,
1000
0000
0000
0000
,
0010
0000
0100
0000
,
1001
0000
0000
0000
,
0010
0000
0000
0000
,
1000
0000
0000
0000
,
0100
0000
0000
0000
,
1000
0000
0000
0000
,
0001
0000
0000
0000
,
0100
0000
0000
0000
,
0010
0000
0000
0000
,
1000
0000
0001
0000
,
1001
0000
0000
0000
;
