#VERSION:0.83;
#TITLE:Irish wood;
#SUBTITLE:;
#ARTIST:X-Ray and Bewu;
#TITLETRANSLIT:;
#SUBTITLETRANSLIT:;
#ARTISTTRANSLIT:;
#GENRE:;
#ORIGIN:;
#CREDIT:;
#BANNER:Irish wood.png;
#BACKGROUND:Irish wood-bg.png;
#PREVIEWVID:;
#JACKET:Irish wood-jacket.png;
#CDIMAGE:;
#DISCIMAGE:;
#LYRICSPATH:;
#CDTITLE:;
#MUSIC:Irish wood.ogg;
#OFFSET:1.284000;
#SAMPLESTART:82.151390;
#SAMPLELENGTH:10.268478;
#SELECTABLE:YES;
#BPMS:0.000=186.980;
#STOPS:;
#DELAYS:;
#WARPS:;
#TIMESIGNATURES:0.000=4=4;
#TICKCOUNTS:0.000=4;
#COMBOS:0.000=1;
#SPEEDS:0.000=1.000=0.000=0;
#SCROLLS:0.000=1.000;
#FAKES:;
#LABELS:0.000=Song Start;
#BGCHANGES:;
#KEYSOUNDS:;
#ATTACKS:
;

//---------------dance-single - ----------------
#NOTEDATA:;
#CHARTNAME:;
#STEPSTYPE:dance-single;
#DESCRIPTION:;
#CHARTSTYLE:;
#DIFFICULTY:Hard;
#METER:9;
#RADARVALUES:0.574351,0.703074,0.016212,0.761942,0.036476,496.000000,494.000000,2.000000,94.000000,0.000000,0.000000,0.000000,0.000000,0.000000,0.574351,0.703074,0.016212,0.761942,0.036476,496.000000,494.000000,2.000000,94.000000,0.000000,0.000000,0.000000,0.000000,0.000000;
#CREDIT:;
#NOTES:
0000
0000
0000
0000
,
0000
0000
0000
0000
,
0000
0000
0000
0000
,
0000
0000
0000
0000
,
0000
0000
0000
0000
,
1000
0010
0100
0001
,
1000
0010
1000
0100
0020
0000
0000
0000
,
0130
1000
0001
0010
,
0100
0010
0001
1000
0002
0000
0000
0000
,
1003
0100
1000
0001
,
0010
0001
1000
0100
2000
0000
0000
0000
,
3010
0100
0001
0010
,
0100
0010
0001
1000
0020
0000
0000
0000
,
0130
0000
0001
1000
0000
1000
0000
0000
,
0100
0010
0001
1000
0010
0000
0000
0000
,
0100
0010
1000
0100
0001
0100
0001
0100
,
0010
0001
1000
0010
0100
0000
0010
1000
,
0001
0000
1000
0010
0000
0100
0000
0000
,
0010
1000
0001
0010
0100
0000
0000
0000
,
1000
0010
0100
1000
0010
0001
0010
0001
,
1000
0001
0010
0100
0002
0000
1003
0100
,
1000
0001
0010
0001
1000
0010
1000
0001
,
0010
0100
1000
0001
2000
0000
0000
0000
,
3001
1000
0100
1000
0001
0100
0001
1000
,
0100
0010
0100
1000
0002
0000
0000
0000
,
1003
0001
0010
0001
1000
0010
1000
0001
,
0010
0100
1000
0001
0020
0000
0000
0000
,
0130
0010
0001
0100
0010
1000
0100
1000
,
0001
0100
0001
0010
0200
0000
0000
0000
,
0310
0001
1000
0100
1000
0001
0100
0010
,
1000
0001
0010
0100
0020
0000
0000
0000
,
0130
0010
0001
1000
0010
0100
0001
0010
,
0001
1000
0100
1000
0002
0000
0000
0000
,
1003
0010
0100
0001
0010
0100
0010
0001
,
1000
0010
0100
0001
2000
0000
0000
0000
,
3100
0010
0001
0010
0100
0010
0001
1000
,
0010
0100
0001
0010
0200
0000
0000
0000
,
0310
0000
0010
0001
0000
1000
0000
0000
,
0001
0100
0010
1000
0100
0000
0000
0000
,
0010
0100
1000
0010
0100
0001
1000
0100
,
0001
0010
1000
0010
0100
0000
1000
0100
,
0010
0000
0100
0010
0000
0001
0000
0000
,
1000
0001
0010
0001
1000
0000
0000
0000
,
0010
1000
0010
0100
0001
0010
0001
1000
,
0100
0001
0100
0010
0001
0000
0010
0100
,
1000
1000
0001
0010
0010
0100
0010
0010
,
0001
1000
0001
0100
0002
0000
0000
0000
,
1003
1000
0010
0100
0100
0001
0010
0010
,
0100
1000
0100
0001
0200
0000
0000
0300
,
2002
0000
0000
0000
,
0000
0000
0000
0000
,
3003
0000
0000
0000
,
0000
0000
0000
0000
0100
0000
0000
0100
,
0001
0000
1000
0001
0000
0001
0000
1000
,
0010
1000
0000
0010
0100
0001
0010
0001
,
2000
0000
0001
0000
0000
3001
0000
0001
,
0020
0100
0000
0130
2000
0001
0000
0000
,
3200
0000
0310
0002
0000
1000
0000
0000
,
1003
1000
0000
0100
1000
0010
0100
0001
,
2000
0000
0010
0000
0000
3010
0000
0100
,
0002
1000
0000
1000
2003
0001
0001
0000
,
3001
0100
0001
0020
0000
0100
0000
0000
,
0130
0100
0000
1000
0000
0001
1000
0010
,
1000
0000
0100
0000
0100
0000
0010
0000
0100
0000
1000
0000
0000
0000
0001
0100
,
0001
0000
0100
0000
0000
0000
1000
0010
1000
0000
0001
0000
0100
0000
0100
0000
,
0020
2030
3200
0302
,
0203
0000
0320
0000
0032
0013
0100
0010
,
0002
0000
0000
0000
2003
0000
0000
0000
3020
0000
0000
0000
0130
0000
0001
1000
,
0020
0000
0000
0030
0200
0000
0000
0000
,
0302
0023
0230
2300
,
3020
0000
0230
0000
0302
1003
0010
0100
,
0002
0203
0320
2030
,
3100
1000
0000
0001
0000
1000
0001
0010
,
0002
0000
1003
0002
0000
1003
0002
0000
,
1003
0020
0000
0000
0000
1030
0100
1000
,
0020
0230
0302
2003
,
3200
0320
0230
0320
,
0032
0023
0230
2300
,
3002
0023
0230
0320
,
0031
0000
1000
0000
0001
0100
0001
0000
1000
0000
0001
0000
0000
0000
1000
0010
,
1000
0000
0001
0000
0000
0000
0010
0100
0010
0000
0100
0000
1000
0000
1000
0000
,
0001
0100
0010
0100
0001
0010
0001
0100
,
0010
0100
0001
0010
0200
0000
0000
0000
,
1300
0100
0010
0100
1000
0010
0100
0010
,
1000
0001
0010
0100
0020
0000
0000
0000
,
0032
0023
0032
0203
,
0320
2030
3200
0320
,
0032
0023
0032
0203
,
0320
2030
3200
0310
,
0020
0230
2300
3002
,
0203
0320
2030
3002
,
0013
0000
0100
0000
1000
0001
1000
0000
0001
0000
0100
0000
0000
0000
0010
1000
,
0010
0000
0100
0000
0000
0000
0010
0100
0010
0000
1000
0000
0001
0000
0000
0000
,
1000
0000
0000
1000
0000
0000
0000
0001
,
0100
0001
0000
0010
0000
0000
0010
0000
,
0010
0000
0000
0001
0000
0000
0000
1000
,
0001
0100
0000
1001
0000
0000
0000
0000
;

//---------------dance-single - ----------------
#NOTEDATA:;
#CHARTNAME:;
#STEPSTYPE:dance-single;
#DESCRIPTION:;
#CHARTSTYLE:;
#DIFFICULTY:Medium;
#METER:6;
#RADARVALUES:0.393709,0.507775,0.113481,0.405288,0.000000,340.000000,326.000000,14.000000,50.000000,0.000000,0.000000,0.000000,0.000000,0.000000,0.393709,0.507775,0.113481,0.405288,0.000000,340.000000,326.000000,14.000000,50.000000,0.000000,0.000000,0.000000,0.000000,0.000000;
#CREDIT:;
#NOTES:
0000
0000
0000
0000
,
0000
0000
0000
0000
,
0000
0000
0000
0000
,
0000
0000
0000
0000
,
0000
0000
0000
0000
,
1000
0001
0010
0001
,
1000
0100
2000
0000
,
3001
0010
0001
1000
,
0100
0001
0200
0000
,
0310
0001
1000
0100
,
1000
0010
0200
0000
,
0310
1000
0001
0100
,
0001
1000
0200
0000
,
1300
0000
0000
0001
0000
0000
0000
0000
,
0100
0010
0100
0001
1000
0000
0000
0000
,
0001
0100
0010
0000
1000
0000
0100
0000
,
0010
0000
0001
0010
0100
0000
0010
0001
,
1000
0000
0000
0010
0000
0000
0000
0000
,
0100
0010
0100
0001
1000
0000
0000
0000
,
0100
0000
1000
0000
0010
0000
0100
0001
,
0010
0000
0100
0000
0010
0000
0100
1000
,
0001
1000
0010
1000
,
0001
1000
0001
1000
0200
0000
0300
0000
,
1000
0010
0100
0001
,
1000
0010
0100
0001
0020
0000
0000
0000
,
0130
0010
0001
1000
,
0001
0100
0001
0100
0020
0000
0030
0000
,
1000
0100
1000
0001
,
0010
0100
1000
0001
2000
0000
0000
0000
,
3001
0101
0100
0101
,
0001
1000
1200
0300
,
1100
1000
1001
0001
,
0100
0010
1000
0001
0020
0000
0030
0000
,
0110
1000
0110
0001
,
0110
0100
1002
0003
,
0101
0001
1001
0100
,
0010
0100
0001
1000
0200
0000
0000
0000
,
1300
0000
0001
1000
0000
0001
0000
0000
,
0100
0001
0000
0000
0010
0100
0010
0000
,
0200
0000
2300
0000
3010
0000
0100
0001
,
0020
0000
0230
0000
0310
0000
0001
1000
,
0010
0000
1000
0100
0000
0010
0001
0000
,
1000
0000
0001
0100
0001
0000
0000
0000
,
0200
0301
0020
0130
,
2000
0000
3010
0000
0200
0000
0301
1000
,
0100
0000
0000
0100
0000
0000
1000
0000
,
0000
0010
0000
0000
0200
0000
0000
0000
,
0301
0000
0000
0010
0000
0000
0001
0000
,
1000
0100
0010
0100
2000
0000
0000
3000
,
0202
0000
0000
0000
,
0000
0000
0000
0000
,
0000
0000
0000
0000
,
0303
0000
0000
0000
0100
0000
0000
0100
,
0010
0000
0000
1000
0000
0100
0000
0000
,
1000
0001
0000
0000
0100
0001
0100
0010
,
2000
0000
0000
0000
3000
0000
0001
0200
,
0010
0000
0320
0000
,
1030
0000
0001
0200
0000
0000
0000
0000
,
0000
0000
0000
0000
0300
0010
0100
0001
,
2000
0000
0000
0000
0000
0000
3000
0100
,
2000
0000
3002
0000
,
0103
0001
0010
0002
0000
0000
0000
0000
,
0003
0000
0000
0000
0000
0010
0100
1000
,
0020
0000
0000
0000
,
0030
0000
0000
0000
,
1001
0000
0001
0020
0000
0000
0000
0000
,
0000
0000
0000
0000
0030
0100
0010
0001
,
2000
0000
0000
0000
0000
0000
0000
3001
,
0200
0000
0320
0000
,
0130
0010
1000
0200
0000
0000
0000
0000
,
0000
0000
0000
0000
0000
0310
0100
1000
,
0002
0000
0000
0000
,
0003
0000
0000
0000
,
1000
0000
0001
0100
0000
0001
1000
0000
,
0001
0020
0000
0000
0000
0000
0130
0010
,
0002
0000
0000
0000
0000
0000
0000
0013
,
0200
0000
2300
0000
,
0020
0000
0000
0000
,
0000
0000
0000
0000
,
3030
1000
1000
0000
0001
0000
0000
0001
,
0100
0000
0000
0100
0100
0010
1000
0000
,
0001
0100
1000
0100
,
0010
1000
0001
0010
0200
0000
0000
0000
,
0310
0001
0100
0010
,
1000
0001
0100
0001
2000
0000
0000
0000
,
3100
0000
1000
0000
0010
0000
0100
0001
,
0100
0010
1000
0001
,
0010
0100
0010
0001
,
1000
0010
0000
0100
0000
0010
0100
0001
,
2000
3010
0020
0130
,
0200
0301
0002
1003
,
0001
0000
0010
0000
0100
1000
0000
0100
,
0010
0100
0000
0100
0010
0001
0100
0010
,
1000
0000
0000
0000
0000
0000
0000
0001
,
1000
0010
0000
0100
0000
0000
0100
0000
,
0001
0000
0000
0010
0000
0000
0000
0100
,
1000
0001
0000
0110
0000
0000
0000
0000
;

//---------------dance-single - ----------------
#NOTEDATA:;
#CHARTNAME:;
#STEPSTYPE:dance-single;
#DESCRIPTION:;
#CHARTSTYLE:;
#DIFFICULTY:Easy;
#METER:4;
#RADARVALUES:0.306861,0.429656,0.040529,0.178327,0.000000,265.000000,260.000000,5.000000,22.000000,0.000000,0.000000,0.000000,0.000000,0.000000,0.306861,0.429656,0.040529,0.178327,0.000000,265.000000,260.000000,5.000000,22.000000,0.000000,0.000000,0.000000,0.000000,0.000000;
#CREDIT:;
#NOTES:
0000
0000
0000
0000
,
0000
0000
0000
0000
,
0000
0000
0000
0000
,
0000
0000
0000
0000
,
0000
0000
0000
0000
,
1000
0100
1000
0100
,
1000
0100
0020
0000
,
0031
0100
0001
0100
,
0001
1000
0200
0000
,
1300
0010
0100
0001
,
0100
0010
2000
0000
,
3001
0010
0001
0100
,
0010
1000
0020
0000
,
1030
0000
0001
0000
,
1000
0100
1000
0000
,
0100
0010
0001
0100
,
1000
0100
0010
1000
,
0001
0000
0010
0000
,
0001
1000
0001
0000
,
1000
0010
0100
1000
,
0100
0001
0010
0001
,
1000
0100
1000
0100
,
1000
0100
2000
0000
,
3001
0100
0001
0100
,
0001
0010
0200
0000
,
0310
0001
1000
0010
,
0001
0100
0020
0000
,
0130
1000
0100
0001
,
0010
0001
2000
0000
,
3001
1000
0010
1000
,
0100
1000
0200
0000
,
1300
0010
0100
0001
,
0010
0010
0020
0000
,
0130
0010
0001
1000
,
0010
0010
2000
0000
,
3001
1000
0100
1000
,
0010
0010
0200
0000
,
0301
0000
0010
0000
,
0100
1000
0010
0000
,
0100
0010
1000
1000
,
0001
0010
0001
0100
,
0001
0000
0100
0000
,
0010
1000
0100
0000
,
0010
0100
1000
0100
,
0010
0001
1000
0001
,
0100
0001
0010
0001
,
0100
0001
0011
0000
,
0001
1000
0100
1000
,
0010
1000
1001
0000
,
0202
0000
0000
0000
,
0000
0000
0000
0000
,
0303
0000
0000
0000
,
0000
0000
0000
0000
,
0100
0000
0000
0010
0000
0000
0000
0000
,
1000
0000
0000
0001
,
1000
0000
0000
0100
0000
0000
0000
0000
,
1000
0000
0010
0000
,
0100
0000
0000
0001
0000
0000
0000
0000
,
0010
0000
0001
1000
,
0100
0000
0000
0000
,
1000
0000
0010
0000
,
1000
0000
0000
0001
0000
0000
0100
0000
,
0001
0000
0100
0010
,
1000
0001
0001
0000
,
1000
0000
0001
1000
,
0010
0000
0000
0200
0000
0000
0000
0000
,
0000
0000
0000
0301
,
0020
0000
0000
0000
0000
0000
0000
0031
,
1000
0000
0010
0000
,
0100
0000
0000
0002
0000
0000
0000
0000
,
0000
0000
0000
0000
0000
0000
1003
0001
,
0200
0000
0000
0000
,
0000
0000
0000
0000
,
0310
0000
0000
0100
0000
0000
0010
0000
,
0000
1000
0000
0000
0000
0000
0100
0010
,
0200
0000
0000
0000
,
1300
0000
0001
0000
,
0200
0000
0000
0000
,
0000
0000
0000
0300
,
0000
0010
0010
0000
,
1000
0000
0000
0000
0100
0010
0001
1000
,
0001
0100
0001
0100
,
0010
1000
0200
0000
,
0310
0100
1000
0001
,
0010
0010
0002
0000
,
0013
0100
1000
0000
,
1000
0100
0010
0000
,
0010
0001
0100
0000
,
0010
0100
0001
0000
,
1000
0100
0010
0001
,
0010
0100
0010
0001
,
1000
0100
0010
0001
,
1000
0100
0010
0001
,
1001
0000
0000
0000
0000
0000
0000
1000
,
0010
0100
0000
0010
0000
0000
0000
0000
,
0010
0000
0000
0000
0000
0000
0000
0100
,
0001
0010
0000
1001
0000
0000
0000
0000
;

//---------------dance-single - ----------------
#NOTEDATA:;
#CHARTNAME:;
#STEPSTYPE:dance-single;
#DESCRIPTION:;
#CHARTSTYLE:;
#DIFFICULTY:Beginner;
#METER:2;
#RADARVALUES:0.129692,0.234358,0.024317,0.000000,0.000000,112.000000,109.000000,3.000000,0.000000,0.000000,0.000000,0.000000,0.000000,0.000000,0.129692,0.234358,0.024317,0.000000,0.000000,112.000000,109.000000,3.000000,0.000000,0.000000,0.000000,0.000000,0.000000,0.000000;
#CREDIT:;
#NOTES:
// measure 0
0000
0000
0000
0000
,  // measure 1
0000
0000
0000
0000
,  // measure 2
0000
0000
0000
0000
,  // measure 3
0000
0000
0000
0000
,  // measure 4
0000
0000
0000
0000
,  // measure 5
1000
0000
0000
0000
,  // measure 6
0000
0000
0000
0000
,  // measure 7
0010
0000
0000
0000
,  // measure 8
0000
0000
0000
0000
,  // measure 9
0100
0000
0000
0000
,  // measure 10
0000
0000
0000
0000
,  // measure 11
0001
0000
0000
0000
,  // measure 12
0000
0000
0000
0000
,  // measure 13
1000
0000
0000
0000
,  // measure 14
0010
0010
0010
0000
,  // measure 15
0100
0000
0000
0000
,  // measure 16
0001
0000
0000
0000
,  // measure 17
1000
0000
0000
0000
,  // measure 18
0001
0001
0001
0000
,  // measure 19
0100
0000
0000
0000
,  // measure 20
0010
0000
0000
0000
,  // measure 21
1000
0000
0000
0000
,  // measure 22
0000
0000
0100
0000
,  // measure 23
1000
0000
0000
0000
,  // measure 24
0010
0000
0010
0000
,  // measure 25
0100
0000
0000
0000
,  // measure 26
0001
0000
0001
0000
,  // measure 27
1000
0000
0000
0000
,  // measure 28
0010
0000
0010
0000
,  // measure 29
0100
0000
0000
0000
,  // measure 30
0010
0000
1000
0000
,  // measure 31
0001
0000
0000
0000
,  // measure 32
1000
0000
0001
0000
,  // measure 33
0100
0000
0000
0000
,  // measure 34
0010
0000
0100
0000
,  // measure 35
0010
0000
0000
0000
,  // measure 36
1000
0000
0001
0000
,  // measure 37
1000
0000
0000
0000
,  // measure 38
0100
0100
0010
0000
,  // measure 39
0001
0000
0000
0000
,  // measure 40
0100
0000
0000
0000
,  // measure 41
0010
0000
0000
0000
,  // measure 42
1000
1000
0001
0000
,  // measure 43
0100
0000
0000
0000
,  // measure 44
0010
0000
0000
0000
,  // measure 45
1000
0000
1000
0000
,  // measure 46
1000
0000
1000
0000
,  // measure 47
0001
0000
0001
0000
,  // measure 48
0001
0000
0001
0000
,  // measure 49
0110
0000
0000
0000
,  // measure 50
0000
0000
0000
0000
,  // measure 51
0000
0000
0000
0000
,  // measure 52
0000
0000
0000
0000
,  // measure 53
0010
0000
0000
0000
,  // measure 54
0100
0000
0000
0001
,  // measure 55
0001
0000
0000
0000
,  // measure 56
1000
0000
0001
0000
,  // measure 57
0100
0000
0000
0000
,  // measure 58
0000
0000
0000
0010
,  // measure 59
0010
0000
0000
0000
,  // measure 60
1000
0000
0001
0000
,  // measure 61
1000
0000
0000
0000
,  // measure 62
0000
0000
0000
0100
,  // measure 63
0100
0000
0000
0000
,  // measure 64
0000
0000
0000
0000
,  // measure 65
0010
0000
0001
0000
,  // measure 66
1000
0000
0000
0001
,  // measure 67
0001
0000
0000
0000
,  // measure 68
1000
0000
0001
0000
,  // measure 69
0100
0000
0000
0000
,  // measure 70
0000
0000
0000
0010
,  // measure 71
0010
0000
0000
0000
,  // measure 72
0000
0000
0000
0000
,  // measure 73
1000
0000
0000
1000
,  // measure 74
0000
0000
0000
0001
,  // measure 75
0001
0000
0000
0000
,  // measure 76
0010
0000
0100
0000
,  // measure 77
1000
0000
0000
0000
,  // measure 78
0000
0000
0000
0000
,  // measure 79
0001
0000
0000
0000
,  // measure 80
0000
0000
0000
0000
,  // measure 81
1001
0000
0000
0000
,  // measure 82
0000
0000
0000
0000
,  // measure 83
0100
0000
0000
0000
,  // measure 84
0010
0010
0010
0000
,  // measure 85
1001
0000
0000
0000
,  // measure 86
0000
0000
0000
0000
,  // measure 87
1000
0000
0000
0000
,  // measure 88
0000
0000
0000
0000
,  // measure 89
0001
0000
0000
0000
,  // measure 90
0010
0000
0000
0000
,  // measure 91
0001
0000
0000
0000
,  // measure 92
1000
0000
0000
0000
,  // measure 93
0100
0000
0000
0000
,  // measure 94
1000
0000
0000
1000
,  // measure 95
1000
0000
0000
0000
,  // measure 96
0001
0000
0000
0100
0000
0000
0000
0000
;
