#TITLE:Intravenous;
#SUBTITLE:;
#ARTIST:Arkasia;
#TITLETRANSLIT:;
#SUBTITLETRANSLIT:;
#ARTISTTRANSLIT:;
#GENRE:;
#CREDIT:;
#BANNER:Intravenous.png;
#BACKGROUND:Intravenous-bg.png;
#LYRICSPATH:;
#CDTITLE:;
#MUSIC:Intravenous.ogg;
#OFFSET:1.706999;
#SAMPLESTART:27.435860;
#SAMPLELENGTH:13.714283;
#LASTBEATHINT:1.602998;
#SELECTABLE:YES;
#BPMS:0.000000=140.000000
,164.000000=70.000000
,171.000000=140.000000
;
#STOPS:
;
#BGCHANGES:;
#KEYSOUNDS:;
#ATTACKS:;

//---------------dance-single - ----------------
#NOTES:
     dance-single:
     :
     Hard:
     10:
     0.603676,0.793597,0.290928,0.305475,0.607313,581.000000,541.000000,40.000000,42.000000,0.000000,0.000000,0.603676,0.793597,0.290928,0.305475,0.607313,581.000000,541.000000,40.000000,42.000000,0.000000,0.000000:
// measure 0
0000
0000
0000
0000
,  // measure 1
0000
0000
0000
0000
,  // measure 2
0000
0000
0000
0000
,  // measure 3
0000
0000
0000
0000
,  // measure 4
0000
0000
0000
0000
,  // measure 5
1000
0010
0100
0001
0100
0010
1000
0010
,  // measure 6
0100
0001
0010
0001
1000
0100
0010
0100
,  // measure 7
1000
0000
0000
0100
0000
0000
0000
0000
0000
0100
0000
0000
0010
0000
0000
0001
0000
0000
1000
0000
0000
0010
0000
0000
1000
0000
0000
0000
0000
0000
0100
0000
0000
0000
0000
0000
0010
0000
0000
0000
0100
0000
0000
0000
1000
0000
0000
0000
,  // measure 8
0001
0000
0100
0010
0100
0000
0010
0000
0010
0000
1000
0000
0100
0000
0000
0000
,  // measure 9
2004
0000
0000
0000
,  // measure 10
0000
0000
0000
0000
,  // measure 11
0000
0000
0000
0000
,  // measure 12
0000
0000
0000
3003
,  // measure 13
1000
0100
0000
0000
0100
0010
0000
0000
,  // measure 14
0010
0001
0000
0000
0001
0010
0100
0000
,  // measure 15
0000
0010
0001
0100
0000
0010
1000
0100
,  // measure 16
0000
0010
0001
0100
0001
1000
0010
0000
,  // measure 17
1000
1200
0000
0000
0310
0012
0000
0000
,  // measure 18
1003
1020
0000
0000
1030
1001
0101
0000
,  // measure 19
0000
0001
0100
1000
0000
1000
0100
0001
,  // measure 20
0000
0000
0001
0000
0010
0000
1000
0000
0010
0000
0001
0000
1000
0000
0001
1000
,  // measure 21
0001
0201
0000
0000
0310
2010
0000
0000
,  // measure 22
3100
0012
0000
0000
1003
0001
0011
0000
,  // measure 23
0000
0001
0100
1000
0000
1000
0010
0001
,  // measure 24
0000
0001
0010
1000
0100
0010
0001
0000
,  // measure 25
1000
1000
0010
0100
0001
0001
0100
0010
,  // measure 26
1000
1000
0100
0010
0100
1000
0001
0000
,  // measure 27
0000
0001
0100
0010
0000
0100
0010
0001
,  // measure 28
0000
0000
0001
0000
0010
0000
0010
0000
0100
0000
1000
0000
0100
0000
0010
1000
,  // measure 29
0001
0001
0100
0010
1000
1000
0010
0100
,  // measure 30
1000
1000
0001
0100
0010
0010
0100
0000
,  // measure 31
0000
0010
0100
0100
0000
0001
1000
1000
,  // measure 32
0000
0100
0010
0010
0100
0001
0100
0000
,  // measure 33
1001
0000
0001
0000
0100
0000
1000
0000
0100
0010
1000
0000
1100
0000
0000
0000
,  // measure 34
0100
0000
0100
0000
0100
0000
0000
0000
0010
0000
0010
0000
0010
0100
1000
0001
,  // measure 35
0100
1000
0010
0100
0001
0010
0001
0100
0010
1000
0100
0010
,  // measure 36
0001
0000
0010
0000
0100
0000
0010
0000
0001
0000
1000
0000
0010
0000
0000
2000
0000
0000
0002
0000
0000
3003
0000
0000
,  // measure 37
0101
0000
0100
0000
0010
1000
0100
0000
0010
0001
0100
0000
1001
0000
0000
0000
,  // measure 38
1000
0000
1000
0010
1000
0000
0000
0000
0001
0000
0100
0010
1000
0001
0010
0001
,  // measure 39
1000
0100
0100
0100
0010
0100
1000
0010
0100
0001
0001
1000
,  // measure 40
1000
0010
0010
0010
0100
0001
0010
0010
0010
0100
0100
0100
,  // measure 41
2002
0000
0000
0000
,  // measure 42
0000
0000
0000
0000
0000
0000
0000
0000
0000
0000
0000
3003
0010
0100
0010
0000
,  // measure 43
1001
0000
1001
0000
0000
0001
0000
1000
0000
1000
0001
0000
0001
0000
1000
0010
,  // measure 44
0000
0010
0000
0100
0010
1000
0001
0100
0000
0100
0000
0010
1000
0000
1000
0000
,  // measure 45
0100
0010
0001
1000
0001
0100
0000
0100
0000
0001
0010
0000
0010
0000
0010
0001
,  // measure 46
0000
0001
0000
1000
0010
1000
0100
1000
0001
0000
0001
0000
0100
0010
0100
0000
,  // measure 47
0002
0000
2003
0100
3000
0010
0000
0001
0000
1000
0100
0000
1000
0000
0001
0100
,  // measure 48
0000
0010
0000
0100
0001
0100
0010
1000
0000
0001
0000
0010
0100
0000
0010
0000
,  // measure 49
0001
1000
0001
0100
0001
0010
0000
0100
0000
1000
0010
0000
0100
0000
0001
1000
,  // measure 50
0000
0100
0000
0010
0001
1000
0100
1000
0001
0000
0100
0000
0000
0010
0100
0001
,  // measure 51
2000
0000
3200
0000
0320
0100
0000
0130
0000
0020
0001
0000
0031
0000
0002
1000
,  // measure 52
0000
1003
0000
0010
0100
0001
2000
0100
0000
3100
0000
0020
0100
0000
0130
0000
,  // measure 53
0020
0031
1000
0100
0020
0100
0000
0130
0000
0020
0001
0000
0031
0000
0002
1000
,  // measure 54
0000
1003
0000
0001
0010
0001
1000
0100
0010
0000
0010
0000
0000
0100
0010
0001
,  // measure 55
1000
0000
0010
0000
0100
0001
0000
0011
0000
0010
0100
0000
1100
0000
1000
0001
,  // measure 56
0000
0101
0000
0001
0100
0001
1000
0100
0000
1100
0000
1000
0001
0000
0011
0000
,  // measure 57
0001
1000
0010
0100
0001
0010
0000
1001
0000
0001
1000
0000
1100
0000
1000
0001
,  // measure 58
0000
0011
0000
0010
0100
1000
0001
0100
0001
0000
1000
0000
0000
0010
1000
0001
,  // measure 59
0020
0230
1300
0201
0000
0000
0310
1200
,  // measure 60
0000
0000
0310
1002
0000
0000
0013
1002
,  // measure 61
0200
0000
0303
0001
2010
3100
0000
1000
,  // measure 62
0120
0031
0000
0100
0120
0130
0010
0001
,  // measure 63
1000
0000
0001
1000
0010
0000
1020
0000
0000
0000
0000
0000
0130
0000
0021
0000
,  // measure 64
0000
0000
0130
2001
0000
0000
3100
2001
,  // measure 65
0020
0000
3030
1000
0102
0013
0000
0001
,  // measure 66
0210
1300
0000
1000
0210
0310
1000
0100
,  // measure 67
0010
0000
0001
0010
0001
0100
0001
1000
,  // measure 68
0100
1000
0010
0100
0001
0100
0010
1000
,  // measure 69
0100
1000
0010
0100
0001
0010
0100
0010
,  // measure 70
0001
1000
0100
0010
0001
0100
1000
0100
,  // measure 71
0010
0000
0000
0000
0000
0000
1000
0000
0000
0001
0000
0000
1000
0000
0000
0000
0100
0000
0000
0000
1000
0000
0000
0000
0100
0000
0000
0000
1000
0000
0000
0000
0100
0000
0000
0000
1000
0000
0000
0000
0001
0000
0000
0000
0100
0000
0000
0000
,  // measure 72
0001
0100
0001
0100
0010
0100
0010
0100
0010
1000
0010
1000
,  // measure 73
0010
1000
0010
0100
0001
0100
0001
0100
0001
0100
0010
0100
,  // measure 74
0010
0100
0010
1000
0010
0100
0001
0010
1000
0010
0100
1000
,  // measure 75
0010
0101
0000
0000
;

//---------------dance-single - ----------------
#NOTES:
     dance-single:
     :
     Easy:
     4:
     0.210923,0.383116,0.189103,0.225469,0.000000,203.000000,177.000000,26.000000,31.000000,0.000000,0.000000,0.210923,0.383116,0.189103,0.225469,0.000000,203.000000,177.000000,26.000000,31.000000,0.000000,0.000000:
// measure 0
0000
0000
0000
0000
,  // measure 1
0000
0000
0000
0000
,  // measure 2
0000
0000
0000
0000
,  // measure 3
0000
0000
0000
0000
,  // measure 4
0000
0000
0000
0000
,  // measure 5
1000
0000
0001
0000
,  // measure 6
0100
0001
0100
0000
,  // measure 7
0010
0000
1000
0000
,  // measure 8
0010
1000
0100
0000
,  // measure 9
2002
0000
0000
0000
,  // measure 10
0000
0000
0000
0000
,  // measure 11
0000
0000
0000
0000
,  // measure 12
0000
0000
0000
3003
,  // measure 13
1000
0000
1000
0000
,  // measure 14
1000
0000
1000
0001
,  // measure 15
0000
0001
0000
0001
,  // measure 16
0000
0001
1000
0010
,  // measure 17
0110
0000
0101
0000
,  // measure 18
1010
0000
1100
1001
,  // measure 19
0000
0001
0000
1000
,  // measure 20
0000
0010
1000
0100
,  // measure 21
0110
0000
0011
0000
,  // measure 22
0110
0000
0011
0101
,  // measure 23
0000
0001
0000
1000
,  // measure 24
0000
0010
1000
0100
,  // measure 25
1000
0100
0010
0100
,  // measure 26
1000
0100
0010
0001
,  // measure 27
0010
0100
0010
0001
,  // measure 28
0010
0100
1000
1000
,  // measure 29
0001
1000
0010
1000
,  // measure 30
0001
1000
0010
1000
,  // measure 31
0001
0100
0001
1000
,  // measure 32
0100
1000
0001
0100
,  // measure 33
1001
0000
0001
0000
1000
0010
1000
0000
,  // measure 34
0010
0010
0010
0000
0100
0100
0100
0000
,  // measure 35
2002
0000
0000
0000
,  // measure 36
0000
0000
3003
0000
,  // measure 37
0001
0000
0100
0000
0010
0010
0010
0000
,  // measure 38
0100
0100
0100
0000
0001
0001
0001
0000
,  // measure 39
2200
0000
0000
0000
,  // measure 40
0000
0000
0000
3300
,  // measure 41
1001
0000
0000
0000
,  // measure 42
0000
0000
0000
1000
,  // measure 43
0002
0000
0000
0000
,  // measure 44
0000
0000
0000
2003
0000
0000
0000
0000
,  // measure 45
0000
3020
0000
0000
,  // measure 46
0000
0000
0000
0030
0200
0000
0000
0000
,  // measure 47
0310
0020
0000
0000
,  // measure 48
0000
0000
0000
2030
0000
0000
0000
0000
,  // measure 49
0000
3002
0000
0000
,  // measure 50
0000
0000
0203
0000
,  // measure 51
0310
2000
0000
0000
,  // measure 52
0000
0000
0000
3200
0000
0000
0000
0000
,  // measure 53
0000
2300
0000
0000
,  // measure 54
0000
0000
3002
0000
,  // measure 55
0103
0012
0000
0000
,  // measure 56
0000
0003
0000
0200
0000
0000
0000
0000
,  // measure 57
0320
0230
0000
0000
,  // measure 58
0000
0000
0302
0000
0013
0000
0001
1000
,  // measure 59
0001
0010
0100
0000
0000
0000
0010
0000
,  // measure 60
0000
0001
0000
1000
,  // measure 61
1001
0000
0001
0000
,  // measure 62
1000
0000
0001
1000
,  // measure 63
0010
1100
0000
0011
,  // measure 64
0000
0101
0000
1010
,  // measure 65
1001
0000
0101
0000
,  // measure 66
1001
0000
1100
0100
,  // measure 67
0010
0010
0001
0100
,  // measure 68
0001
1000
0100
1000
,  // measure 69
0010
0100
0001
0100
,  // measure 70
0010
1000
0001
0100
,  // measure 71
0001
0020
0031
0002
,  // measure 72
1003
2000
3010
0020
,  // measure 73
0130
0200
0310
0020
,  // measure 74
1030
2000
3001
0002
,  // measure 75
0103
1001
0000
0000
;

//---------------dance-single - ----------------
#NOTES:
     dance-single:
     :
     Medium:
     7:
     0.394831,0.519943,0.298201,0.101825,0.214559,380.000000,339.000000,41.000000,14.000000,0.000000,0.000000,0.394831,0.519943,0.298201,0.101825,0.214559,380.000000,339.000000,41.000000,14.000000,0.000000,0.000000:
// measure 0
0000
0000
0000
0000
,  // measure 1
0000
0000
0000
0000
,  // measure 2
0000
0000
0000
0000
,  // measure 3
0000
0000
0000
0000
,  // measure 4
0000
0000
0000
0000
,  // measure 5
1000
0000
0000
0000
0001
0000
0010
0100
,  // measure 6
0000
0100
1000
0000
0100
0000
0000
0000
,  // measure 7
0010
0000
0000
0001
0000
0000
1000
0000
0001
0000
0000
0000
0100
0000
0010
0000
,  // measure 8
1000
0000
0100
0000
0010
0001
0100
0000
,  // measure 9
4004
0000
0000
0000
,  // measure 10
0000
0000
0000
0000
,  // measure 11
0000
0000
0000
0000
,  // measure 12
0000
0000
0000
0000
0000
0000
0000
3003
,  // measure 13
1000
0000
0001
0000
,  // measure 14
1000
0000
0001
1001
,  // measure 15
0000
0110
0000
1001
,  // measure 16
0000
0110
1001
0110
,  // measure 17
1000
0010
0000
0000
0100
0001
0000
0000
,  // measure 18
0001
0010
0000
0000
0100
0010
0001
0000
,  // measure 19
0000
1000
0100
0001
0000
0001
0100
1000
,  // measure 20
0000
1000
0100
0001
0100
0010
0001
0000
,  // measure 21
1000
0001
0000
0000
0001
0100
0000
0000
,  // measure 22
0100
0010
0000
0000
0010
0100
0001
0000
,  // measure 23
0000
0001
0010
1000
0000
1000
0010
0001
,  // measure 24
0000
0001
0010
1000
0010
0100
1000
0000
,  // measure 25
0001
0000
0100
0010
1010
0000
1000
0010
,  // measure 26
0101
0000
0001
0010
0011
0001
1000
0000
,  // measure 27
0000
0001
0100
1000
0000
1000
0100
0001
,  // measure 28
0000
0001
0100
0010
1000
0100
0001
0100
,  // measure 29
0010
0000
0001
1000
1010
0000
1000
0100
,  // measure 30
1100
0000
0100
0010
0011
0001
1000
0000
,  // measure 31
0000
0001
0100
1000
0000
1000
0100
0001
,  // measure 32
0000
0001
0100
1000
0100
0010
1000
0000
,  // measure 33
1010
0101
0011
1001
,  // measure 34
1100
1100
0101
1001
,  // measure 35
0440
0000
0000
0000
,  // measure 36
0000
0000
0330
0000
1000
0001
0010
0000
,  // measure 37
0011
1001
0101
0011
,  // measure 38
1001
1001
0110
0110
,  // measure 39
4004
0000
0000
0000
,  // measure 40
0000
0000
0000
0000
0000
0000
0000
3003
,  // measure 41
0110
0000
0000
0000
,  // measure 42
0000
0000
0000
0000
0000
0000
1000
0001
,  // measure 43
0100
0000
0100
0000
0000
0010
0000
0100
0000
0000
0001
0000
0010
0000
0000
0100
,  // measure 44
0000
1000
0000
0000
0000
0000
0000
1000
0000
0100
0000
0000
1000
0000
0001
0000
,  // measure 45
0000
0100
0000
0010
0000
1000
0000
0100
0000
0000
0010
0000
0001
0000
0000
0001
,  // measure 46
0000
1000
0000
0000
0010
0000
0000
0000
0100
0000
0001
0000
0000
0010
0100
0000
,  // measure 47
1000
0000
0100
0000
0010
0100
0000
1000
0000
0000
0001
0000
1000
0000
0000
0010
,  // measure 48
0000
1000
0000
0000
0000
0000
0000
0001
0000
0100
0000
0000
0010
0000
1000
0000
,  // measure 49
0000
0100
0000
0010
0000
0001
0000
1000
0000
0000
0010
0000
1000
0000
0000
0001
,  // measure 50
0000
1000
0000
0000
0100
0000
1000
0000
0001
0000
1000
0000
0000
0001
0100
0000
,  // measure 51
0010
0000
1000
0000
0100
0010
0000
0010
0000
0010
0001
0000
0001
0000
0001
1000
,  // measure 52
0000
1000
0000
0000
0000
0000
0000
0010
0000
0010
0000
0010
0100
0000
0100
0000
,  // measure 53
0100
0001
0000
0001
0000
1000
0000
1000
0000
1000
0100
0000
0100
0000
0100
0010
,  // measure 54
0000
0010
0000
0010
0001
0000
1000
0000
0010
0000
0100
0000
0000
0000
0001
0000
,  // measure 55
0010
0000
1000
0000
0010
0100
0000
1000
0000
0100
1000
0000
0001
0000
1000
0001
,  // measure 56
0000
0100
0000
0000
0000
0000
0000
0100
0000
0010
0000
0100
0010
0000
0100
0000
,  // measure 57
0010
1000
0000
0001
0000
0001
0000
1000
0000
0001
0010
0000
0100
0000
0010
0100
,  // measure 58
0000
1000
0000
0100
1000
0000
0001
0000
0100
0000
0010
0000
0000
0000
1000
0000
,  // measure 59
0010
0001
0010
0110
0000
0000
1000
1010
,  // measure 60
0000
0000
0100
0101
0000
0000
0001
1000
,  // measure 61
1001
0000
0000
0001
0100
1000
0000
1000
,  // measure 62
0100
0010
0000
1000
0010
0001
0010
0100
,  // measure 63
0001
0000
1000
1001
0000
0000
0001
0011
,  // measure 64
0000
0000
1000
1100
0000
0000
1000
0001
,  // measure 65
1001
0000
0000
0001
0100
1000
0000
1000
,  // measure 66
0100
0010
0000
0010
0100
0001
0010
0100
,  // measure 67
1000
0001
1000
0010
,  // measure 68
1000
0100
1000
0001
,  // measure 69
0100
0000
0001
1000
,  // measure 70
0010
1000
0100
1000
,  // measure 71
0001
2000
3200
0320
,  // measure 72
0032
0023
0230
0320
,  // measure 73
0032
2003
3200
0320
,  // measure 74
0032
0000
0023
0000
0230
0000
1300
0001
,  // measure 75
0100
1001
0000
0000
;

//---------------dance-single - ----------------
#NOTES:
     dance-single:
     :
     Beginner:
     2:
     0.113254,0.191558,0.072732,0.000000,0.000000,109.000000,99.000000,10.000000,0.000000,0.000000,0.000000,0.113254,0.191558,0.072732,0.000000,0.000000,109.000000,99.000000,10.000000,0.000000,0.000000,0.000000:
// measure 0
0000
0000
0000
0000
,  // measure 1
0000
0000
0000
0000
,  // measure 2
0000
0000
0000
0000
,  // measure 3
0000
0000
0000
0000
,  // measure 4
0000
0000
0000
0000
,  // measure 5
0010
0000
0000
0000
,  // measure 6
1000
0000
0000
0000
,  // measure 7
0001
0000
0000
0000
,  // measure 8
1000
0000
0001
0000
,  // measure 9
0110
0000
0000
0000
,  // measure 10
0000
0000
0000
0000
,  // measure 11
0000
0000
0000
0000
,  // measure 12
0000
0000
0000
0000
,  // measure 13
1000
0000
0000
0000
,  // measure 14
1000
0000
0000
0000
,  // measure 15
0000
0001
0000
0001
,  // measure 16
0000
0001
1000
0001
,  // measure 17
1001
0000
1000
0000
,  // measure 18
1000
0000
0000
0000
,  // measure 19
0000
0001
0000
0001
,  // measure 20
0000
0001
0000
0000
,  // measure 21
0100
0000
0010
0000
,  // measure 22
0100
0000
0010
0000
,  // measure 23
0000
1000
0000
1000
,  // measure 24
0000
0001
0000
0000
,  // measure 25
1001
0000
0001
0000
,  // measure 26
0001
0000
1000
0000
,  // measure 27
0000
0001
0000
0001
,  // measure 28
0000
0001
0000
0000
,  // measure 29
0110
0000
0010
0000
,  // measure 30
0100
0000
0010
0000
,  // measure 31
0000
0100
0000
0100
,  // measure 32
0000
0100
0000
0000
,  // measure 33
1001
0000
0000
0000
,  // measure 34
0000
0000
0000
0000
,  // measure 35
0010
0000
0000
0000
,  // measure 36
0000
0000
0100
0100
,  // measure 37
1001
0000
0000
0000
,  // measure 38
0000
0000
0000
0000
,  // measure 39
1000
0000
0000
0000
,  // measure 40
1000
0000
0001
1000
,  // measure 41
0110
0000
0000
0000
,  // measure 42
0000
0000
0000
0000
,  // measure 43
1000
0000
0000
0000
,  // measure 44
0000
0000
0000
1000
0000
0000
0000
0000
,  // measure 45
0000
0001
0000
0000
,  // measure 46
0000
0000
1000
0000
,  // measure 47
0000
0001
0000
0000
,  // measure 48
0000
0000
0000
0100
0000
0000
0000
0000
,  // measure 49
0000
0010
0000
0000
,  // measure 50
0000
1000
0000
0000
,  // measure 51
0000
1000
0000
0000
,  // measure 52
0000
0000
0000
0010
0000
0000
0000
0000
,  // measure 53
0000
0100
0000
0000
,  // measure 54
0000
0000
0010
0000
,  // measure 55
0000
1000
0000
0000
,  // measure 56
0000
0001
0000
0000
0000
0000
0000
0000
,  // measure 57
0000
0100
0000
0000
,  // measure 58
0000
0000
0010
0000
,  // measure 59
1000
1001
0000
0001
,  // measure 60
0000
0001
0000
0001
,  // measure 61
0000
0000
1000
0000
,  // measure 62
1000
0000
1000
0000
,  // measure 63
0000
0010
0000
0100
,  // measure 64
0000
0010
0000
0100
,  // measure 65
0000
0000
0001
0000
,  // measure 66
0001
0000
0001
0000
,  // measure 67
0000
1001
0000
1000
,  // measure 68
0000
0001
0000
1000
,  // measure 69
0000
0000
0010
0000
,  // measure 70
0100
0000
0010
0000
,  // measure 71
0100
0001
0000
0010
,  // measure 72
0000
0100
0000
1000
,  // measure 73
0000
0100
0000
0010
,  // measure 74
0000
0001
0000
1000
,  // measure 75
0001
1001
0000
0000
;
