#TITLE:Insane Techniques;
#SUBTITLE:;
#ARTIST:kors k;
#TITLETRANSLIT:;
#SUBTITLETRANSLIT:;
#ARTISTTRANSLIT:;
#GENRE:;
#CREDIT:;
#BANNER:Insane Techniques.png;
#BACKGROUND:Insane Techniques-bg.png;
#LYRICSPATH:;
#CDTITLE:;
#MUSIC:30. Insane Techniques.ogg;
#OFFSET:1.095000;
#SAMPLESTART:95.890396;
#SAMPLELENGTH:11.506844;
#LASTBEATHINT:0.182500;
#SELECTABLE:YES;
#BPMS:0.000000=146.000000
;
#STOPS:34.000000=0.411000,
233.000000=0.205000,
233.500000=0.205000,
278.000000=0.411000
;
#BGCHANGES:0.000=Insane Techniques BGA.avi=1.000=1=0=0=StretchNoLoop==CrossFade==,
0.231=Insane Techniques-bg.png=1.000=0=0=1=Centered====,
99999=-nosongbg-=1.000=0=0=0 // don't automatically add -songbackground-
;
#KEYSOUNDS:;
#ATTACKS:;

//---------------dance-single - ----------------
#NOTES:
     dance-single:
     :
     Hard:
     9:
     0.535524,0.629028,0.134446,0.166080,0.249120,436.000000,17.000000,21.000000,0.000000,0.000000,0.000000,0.535524,0.629028,0.134446,0.166080,0.249120,436.000000,17.000000,21.000000,0.000000,0.000000,0.000000:
0000
0000
0000
0000
,
0000
0000
0000
0000
,
0000
0000
0000
0000
,
0000
0000
0000
0000
,
0000
0000
0000
0000
,
0020
0000
0000
0000
,
0000
0000
0000
0000
,
0200
0000
0000
0000
,
0000
0000
0000
0000
0330
0000
0001
0100
,
1000
0100
0010
1000
0001
0010
0100
1000
,
0100
0001
0100
0010
0001
1000
0010
1000
,
0100
0001
0100
0010
0001
1000
0010
0100
,
1000
0000
0200
0000
0000
0000
0310
0000
0000
0000
0100
0000
0001
0000
0000
1000
,
0010
1000
2000
3200
0320
0032
1003
0001
,
0100
0000
0010
1000
0000
1000
0000
1000
0010
0000
0100
0000
0001
0000
1000
0000
,
0010
0100
0101
0000
1010
0000
1000
0100
,
0002
0013
1000
0000
0000
0000
0001
1000
,
0100
0000
0000
0010
0000
0100
0000
0000
0100
0000
1000
0000
0001
0000
0100
0000
,
0010
0000
0000
0100
0000
0001
0000
0000
0001
0000
0100
0000
0010
0000
1000
0000
,
0100
0000
0000
1000
0000
0100
0000
0000
0010
0000
0001
0000
1000
0000
0010
0000
,
0100
0000
0000
0010
0000
1000
0000
0000
0001
0000
0010
0000
0100
0000
0010
0000
,
0001
0000
1000
0010
0000
0010
0000
0000
0100
0000
0001
0000
1000
0000
0100
0000
,
1000
0000
0010
0100
0000
0100
0000
0010
2000
0000
0000
0000
3001
0000
1000
0001
,
0000
0001
1000
0000
1000
0010
0000
0010
0100
0000
0001
0000
2020
0000
0000
0000
,
0000
0000
0000
0030
3000
0000
1000
0010
,
0100
0000
0000
0100
0000
0010
0000
0000
1001
0000
0000
0000
1000
0000
0100
0000
,
1000
0001
0000
0001
1000
0000
0001
0000
1001
0000
0001
0000
0100
0000
0001
0000
,
1000
0000
0000
0100
0000
0010
0000
0000
1100
0000
0000
0000
0100
0000
0010
0000
,
0001
0000
1000
0001
0100
0010
0000
0010
1000
0000
0001
0000
0020
0000
0130
0000
,
1000
0000
0000
0100
0000
0010
0000
0000
1001
0000
0000
0000
0001
0000
0010
0000
,
0100
1000
0000
0100
0010
0000
0100
0010
0001
0000
1000
0000
0010
0000
0000
0000
,
0010
0000
0010
0000
0010
0000
0100
0010
,
1000
0001
0010
1000
0010
0001
0100
0001
,
0000
0100
0010
0000
0100
1000
0000
0100
,
0010
0000
0100
0001
0000
0001
1000
0000
,
1000
0001
0000
0001
1000
0000
1000
0001
,
0000
0001
0100
0001
0010
0100
1000
0100
,
0000
1000
0010
0000
1000
0001
0000
1000
,
0100
0000
1000
0010
0000
1000
0010
0000
,
0010
0100
0000
0100
0001
0000
0001
0010
,
0000
0100
0010
0100
1000
0001
1000
0100
,
0000
0010
0001
0000
0001
0100
0000
0010
,
1000
0000
1000
0100
0000
0010
0001
0000
,
0001
0100
0000
0010
1000
0000
1000
0100
,
0000
1000
0100
0001
0100
1000
0010
1000
,
0000
0001
0100
0000
0001
0010
0000
0100
,
1000
0000
1000
0010
0000
0100
0001
0000
,
0001
0010
0000
0010
0100
0000
2002
0000
,
0000
0000
3003
0001
,
0100
0000
0010
0000
1000
1000
0001
0000
,
0010
0000
0100
0000
1000
1000
0100
0000
,
1000
0000
0010
0000
1000
1000
0001
0000
,
0010
0000
0100
0000
1100
0110
0010
0000
,
0001
0000
0000
0000
0010
0000
0100
0000
0110
0000
1001
0000
0001
0000
1000
0001
,
0000
0001
1000
0100
0010
0000
0010
0000
0200
0000
0000
0000
0310
0000
0000
0100
,
0000
0000
1000
0000
0000
0100
0000
0000
0010
0000
0001
0000
0100
0000
0001
0000
,
1000
0000
0001
0000
1000
0001
1000
0001
1000
0001
1000
0002
2000
0000
0000
0000
,
0000
0000
0000
0000
,
0000
0000
0000
0000
0003
0000
3000
0000
0001
0000
0000
0100
0000
0000
0010
0000
,
0100
0000
0001
0000
0100
0000
1000
0000
0100
0000
0000
0010
0000
0000
1000
0000
,
0100
0000
0001
0000
0100
0000
0010
0000
0100
0000
0000
1000
0000
0000
0100
0000
,
0001
0000
0100
0000
0010
0000
0001
0000
1000
0000
0000
0001
0000
0000
0100
0000
,
0001
0000
0010
0000
0100
0000
0010
0000
0001
0000
0000
0010
0000
0000
0001
0000
,
0100
0000
1000
0000
0100
0000
0010
0000
1000
0000
0000
0010
0000
0000
0100
0000
,
0001
0000
0010
0000
0100
0000
1000
0000
0100
0000
0000
1000
0000
0000
0010
0000
,
0100
1000
0100
0010
0110
0100
0101
0001
,
0011
0000
0000
0000
0001
1000
0001
1000
0001
0000
0010
0001
0000
0001
0010
0000
,
0100
0000
1000
0000
0100
0000
1000
0000
0010
0000
0100
0010
0000
0010
0100
0000
,
0010
0000
1000
0000
0100
0000
0001
0000
0100
0000
0010
0100
0000
0100
0010
0000
,
0001
1000
0010
0100
2002
3003
1000
0010
,
0100
0000
0001
0000
1000
0000
0100
0010
0000
0010
0001
0000
0100
0000
1000
0000
,
0100
0000
0010
0000
1000
0000
0010
1000
0000
1000
0010
0000
0100
0000
0000
0000
,
0000
0000
0010
1000
0010
1000
0010
0001
,
0010
0001
0010
1000
0100
0001
0100
1000
,
0010
0100
2002
0000
0000
0000
0000
0000
,
0000
0000
0000
3003
;

//---------------dance-single - ----------------
#NOTES:
     dance-single:
     :
     Challenge:
     10:
     0.700474,0.808751,0.371703,0.150263,0.616869,554.000000,47.000000,19.000000,0.000000,0.000000,0.000000,0.700474,0.808751,0.371703,0.150263,0.616869,554.000000,47.000000,19.000000,0.000000,0.000000,0.000000:
// measure 0
0000
0000
0000
0000
,  // measure 1
0000
0000
0000
0000
,  // measure 2
0000
0000
0000
0000
,  // measure 3
0000
0000
0000
0000
,  // measure 4
0000
0000
0000
0000
,  // measure 5
0002
0000
0000
0000
,  // measure 6
0000
0000
0000
0000
,  // measure 7
0200
0000
0000
0000
,  // measure 8
0000
0000
0000
0000
0000
0303
0001
1000
,  // measure 9
1100
0000
0101
0000
0001
0010
0100
1000
0001
0000
0100
0000
0010
0000
1000
0000
,  // measure 10
1010
0000
1100
0000
0100
0010
0001
1000
0001
0000
0100
0000
0010
0000
0100
0000
,  // measure 11
0110
0000
0101
0000
0100
0010
1000
0100
0010
0000
0001
0000
1000
0000
0010
0000
,  // measure 12
0100
0000
0002
0000
0000
0000
1003
0000
0100
0000
0100
0000
0010
0000
0000
0100
,  // measure 13
1000
0000
0001
0000
2000
0000
0200
3000
0002
0300
0020
0003
1000
0030
0001
0000
,  // measure 14
0010
0000
0100
0010
0000
0010
0000
0010
0100
1000
0001
0000
1000
0000
1000
0000
,  // measure 15
0001
0010
1100
0000
0011
0000
0001
0100
,  // measure 16
2000
0000
3100
0000
0010
1000
0000
1000
0000
0000
1000
0000
0001
0000
0100
0000
,  // measure 17
0010
1000
0010
0100
0000
0001
0000
1000
0100
0000
0010
0000
0001
0000
0100
0000
,  // measure 18
0010
1000
0010
1000
0000
0010
0000
0100
0001
0000
1000
0000
0010
0000
0100
0000
,  // measure 19
0010
1000
0001
0010
0000
0100
0000
0010
0001
0000
1000
0000
0010
0000
1000
0000
,  // measure 20
0100
0010
0001
0010
0000
0100
0000
0010
0001
0000
1000
0000
1000
0000
0010
0000
,  // measure 21
0100
0001
0100
0010
0000
1000
0000
0001
0010
0000
0100
0000
1000
0000
0010
0000
,  // measure 22
0100
0001
0100
0001
0000
0010
0000
0100
0020
0000
0000
0000
0130
0000
0010
0010
,  // measure 23
0000
0001
0001
0000
1000
1000
0000
0010
0010
0000
1000
0000
0102
0000
0000
0000
,  // measure 24
0000
0000
0000
1000
2003
0000
3001
0010
,  // measure 25
0100
0010
0000
0001
0000
1000
0000
0010
0100
0000
0000
0000
0010
0000
1000
0000
,  // measure 26
0001
0010
0000
0100
0010
0000
0001
1000
0001
0000
0100
0000
0010
0000
1000
0000
,  // measure 27
0100
0010
0000
0001
0000
1000
0000
0000
1010
0000
0000
0000
1000
0000
0001
0000
,  // measure 28
0010
0100
0000
0010
0001
1000
0001
0010
0100
0000
0100
0000
2000
0000
3002
0000
,  // measure 29
1003
0001
0000
0001
0000
1000
0000
0010
0100
0000
0000
0000
0010
0000
1000
0000
,  // measure 30
0001
0010
0000
0100
0010
0000
0001
1000
0020
0000
0000
0000
0130
0000
0000
0000
,  // measure 31
0100
0000
0100
0000
0100
0000
0100
0001
,  // measure 32
0100
0000
0010
0000
1000
0010
0100
0001
0010
0100
1000
0100
0010
0000
0010
0000
,  // measure 33
0000
0001
0001
0000
0100
0100
0000
1000
,  // measure 34
1000
0000
0100
0100
0000
0010
0010
0000
,  // measure 35
1000
1000
0000
0010
0010
0000
0001
0001
,  // measure 36
0000
0001
0010
1000
0010
1000
0001
0001
,  // measure 37
0000
0100
0100
0000
1000
1000
0000
0010
,  // measure 38
0010
0000
0001
0001
0000
0100
0100
0000
,  // measure 39
1000
1000
0000
0010
0010
0000
0001
0001
,  // measure 40
0000
1000
0001
0001
1000
1000
1010
0000
,  // measure 41
0101
1010
0101
1010
,  // measure 42
0101
1010
0101
0011
,  // measure 43
1100
0011
1100
0011
,  // measure 44
1100
0000
0100
0000
0010
0000
0010
0000
0100
0000
0100
1000
0100
0000
0010
0000
,  // measure 45
0001
0010
0100
0010
0001
0010
0100
1000
,  // measure 46
0100
0010
0100
1000
0010
0100
0001
1000
,  // measure 47
0010
1000
0001
0100
0010
1000
2002
0000
,  // measure 48
0000
0000
0000
0000
0000
3003
1000
0000
,  // measure 49
0010
0000
0100
0000
0101
1010
0010
0000
,  // measure 50
0100
0000
0001
0000
0101
0011
0010
0000
,  // measure 51
0100
0000
1000
0000
1100
0110
0100
0000
,  // measure 52
0010
0000
0001
0000
0011
1100
1001
0000
,  // measure 53
0101
0000
0000
0000
0001
0000
0100
0000
1010
0000
0101
0000
0001
0000
1000
0010
,  // measure 54
0000
0100
0001
0010
0100
1000
0001
0000
1001
0000
0000
0000
0001
0000
1000
0100
,  // measure 55
0000
0001
0100
0000
1000
0100
0000
0001
0100
0000
0001
0000
1000
0100
0010
0100
,  // measure 56
1000
0000
0000
0010
0000
0000
0100
0000
0000
0001
0000
0000
1000
0000
0001
0000
1000
0000
0001
0000
1000
0000
0001
0000
1000
0000
0001
0000
1000
0000
0001
0000
1000
0000
0001
0000
1000
0000
0000
0000
0000
0000
0000
0000
0000
0000
0000
0000
,  // measure 57
0000
0000
0000
0000
,  // measure 58
0000
0000
0000
0000
1010
0000
0101
0000
0100
0000
0010
1000
0000
1000
0100
0010
,  // measure 59
0001
0010
0100
0010
0001
0000
1000
0000
0010
0000
0100
0010
0000
0100
0001
0000
,  // measure 60
0010
0100
1000
0001
0100
0000
0010
0000
0100
0000
0001
0010
0000
0010
0100
1000
,  // measure 61
0010
0100
0010
1000
0001
0000
0010
0000
0100
0000
1000
0100
0000
0100
1000
0001
,  // measure 62
1000
0100
1000
0001
0010
0000
0100
0000
0010
0000
0010
0100
0000
0100
1000
0100
,  // measure 63
1000
0010
0100
0010
1000
0000
0001
0000
0010
0000
0100
0010
0000
0010
0100
0000
,  // measure 64
0100
1000
0100
0010
0001
0000
0100
0000
0010
0000
0100
0010
0000
0010
0100
0001
,  // measure 65
0100
0010
1000
0001
0010
0000
0100
0000
1100
0000
1010
0000
0011
0000
1100
0000
,  // measure 66
1001
0000
0000
0000
0001
0010
0100
1000
0001
0000
0100
0010
0000
0010
0100
0001
,  // measure 67
0100
0001
0010
0100
1000
0000
0100
0000
1000
0000
1000
0010
0000
0010
1000
0000
,  // measure 68
0010
0100
0001
0010
0100
0000
0010
0000
0100
0000
1000
0100
0000
0100
1000
0001
,  // measure 69
1000
0100
0010
0100
1000
0000
0001
0000
0020
0000
0000
0030
0100
0000
0010
0000
,  // measure 70
0001
0000
1000
0000
1001
0000
1000
0100
0000
0010
0001
1000
0001
0100
1000
0100
,  // measure 71
0010
0000
0100
0000
0010
0000
1000
0010
0000
0010
0001
0000
0010
0100
0001
1000
,  // measure 72
0001
0000
0100
0000
0001
0010
0100
0010
0001
1000
0100
0010
0100
1000
0001
0000
,  // measure 73
1000
0001
0010
0100
1000
0001
0100
0001
0100
0001
0100
0001
0100
0000
0001
0000
,  // measure 74
0010
0100
2002
0000
0000
0000
0000
0000
,  // measure 75
0000
0000
0000
3003
;

//---------------dance-single - ----------------
#NOTES:
     dance-single:
     :
     Easy:
     4:
     0.265502,0.327316,0.118629,0.166080,0.000000,199.000000,15.000000,21.000000,0.000000,0.000000,0.000000,0.265502,0.327316,0.118629,0.166080,0.000000,199.000000,15.000000,21.000000,0.000000,0.000000,0.000000:
0000
0000
0000
0000
,
0000
0000
0000
0000
,
0000
0000
0000
0000
,
0000
0000
0000
0000
,
0000
0000
0000
0000
,
0020
0000
0000
0000
,
0000
0000
0000
0000
,
0000
0000
0000
0000
,
0000
0000
0030
1000
,
0010
0100
0100
0010
,
1000
0001
0001
0010
,
0100
0010
0010
0100
,
0001
1000
0100
1000
,
1010
0010
0100
0001
,
1000
0010
0100
0010
,
0010
1001
0000
0001
,
0100
0010
0000
0100
,
0001
1000
0000
0100
,
1000
0010
0000
0100
,
0010
1000
0000
0001
,
0010
0100
0000
0010
,
0001
1000
0000
0010
,
0100
0001
0000
2000
,
0000
0000
3000
0202
,
0000
0000
0000
0300
0003
0000
0001
0000
,
0100
0020
0000
0000
0130
0000
0010
0000
,
1000
0001
0001
1000
,
0010
0200
0310
0100
,
0010
1000
1000
0100
,
0101
0002
0103
0001
,
0010
0100
0010
2002
,
0000
0000
0000
0000
,
0000
0000
3003
0010
,
0000
0000
0010
0000
0000
0100
0000
0000
,
0010
0000
0000
1000
0000
0000
0001
0000
,
0000
0010
0000
0000
0100
0000
0000
0010
,
0000
0001
1000
0010
,
0000
0000
1000
0000
0000
0010
0000
0000
,
0100
0000
0000
0001
0000
0000
1000
0000
,
0000
0100
0000
0000
0010
0000
0000
0100
,
0000
1000
0010
0102
,
0100
0100
0100
0100
,
0100
0100
0103
2100
,
0100
0100
0100
0100
,
0100
0100
3100
2010
,
0010
0010
0010
0010
,
0010
0010
3010
0012
,
0010
0010
0010
2000
,
0000
0000
3003
0000
,
0000
0000
0000
0000
0001
0100
0000
0000
,
0000
0000
0000
0000
0001
1000
0000
0000
,
0000
0000
0000
0000
0001
0010
0000
0000
,
0000
0000
0000
0000
0001
1000
0000
0000
,
0000
0000
0000
0000
1000
0001
0000
0000
,
0000
0000
0000
1000
0001
0000
0200
0000
,
0000
0000
0000
0020
,
0000
0000
0000
0330
,
0000
0000
0000
0000
,
0000
0000
0001
0100
,
0010
1000
0010
0100
,
0001
1000
0100
1000
,
0001
1000
0001
0010
,
0001
0001
0100
0010
,
1000
0010
0100
0001
,
1000
0100
1000
0001
,
0010
0100
0110
1001
,
0110
0000
0100
0101
,
0001
1000
0100
1100
,
0100
0010
0001
1001
,
0001
0100
0010
0100
,
0010
1000
1000
0001
,
0100
0001
0001
0010
,
0000
0200
0000
0320
,
0000
0032
0000
2003
,
0000
0020
0000
0000
,
0000
3030
0000
0000
;

//---------------dance-single - ----------------
#NOTES:
     dance-single:
     :
     Medium:
     6:
     0.393169,0.419352,0.173989,0.110720,0.015817,312.000000,22.000000,14.000000,0.000000,0.000000,0.000000,0.393169,0.419352,0.173989,0.110720,0.015817,312.000000,22.000000,14.000000,0.000000,0.000000,0.000000:
0000
0000
0000
0000
,
0000
0000
0000
0000
,
0000
0000
0000
0000
,
0000
0000
0000
0000
,
0000
0000
0000
0000
,
0002
0000
0000
0000
,
0000
0000
0000
0000
,
0200
0000
0000
0000
,
0000
0000
0303
0100
,
0010
0000
0100
0010
1000
0001
1000
0000
,
0001
0000
1000
0100
0010
0100
1000
0000
,
0001
0000
0100
0010
1000
0001
0010
0000
,
0100
0020
0000
0030
0100
0000
1000
0000
,
1001
0000
0001
1000
0010
1000
0001
0000
,
0010
0000
0100
0010
0001
0000
1000
0000
,
0001
0000
0101
0000
0000
0000
0001
0100
,
1000
0100
0001
0000
0000
0000
1000
0010
,
0100
0000
0010
0000
1000
0000
0001
1000
,
0100
0000
1000
0000
0001
0000
0100
0010
,
0100
0000
0010
0000
1000
0000
0001
0010
,
0001
0000
0010
0000
0100
0000
0010
0100
,
0010
0000
0100
0000
1000
0000
0001
0100
,
0001
0000
0000
0000
0100
0000
0000
0000
1001
0000
0000
0000
0001
0000
0000
0100
,
0000
0000
0010
0000
0000
1000
0000
0000
0001
0000
0100
0000
0020
0000
0000
0000
,
0000
0000
0000
0100
0230
0000
0310
1000
,
0001
1000
0101
0001
,
1000
0000
0100
1000
0010
0010
0100
0000
,
0001
0000
1000
0010
0110
0000
0010
0000
,
0100
0000
0001
1000
0010
0000
0102
0000
,
0013
0000
0100
1000
0010
0000
0100
0000
,
0001
0000
1000
0010
0100
0000
0001
0000
,
0001
0000
1000
0000
1000
0000
0001
1000
,
0001
1000
0001
1000
0001
1000
1001
0000
,
0000
0000
0100
0000
0000
0010
0000
0000
,
1000
0000
0000
0100
0000
0000
1000
0000
,
0000
0010
0000
0000
0100
0000
0000
0001
,
0000
1000
0100
0010
0001
0010
0100
0010
,
0000
0010
0100
0000
0100
1000
0000
1000
,
0001
0000
0001
0100
0000
0100
0010
0000
,
0010
0100
0000
0100
0001
0000
0001
1000
,
0000
1000
0100
1000
0010
0100
0101
0000
,
0001
0001
0001
1000
,
1000
1000
0000
0010
,
0010
0100
0100
0010
,
1000
0000
0010
0100
0001
1000
0001
0000
,
0010
0100
1000
0100
,
1000
0010
0100
0001
,
1000
0010
0100
2002
,
0000
0000
3003
1001
,
0000
0000
0000
0000
0001
0100
0000
0000
,
0000
0000
0000
0000
0010
1000
0000
0000
,
0000
0000
0000
0000
0100
0010
0000
0000
,
0000
0000
0000
0000
1001
1001
0000
0000
,
0000
0000
0000
0000
0101
0101
0000
0000
,
0000
0000
0001
0000
0100
0000
0100
0000
0001
0000
0000
0000
0100
0000
0000
0010
,
0000
0000
1000
0000
0000
0001
0000
0000
0010
0000
0100
0000
1000
0000
0000
0000
,
0002
0000
2000
0000
0000
3003
0220
0000
,
0000
0000
0000
0000
,
0000
0000
0300
0030
0100
0000
0001
0000
,
0100
0001
0010
0100
0010
0000
0100
0000
,
0010
0001
1000
0010
1000
0000
0001
0000
,
1000
0100
1000
0001
0001
0000
0100
0000
,
0010
0100
0010
1000
0001
0000
0010
0000
,
0100
0010
0001
1000
0010
0000
0100
0000
,
1000
0100
0001
0010
0100
0000
0010
0000
,
0001
1000
0010
1000
0001
0001
1000
0001
,
1000
0000
0001
0100
0010
0000
1010
0000
,
0010
0100
0001
0000
1000
0000
1001
0000
,
0001
1000
0010
0000
0100
0000
1001
0000
,
0001
1000
0010
0000
0100
0000
0010
0001
,
0010
1000
0100
0000
0110
0000
0100
1000
,
0010
0100
0001
0000
1001
0000
0110
0000
,
0000
0000
0100
0001
0100
0010
0100
0001
,
0100
0010
1000
0100
0010
0100
1000
0010
,
0100
0001
2002
0000
0000
0000
0000
0000
,
0000
0000
0000
3003
;

//---------------dance-single - ----------------
#NOTES:
     dance-single:
     :
     Beginner:
     1:
     0.133316,0.176164,0.102812,0.055360,0.000000,98.000000,13.000000,7.000000,0.000000,0.000000,0.000000,0.133316,0.176164,0.102812,0.055360,0.000000,98.000000,13.000000,7.000000,0.000000,0.000000,0.000000:
0000
0000
0000
0000
,
0000
0000
0000
0000
,
0000
0000
0000
0000
,
0000
0000
0000
0000
,
0000
0000
0000
0000
,
0000
0000
0000
0000
,
0000
0000
0000
0000
,
0000
0000
0000
0000
,
0000
0000
0000
1001
,
0000
0000
0000
0110
,
0000
0000
0000
1001
,
0000
0000
0000
0110
,
0000
0000
0000
1000
,
0000
0200
0300
0010
,
0000
0000
0000
0001
,
0000
1001
0000
0010
,
0000
0000
0000
0100
,
0000
0000
0000
0001
,
0000
0000
1000
0001
,
0000
0000
1000
1000
,
0000
0000
0010
2000
,
3000
0000
0000
0010
,
0000
0000
0100
0010
,
0000
0000
0000
1001
,
0000
0000
0000
1000
,
0000
0001
0001
0100
,
0000
0010
0000
0100
,
0000
0001
0000
1000
,
0000
0000
0000
1000
,
1001
0000
1000
0000
,
0001
0000
0100
0010
,
0000
0000
0000
1000
,
0000
0001
0000
1001
,
0000
0000
0000
0000
,
0000
0000
0000
0100
,
0000
0000
0000
0010
,
0000
0000
0000
1000
,
0000
0000
0000
0000
,
0000
0000
0000
0100
,
0000
0000
0000
1000
,
0000
0000
0000
1001
,
0000
0000
0000
1000
,
0000
0000
0000
0100
,
0000
0000
0000
1000
,
0000
0000
0000
0001
,
0000
0000
0000
0010
,
0000
0000
0000
0001
,
0000
0000
0000
0020
,
0000
0000
0030
0001
,
0000
0000
0000
1000
,
0000
0000
0000
0100
,
0000
0000
0000
1000
,
0000
0000
1001
0001
,
0000
0000
1001
1000
,
0000
0000
0000
0010
,
0000
0100
0000
0001
,
0000
2000
3000
0000
,
0000
0000
0000
0000
,
0000
0000
0001
0000
,
1000
1000
0001
0000
,
0100
0000
0010
0000
,
1000
1000
0010
0000
,
0100
0000
0001
0000
,
1000
0001
0100
0000
,
0010
0000
1000
0000
,
0010
0000
0200
0000
,
0300
0000
0010
1000
,
0000
1000
0000
0001
,
0100
0000
0001
0000
,
1000
0000
1001
0000
,
0000
0010
0000
1000
,
0010
1000
0000
0010
,
0000
0200
0000
0000
,
0300
0020
0000
0000
,
0030
1001
0000
0000
;
