#TITLE:Inner Spirit;
#SUBTITLE:;
#ARTIST:lapix;
#TITLETRANSLIT:;
#SUBTITLETRANSLIT:;
#ARTISTTRANSLIT:;
#GENRE:;
#CREDIT:;
#BANNER:Inner Spirit.png;
#BACKGROUND:Inner Spirit-bg.png;
#LYRICSPATH:;
#CDTITLE:;
#MUSIC:Inner Spirit.mp3;
#OFFSET:-0.228998;
#SAMPLESTART:21.603859;
#SAMPLELENGTH:13.150684;
#SELECTABLE:YES;
#BPMS:0.000000=146.000000
;
#STOPS:
;
#BGCHANGES:;
#KEYSOUNDS:;
#ATTACKS:;

//---------------dance-single - ----------------
#NOTES:
     dance-single:
     :
     Hard:
     9:
     0.532094,0.633666,0.165716,0.284084,0.355105,472.000000,451.000000,21.000000,36.000000,0.000000,0.000000,0.532094,0.633666,0.165716,0.284084,0.355105,472.000000,451.000000,21.000000,36.000000,0.000000,0.000000:
0000
0000
0000
0000
,
0000
0000
0000
0000
,
0000
0000
0000
0000
,
0000
0000
0000
0000
,
0000
0000
0000
0000
,
1001
0000
1000
0001
0200
0000
0301
1000
,
0010
0001
0010
1000
0100
0001
0100
1000
,
0010
0000
1000
0001
0000
0001
1000
0000
0000
0000
0101
0000
0000
1100
0000
0000
,
0011
0000
0000
2002
0000
0000
0000
0000
0000
0000
0000
0000
0000
0000
3003
0000
,
1000
0000
0100
0000
1000
0000
0000
0010
0000
0010
0000
0100
0000
0000
0010
0000
,
1000
0000
0001
0000
1000
0000
0000
0001
0000
0001
0000
0010
0000
0000
0100
0000
,
4000
0004
0000
0000
0000
0000
0000
0000
0000
0000
0000
0000
0000
0000
0000
0000
,
3003
0000
0000
0000
,
0201
0000
0310
1000
0100
1000
0001
0010
,
0200
0000
0310
0100
1000
0001
0200
0310
,
2000
0000
3100
0001
0100
0010
0001
1000
,
0020
0000
0130
0001
1000
0001
0101
0000
,
1200
0000
0310
0100
1000
0010
0100
0001
,
0020
0000
0130
1000
0001
0100
2000
3100
,
0020
0000
1030
0001
0011
0011
0010
0001
,
1000
0100
0010
0001
1000
0100
0010
0001
,
0200
0000
0000
0000
0310
0000
1000
0000
0001
0010
0000
0100
0000
0000
0000
0000
,
1000
0000
0001
0000
0010
0000
0100
0000
1000
0010
0000
0100
0000
0001
0000
0001
,
1000
0000
0010
0000
0000
0000
0100
0000
0001
0000
0000
0010
0000
0000
0000
0000
,
0100
0010
0100
0000
1000
0000
0010
0000
0100
0000
0001
0000
0011
0000
0000
0000
,
1100
1100
0101
0101
,
1001
0002
1003
0200
0320
0000
0130
0010
,
0002
0000
0000
0000
1003
0010
0000
0010
0100
0000
0100
0001
0000
0001
0010
0000
,
0100
0000
1000
0000
0100
0000
0001
0000
0100
0000
1000
0000
0001
0100
0001
0100
,
0001
0000
0000
0010
0000
0000
0001
0000
0100
0000
0000
0010
0000
0000
1000
0000
,
0100
0000
0000
0010
0000
0000
0100
0000
1000
0000
0000
0001
0000
0000
0100
0000
,
0001
0000
0000
0010
0000
0000
1000
0000
0010
0000
0000
0100
0000
0000
1000
0000
,
0010
0000
0000
0100
0000
0000
0001
0000
0010
0000
0000
0001
1000
0000
0000
0000
,
0001
0000
0000
0010
0000
0000
1000
0000
0010
0000
0000
0100
0000
0000
1000
0000
,
0010
0000
0000
0001
0000
0000
0010
0000
1000
0000
0000
0001
0010
0000
0100
0000
,
0010
0000
0100
0000
1000
0000
0001
0000
0100
0000
0000
0100
0000
0000
0100
0000
,
0001
0100
1000
0010
1001
0000
0001
0001
,
1000
0000
0001
0100
0000
0100
0010
0000
0010
2000
0000
3100
,
0020
0000
0031
0200
0000
0310
2000
0000
3001
0020
0000
0031
,
2000
0000
3001
1000
0000
1000
0010
0000
0010
1000
0000
1000
,
0100
0000
0100
0010
0000
0010
0001
0000
0001
0010
0100
1000
,
0002
0000
0103
0001
0000
0001
0010
0000
0010
0200
0000
1300
,
0020
0000
0130
0002
0000
1003
0200
0000
1300
0020
0000
0130
,
0002
0000
0013
0100
0000
1000
0010
0000
0010
0100
0000
0100
,
0001
0001
0001
0000
0000
0000
1000
1000
1000
0001
0001
0001
,
2002
0000
0000
0000
,
0000
0000
0000
0000
,
0000
0000
0000
0000
,
0000
0000
0000
3003
,
0001
0100
0010
1000
0001
0100
0010
1000
,
0001
0100
0010
1000
0001
0100
0010
1000
,
0004
4000
0000
0000
0000
0000
0000
0000
0000
0000
0000
0000
0000
0000
0000
0000
,
0000
0000
0000
3003
,
0001
0100
0010
1000
0100
0001
0100
1000
,
0010
1000
0001
0010
0001
0010
1000
0010
,
0100
0010
0001
0100
0001
0010
1000
0010
,
0100
0000
1000
0000
0001
1000
0000
0001
0020
0000
0000
0000
0000
0000
0130
0000
,
1000
0001
0010
0001
0100
1000
0100
0001
,
0010
0001
1000
0100
0010
0001
0010
1000
,
0010
0100
1000
0010
0100
1000
0100
0001
,
1001
0000
0010
0000
1001
0000
0100
0000
1001
0000
0001
1000
0000
1000
0001
0000
,
0100
0010
1000
0001
0010
1000
0010
0001
,
1000
0100
0010
0001
0100
1000
0100
0001
,
0010
0001
1000
0100
1000
0010
0001
0010
,
1000
0000
0001
0000
0100
0010
0000
0010
2000
0000
0000
0000
0000
0000
3100
0000
,
0010
0001
1000
0100
0010
0001
0010
1000
,
0010
0100
0010
0001
1000
0100
0001
0100
,
1000
0010
0100
0001
0010
1000
0010
0001
,
1000
0100
0010
0001
0010
0100
1000
0100
,
0020
0000
0130
1000
0010
0100
0001
0010
,
0001
0000
0001
0000
1000
0000
0000
0010
0000
0100
0001
0000
0010
0000
0001
0000
,
1000
0000
0100
0010
0000
0010
0001
0000
1000
0000
0010
1000
0000
1000
0001
0000
,
1000
0000
0001
0100
0000
0100
0010
0000
1000
0001
1000
0001
0020
0000
0000
0000
,
0030
0000
0000
0000
;

//---------------dance-single - ----------------
#NOTES:
     dance-single:
     :
     Medium:
     6:
     0.375397,0.460848,0.331432,0.276193,0.031565,333.000000,291.000000,42.000000,35.000000,0.000000,0.000000,0.375397,0.460848,0.331432,0.276193,0.031565,333.000000,291.000000,42.000000,35.000000,0.000000,0.000000:
0000
0000
0000
0000
,
0000
0000
0000
0000
,
0000
0000
0000
0000
,
0000
0000
0000
0000
,
0000
0000
0000
0000
,
1001
0000
0001
0010
0001
0000
1000
0100
,
1000
1010
0110
0101
,
0001
0000
0000
0010
0000
0000
0010
0000
0000
0000
0100
0000
0000
1000
0000
0000
,
0010
0000
0000
0200
0000
0000
0000
0000
0000
0000
0000
0000
0000
0000
0000
0000
,
0301
0010
0001
1000
,
0100
1000
0010
0100
,
2002
0000
0000
0000
,
3003
0000
0000
0000
,
0201
0301
0100
0010
,
2010
0000
3100
0000
0010
0001
1000
0000
,
2010
3100
0010
0001
,
1020
0000
0130
0000
0010
1000
0100
0000
,
0012
0013
0001
1000
,
1200
0000
1300
0000
0010
0100
0001
0000
,
2001
0000
3010
0000
1000
1000
0001
0000
,
0100
0100
0100
0100
,
0002
0000
0013
0000
0100
1000
0100
0000
,
1000
0000
0010
0000
0100
0001
0100
0000
,
0012
0103
2010
3100
,
1010
0000
0101
0000
1000
0001
0010
0000
,
1001
0110
1001
0110
,
2000
0000
3002
0000
0203
0000
0310
1000
,
0001
0000
0000
0000
1000
0000
0000
0000
0100
0000
0000
0010
0000
0000
0001
0000
,
2000
3010
0200
0301
,
1000
0010
0100
0010
,
1000
0001
0010
0001
,
1000
0001
0100
0001
,
1000
0100
1000
1001
,
0001
0010
0001
1000
,
0010
0000
1000
0000
0001
0000
0010
0100
,
1000
0000
0000
0000
0100
0000
0000
0000
1000
0000
0000
1000
0000
0000
1000
0000
,
0001
0000
0100
0000
0010
0000
1000
0001
,
0100
0001
0010
0110
,
1100
1010
0101
0011
,
1001
0001
1000
0010
,
0100
0010
1000
0001
,
1001
1000
0001
0101
,
0011
0110
1100
0110
,
0011
0010
0100
1000
,
1001
0000
1001
0110
,
2002
0000
0000
0000
,
0000
0000
0000
0000
,
3003
0000
0000
0000
,
0000
0000
0000
0000
,
2100
3010
0102
0013
,
1020
0130
0021
0130
,
1000
0100
0010
0001
1000
0100
0010
0001
,
0020
0000
0000
0030
,
0001
0000
0100
0000
0010
1000
0100
0010
,
0100
0000
1000
0000
0001
0010
0100
0010
,
0001
0100
0010
1000
,
0001
0000
1000
0000
0100
0000
0000
1000
0000
0000
0000
0000
0000
0000
0010
0000
,
0100
0000
0001
0000
0010
0100
1000
0001
,
0100
0000
0010
0000
0100
0001
0010
0100
,
2000
3010
0200
0301
,
1000
0000
0001
0000
1000
0000
0001
0000
0010
0000
0000
0100
0000
0000
1000
0000
,
0010
0000
0100
0000
0001
0010
0001
1000
,
0100
0000
0010
0000
0100
1000
0010
0100
,
0001
0010
1000
0010
,
0100
0000
1000
0000
0001
0000
0000
0010
0000
0000
0000
0000
0000
0000
0100
0000
,
0010
0000
0001
0000
0100
0010
1000
0001
,
0010
0000
0100
0000
1000
0100
0010
0100
,
2000
3010
0200
0301
,
0001
0100
0010
1000
0001
0010
0100
0010
,
0002
0000
0103
0000
0010
1000
0100
0000
,
0020
0000
0130
0000
0010
0001
1000
0000
,
0002
0103
0002
1003
,
0002
0000
0013
0000
0001
1000
0020
0000
,
0030
0000
0000
0000
;

//---------------dance-single - ----------------
#NOTES:
     dance-single:
     :
     Easy:
     3:
     0.235610,0.259227,0.102586,0.181498,0.000000,209.000000,196.000000,13.000000,23.000000,0.000000,0.000000,0.235610,0.259227,0.102586,0.181498,0.000000,209.000000,196.000000,13.000000,23.000000,0.000000,0.000000:
0000
0000
0000
0000
,
0000
0000
0000
0000
,
0000
0000
0000
0000
,
0000
0000
0000
0000
,
0000
0000
0000
0000
,
1000
0100
1000
0010
,
0100
0100
0001
1000
,
0010
0000
0000
0000
0000
0110
0000
0000
,
0000
0000
0000
0000
,
1001
0000
0000
0000
,
0010
0000
0000
0000
,
0200
0000
0000
0000
,
0300
0000
0000
0000
,
0002
1003
0010
1000
,
0200
1300
0010
0100
,
0002
0013
0001
1000
,
0200
1300
0010
0100
,
0020
1030
0001
0010
,
0200
0310
0001
1000
,
0002
1003
0010
0100
,
0001
0001
0001
0001
,
0000
1000
0001
1000
,
0000
0010
1000
0010
,
0100
0000
0001
0000
,
0010
0100
1000
0001
,
1000
1000
1000
1000
,
0100
0010
0001
1000
,
0020
0000
0130
0000
,
0001
0100
0010
1000
,
1001
0000
0001
0000
,
1001
0000
1000
0000
,
1001
0000
0001
0000
,
1001
0000
1000
0010
,
0110
0000
0100
0000
,
0110
0000
0010
0000
,
0100
0001
1000
0000
,
0001
1000
0010
0100
,
1001
0000
0000
0001
,
0010
1000
0010
0100
,
1000
0000
0100
0010
,
0001
0000
0000
1000
,
0001
0000
0000
0010
,
0100
1000
0100
0001
,
0100
0000
0000
0000
,
0110
0000
0110
0110
,
2002
0000
0000
0000
,
3003
0000
0000
0000
,
0000
0000
0000
0000
,
0000
0000
0000
0000
,
2000
0000
3200
0000
,
0320
0000
0032
0000
,
1003
0100
0010
0001
,
2000
0000
0000
3000
,
0001
0100
0010
1000
,
0010
0100
0001
0010
,
0001
0010
0100
1000
,
0100
0100
0100
0000
,
1000
0001
0010
0001
,
1000
0100
1000
0010
,
0100
0100
0001
0001
,
0010
0100
1000
0000
,
0001
1000
0010
1000
,
0001
0100
0001
0010
,
0100
0010
0001
1000
,
0100
0100
1000
0000
,
0100
1000
0010
0100
,
0001
0010
0001
1000
,
0100
0010
0001
0010
,
0100
0010
0001
1000
,
0020
0130
0010
1000
,
0002
0013
0100
1000
,
0200
0300
2000
3000
,
0020
0030
0200
0302
,
0003
0000
0000
0000
;

//---------------dance-single - ----------------
#NOTES:
     dance-single:
     :
     Beginner:
     1:
     0.120623,0.258339,0.110477,0.000000,0.000000,107.000000,93.000000,14.000000,0.000000,0.000000,0.000000,0.120623,0.258339,0.110477,0.000000,0.000000,107.000000,93.000000,14.000000,0.000000,0.000000,0.000000:
0000
0000
0000
0000
,
0000
0000
0000
0000
,
0000
0000
0000
0000
,
0000
0000
0000
0000
,
0000
0000
0000
0000
,
1000
0000
0001
0000
,
0100
0000
0010
0000
,
1001
0000
0000
0000
,
0000
0000
0000
0000
,
1001
0000
0000
0000
,
0010
0000
0000
0000
,
0100
0000
0000
0000
,
1001
0000
0000
0000
,
0110
0000
0000
0000
,
1000
0000
0000
0000
,
0001
0000
0000
0000
,
0010
0000
0000
0001
,
0001
0000
0000
0000
,
1000
0000
0000
0000
,
0010
0000
0100
0000
,
0010
0000
0000
0000
,
0000
1000
0000
0000
,
0000
0001
0000
0000
,
0100
0000
0100
0000
,
0010
0000
0000
0000
,
1000
0000
0001
0000
,
1001
0000
0000
0000
,
0010
0000
0000
0000
,
0100
0000
0000
0000
,
0001
0000
0000
0000
,
1000
0000
0000
0000
,
0010
0000
0000
0000
,
1000
0000
0000
0000
,
0001
0000
0000
0000
,
0100
0000
0000
0000
,
0010
0000
0100
0000
,
1001
0000
0000
0000
,
0010
0000
0000
0000
,
1000
0000
0001
0000
,
1000
0000
0000
0000
,
0010
0000
0000
0000
,
0100
0000
0000
0000
,
0010
0000
0100
0000
,
0010
0000
0000
0000
,
1001
0000
1001
0110
,
1001
0000
0000
0000
,
0000
0000
0000
0000
,
0000
0000
0000
0000
,
0000
0000
0000
0000
,
0001
0000
0000
0000
,
0010
0000
0000
0000
,
0100
0000
0000
0000
,
1000
0000
0000
0000
,
0001
0000
0000
1000
,
1000
0000
0000
0010
,
0010
0000
0000
0100
,
0100
0000
0001
0000
,
1000
0000
0000
0001
,
0001
0000
0000
1000
,
1000
0000
0000
0010
,
0110
1001
0110
0000
,
1000
0000
0000
0001
,
1000
0000
0000
0001
,
0010
0000
0000
0001
,
0001
0000
1000
0000
,
1000
0000
0000
0010
,
1000
0000
0000
0100
,
1000
0000
0001
0000
,
0100
0000
0010
0000
,
1001
0000
0000
0000
,
1000
0000
0000
0000
,
0010
0000
0000
0000
,
0100
0000
0000
0001
;

//---------------dance-single - ----------------
#NOTES:
     dance-single:
     :
     Challenge:
     12:
     0.817306,1.180922,0.260410,0.560277,1.219195,725.000000,692.000000,33.000000,71.000000,0.000000,0.000000,0.817306,1.180922,0.260410,0.560277,1.219195,725.000000,692.000000,33.000000,71.000000,0.000000,0.000000:
// measure 0
0000
0000
0000
0000
,  // measure 1
0000
0000
0000
0000
,  // measure 2
0000
0000
0000
0000
,  // measure 3
0000
0000
0000
0000
,  // measure 4
0000
0000
0000
0000
,  // measure 5
1000
0000
0001
0000
0010
0100
0010
0100
1000
0000
0001
0000
0100
0010
0100
0010
,  // measure 6
1000
0000
0001
0000
0010
0100
0000
1000
0000
0100
0001
0000
0100
0000
0010
0000
,  // measure 7
0012
0000
1000
2003
0000
0100
3200
0000
0000
0300
0110
0000
0000
0011
0000
0000
,  // measure 8
1010
0000
0000
2200
0000
0000
0000
0000
0000
0000
0000
0000
3300
0000
0000
0000
,  // measure 9
1000
0000
0001
0000
0100
0000
0000
0010
0000
0010
0000
1000
0000
0000
0001
0000
,  // measure 10
0010
0000
0001
0000
1000
0000
0000
0100
0000
0100
0000
0010
0000
0000
0001
0000
,  // measure 11
1000
0100
1000
0100
0010
0100
0010
0001
0010
0001
0010
0001
1000
0001
1000
0001
0010
0100
1000
0100
0010
0001
1000
0100
,  // measure 12
0020
0000
0000
0000
0000
0000
0000
0030
,  // measure 13
1200
0000
0000
0000
0310
0001
0010
0100
1000
0001
0100
0001
1000
0000
0001
1000
,  // measure 14
0200
0000
0000
0000
0310
0000
0010
0000
1000
0100
1000
0001
0100
0000
0010
1000
,  // measure 15
0002
0000
0000
0000
0013
0100
1000
0001
0010
0001
0100
0001
1000
0000
0100
0010
,  // measure 16
0200
0000
0000
0000
0310
0000
0100
0000
1000
0010
0100
0001
0020
0000
0000
0030
,  // measure 17
0201
0000
0000
0000
0310
1000
0010
0100
0001
0010
0100
1000
0001
0000
1000
0001
,  // measure 18
0020
0000
0000
0000
0130
0010
0001
1000
0010
0100
0001
0010
0100
0000
0010
0001
,  // measure 19
2000
0000
0000
0000
3010
1000
0100
0010
0011
0000
0101
0000
0100
0000
0010
0000
,  // measure 20
1000
0001
0010
0001
1000
0010
1000
0001
0010
0001
1000
0010
1000
0001
0010
0001
,  // measure 21
0200
0000
0010
0000
0310
0000
1000
0000
0001
0010
0000
0100
0000
0010
0000
0001
,  // measure 22
1000
0000
0010
0000
0100
0000
0001
0000
0010
0001
0000
1000
0000
0010
0000
0010
,  // measure 23
0100
0000
0001
0000
0000
0000
0010
0000
0100
0000
0000
0010
0000
0000
0000
0000
,  // measure 24
0001
0100
0001
0000
0100
0000
0010
0000
1000
0000
0100
0000
0001
0000
0000
0000
,  // measure 25
0101
1100
1010
0011
,  // measure 26
1001
0000
0020
0030
1001
0000
0200
0300
1004
0000
0000
0000
0103
0010
0000
0010
,  // measure 27
2000
0000
0000
0000
3100
0010
0000
0010
0001
0000
0001
1000
0000
1000
0010
0000
,  // measure 28
0100
0000
0010
0000
1000
0000
0001
0000
0010
0000
0100
0000
1000
0010
1000
0010
,  // measure 29
0100
0000
0001
1000
0000
0001
0010
0000
0001
0000
1000
0001
0000
1000
0100
0000
,  // measure 30
1000
0000
0010
1000
0000
1000
0001
0000
0010
0000
0001
0100
0000
0100
0010
0000
,  // measure 31
1000
0000
0001
0100
0000
0001
0010
0000
0001
0000
1000
0100
0000
0100
0010
0000
,  // measure 32
0100
0000
0010
0100
0000
0100
1000
0000
0001
0000
1000
0010
0002
0003
0000
0000
,  // measure 33
0010
0000
1000
0010
0000
0100
0001
0000
0010
0000
0100
1000
0000
0100
0010
0001
,  // measure 34
1000
0000
0010
1000
0000
1000
0100
0000
0010
0000
0100
0010
0001
1000
0010
0100
,  // measure 35
0001
0000
0010
0000
1000
0000
0010
0000
0011
0000
0000
0011
0000
0000
0011
0000
,  // measure 36
0002
0203
2300
3200
0310
0000
1000
1000
,  // measure 37
0001
0000
0100
0000
0010
0000
1000
0000
0001
0000
0010
0000
0100
0000
0010
0000
0001
0000
2000
0000
0010
3000
0100
0000
,  // measure 38
0002
0000
0010
0003
0100
0000
0020
0000
0001
0030
1000
0000
0020
0000
0100
0030
0010
0000
2000
0000
0001
3000
0010
0000
,  // measure 39
0200
0000
0010
0300
0001
0000
1000
0000
0010
0000
0100
0000
0002
0000
0010
0003
0001
0000
2000
0000
0100
3000
0010
0000
,  // measure 40
0200
0000
1000
0300
0010
0000
0100
0000
0001
0000
0020
0000
0100
0000
1030
0000
0001
0000
1000
0000
0100
0000
0010
0000
,  // measure 41
0002
0000
0100
0003
0010
0000
0100
0000
0010
0000
1000
0000
0001
0000
1000
0000
0010
0000
0200
0000
0001
0300
0010
0000
,  // measure 42
0200
0000
1000
0300
0001
0000
2000
0000
0010
3000
0100
0000
0002
0000
1000
0003
0001
0000
2000
0000
0100
3000
0010
0000
,  // measure 43
0002
0000
1000
0003
0010
0000
0100
0000
0010
0000
1000
0000
0100
0000
0010
0000
0100
0000
0010
0000
0001
0000
1000
0000
,  // measure 44
1001
1001
1001
0000
0000
0000
0101
0101
0101
1001
1001
1001
,  // measure 45
2200
0000
0000
0000
,  // measure 46
0000
0000
0000
0000
,  // measure 47
0000
0000
0000
0000
,  // measure 48
0000
0000
0000
0000
0000
0000
0000
3300
,  // measure 49
1000
0010
1000
0010
0100
0010
0100
0010
0100
0001
0100
0001
0010
0100
1000
0100
,  // measure 50
0010
0001
1000
0100
0010
0001
0010
0100
0010
0001
1000
0100
0010
0001
0010
0100
,  // measure 51
1000
0010
1000
0010
0100
0010
0100
0001
0100
0001
0010
0001
0010
0100
0010
0100
1000
0100
0010
0001
1000
0100
0010
0001
,  // measure 52
0400
0040
0000
0000
0000
0000
0000
0000
0000
0000
0000
0000
0000
0000
0000
0000
0000
0000
0000
0330
0000
1001
0000
0000
,  // measure 53
0001
0100
0001
0010
0001
1000
0001
0010
0100
1000
0001
1000
0010
0000
1000
0001
,  // measure 54
0100
0000
0010
1000
0000
1000
0010
0100
0001
0010
0001
0010
0001
0010
0100
0010
,  // measure 55
0001
1000
0200
0000
0301
1000
0002
0000
1003
0010
2000
0000
3001
1000
0010
0100
,  // measure 56
0010
0000
1000
0000
0001
0010
0000
0100
0020
0000
0000
0000
0000
0000
0130
0000
,  // measure 57
1000
0010
0100
0010
1000
0001
0010
0100
1000
0001
0010
0001
1000
0100
1000
0100
,  // measure 58
0010
0001
0100
0001
0000
0100
0001
0100
0010
1000
0001
0010
0001
1000
0100
0010
,  // measure 59
0001
0000
1000
0010
0200
0000
0310
1000
0002
0000
0013
0100
2000
0000
3100
0000
,  // measure 60
2001
0000
3010
0000
1002
0000
0103
0000
0201
0000
0010
0010
0000
0301
0020
0000
,  // measure 61
0130
0010
0001
0010
0100
1000
0001
0100
0010
1000
0001
1000
0100
0000
0010
0001
,  // measure 62
1000
0000
0001
1000
0000
0010
0100
0010
1000
0100
0010
0001
1000
0100
0010
0100
,  // measure 63
1000
0001
0020
0000
0130
1000
0002
0000
1003
0100
0020
0000
0031
0010
0100
0010
,  // measure 64
0100
0000
1000
0000
0001
0100
0000
0010
0200
0000
0000
0000
0000
0000
0310
0000
,  // measure 65
1000
0100
0010
0100
1000
0001
0100
0010
1000
0100
1000
0001
0010
0001
0010
0100
,  // measure 66
1000
0001
1000
0001
0100
0010
1000
0010
0100
0001
1000
0100
1000
0001
0010
0100
,  // measure 67
2000
3020
0230
0302
,  // measure 68
0013
0100
0010
0001
0100
0010
1000
0001
1000
0100
0010
0001
0010
0100
0010
0001
,  // measure 69
2000
0000
0000
0000
3001
0100
0010
1000
0001
0010
0100
1000
0001
0000
1000
0001
,  // measure 70
0010
0000
0001
0000
0100
0000
0000
0010
0000
1000
0001
0000
0010
0000
0100
0000
,  // measure 71
2000
0000
3001
0200
0000
0310
2000
0000
3200
0000
0310
0002
0000
0203
1000
0300
,  // measure 72
0001
0000
2000
0010
3000
0200
0001
0300
0010
0100
1000
0100
0002
0000
0000
0000
,  // measure 73
0003
0000
0000
0000
;
