#VERSION:0.83;
#TITLE:Incoming;
#SUBTITLE:;
#ARTIST:Angerfist;
#TITLETRANSLIT:;
#SUBTITLETRANSLIT:;
#ARTISTTRANSLIT:;
#GENRE:;
#ORIGIN:;
#CREDIT:;
#BANNER:Incoming.png;
#BACKGROUND:Incoming-bg.png;
#PREVIEWVID:;
#JACKET:Incoming-jacket.png;
#CDIMAGE:;
#DISCIMAGE:;
#LYRICSPATH:;
#CDTITLE:;
#MUSIC:Incoming.ogg;
#OFFSET:-10.843005;
#SAMPLESTART:20.332531;
#SAMPLELENGTH:12.203388;
#SELECTABLE:YES;
#BPMS:0.000=177.000,
28.000=354.000,
36.000=177.000,
330.000=354.000,
338.000=177.000;
#STOPS:268.000=2.034;
#DELAYS:;
#WARPS:;
#TIMESIGNATURES:0.000=4=4;
#TICKCOUNTS:0.000=4;
#COMBOS:0.000=1;
#SPEEDS:0.000=1.000=0.000=0;
#SCROLLS:0.000=1.000;
#FAKES:;
#LABELS:0.000=Song Start;
#BGCHANGES:;
#KEYSOUNDS:;
#ATTACKS:
;

//---------------dance-single - ----------------
#NOTEDATA:;
#CHARTNAME:;
#STEPSTYPE:dance-single;
#DESCRIPTION:;
#CHARTSTYLE:;
#DIFFICULTY:Hard;
#METER:9;
#RADARVALUES:0.528558,0.694026,0.375466,0.211200,0.199467,473.000000,425.000000,48.000000,27.000000,0.000000,0.000000,0.000000,0.000000,0.000000,0.528558,0.694026,0.375466,0.211200,0.199467,473.000000,425.000000,48.000000,27.000000,0.000000,0.000000,0.000000,0.000000,0.000000;
#CREDIT:;
#NOTES:
// measure 0
1000
0000
0010
0000
0100
0001
0100
0010
,  // measure 1
0000
0000
0100
0000
0000
0020
0000
0000
,  // measure 2
1030
0000
0001
0000
0100
0010
1000
0010
,  // measure 3
0000
0000
0100
0000
0000
0002
0000
0000
,  // measure 4
0103
0001
1000
0001
,  // measure 5
0100
0000
0010
0000
1000
0000
0001
0000
0010
0000
0100
0000
,  // measure 6
0020
0000
0000
0000
,  // measure 7
0030
0000
0000
0000
,  // measure 8
0000
0000
0000
0000
,  // measure 9
1001
0000
0101
0000
0001
0100
0010
0100
,  // measure 10
0001
0010
0100
1000
0001
2000
0000
0000
,  // measure 11
3010
0000
0101
0000
0001
0010
0001
1000
,  // measure 12
0100
1000
0010
0100
0001
0001
1000
1000
,  // measure 13
0200
0000
0301
0000
0100
0010
0001
1000
,  // measure 14
0100
1000
0010
0100
0001
0020
0000
0000
,  // measure 15
0130
1000
0010
0100
0001
0010
0001
1000
,  // measure 16
1200
0000
0001
0000
1000
0001
1300
0000
,  // measure 17
1001
0000
0011
0000
0010
0100
1000
0010
,  // measure 18
0110
0000
0101
0000
0001
2000
0000
0000
,  // measure 19
3010
0000
1100
0000
1000
0010
0001
0010
,  // measure 20
0100
0000
0011
0000
1000
0020
0031
0020
,  // measure 21
1030
0000
0101
0000
0001
0010
0001
1000
,  // measure 22
1100
0000
0101
0000
0001
2000
0000
3000
,  // measure 23
1001
0000
0000
0101
0000
1000
1100
0000
0000
0011
0000
0000
,  // measure 24
1001
0010
0200
0300
,  // measure 25
0010
0000
0000
1000
0000
1000
0001
0000
0001
1000
0000
0001
,  // measure 26
0100
0000
0000
0100
0000
0000
0010
0000
2000
0000
0000
0000
,  // measure 27
3001
0000
0000
0100
0000
0000
0010
0000
0100
0001
0000
0020
,  // measure 28
0000
0000
0000
0000
0000
0000
0000
0000
0000
0130
0010
0001
,  // measure 29
1000
0000
0000
1010
0000
1000
0010
0000
0100
0001
0000
0001
,  // measure 30
0010
0000
0000
1100
0000
0000
1001
0000
0001
0200
0000
0000
,  // measure 31
0310
0000
1000
0010
0000
0010
0100
0000
0100
0001
0000
0001
,  // measure 32
1000
0000
1000
0100
0000
0100
0110
0000
0010
0110
0000
0100
,  // measure 33
0110
0000
0000
1100
0000
1000
0001
0000
0001
0100
0000
0100
,  // measure 34
0110
0000
0000
0101
0000
0000
0011
0000
0000
0001
1000
0001
,  // measure 35
1000
0000
1000
0010
0000
0010
0100
0000
0100
0001
0000
0001
,  // measure 36
1000
0000
0010
0100
0000
0001
0020
0000
0000
0000
0000
0000
,  // measure 37
0130
0000
0100
1000
0000
1000
0010
0000
0010
1000
0000
1000
,  // measure 38
0001
0000
1000
0100
0000
1000
0010
0000
0200
0000
0000
0000
,  // measure 39
0310
0000
1000
0010
0000
0010
0100
0000
0100
0001
0000
0010
,  // measure 40
0001
0000
0001
1000
0000
0001
0100
0000
0020
0000
0000
0000
,  // measure 41
0130
0001
0010
0001
,  // measure 42
1000
0100
1000
1000
,  // measure 43
0001
0001
0000
0000
,  // measure 44
0010
0010
0000
0000
,  // measure 45
0100
0010
0100
0000
0000
0000
0010
0001
,  // measure 46
0000
2000
0000
0000
0000
0000
3010
1000
,  // measure 47
0010
0100
0001
0000
0000
0000
1000
0001
,  // measure 48
0000
0200
0000
0000
0000
0000
0301
0010
,  // measure 49
0001
1000
0100
0000
0000
0000
1000
0010
,  // measure 50
0000
0200
0000
0000
0000
0000
0310
1000
,  // measure 51
0001
0000
1000
0000
0000
0000
0100
1000
,  // measure 52
0000
0002
0000
0000
0000
0000
1003
0000
,  // measure 53
0100
1000
0100
0000
1000
0000
0010
0000
,  // measure 54
0100
0001
0100
0000
0001
0000
1000
0000
,  // measure 55
0010
1000
0010
0000
1000
0000
0001
0000
,  // measure 56
0010
0001
0010
0000
0001
0000
1000
0000
,  // measure 57
0001
0100
1000
0000
0100
0000
0001
0000
,  // measure 58
0010
1000
0001
0000
0010
0000
0100
0000
,  // measure 59
1000
0100
0001
0000
0100
0000
1000
0000
,  // measure 60
0010
0001
0010
0000
1000
0000
0010
0000
,  // measure 61
0100
0000
0010
0000
1000
0000
0001
0100
,  // measure 62
0000
0010
0000
1000
0001
0000
1000
0010
,  // measure 63
0100
0000
0001
0000
1000
0000
0100
1000
,  // measure 64
0000
0010
0000
0100
0001
0000
1000
0001
,  // measure 65
0100
0001
0100
0000
0010
1000
0010
0000
,  // measure 66
1000
0100
1000
0000
0100
0010
0100
0000
,  // measure 67
1001
1000
0010
0100
1001
0001
0101
0000
,  // measure 68
0001
0010
0001
1000
0100
1000
0010
0100
,  // measure 69
0001
0000
1000
0001
0011
0000
1100
0000
,  // measure 70
0100
1000
0010
0100
0001
0010
0001
1000
,  // measure 71
0001
0000
0000
0100
0000
0000
0010
0000
1010
0000
0000
0000
0101
0000
0000
0000
,  // measure 72
0100
0010
1000
0001
0100
0001
1000
0100
,  // measure 73
0010
0000
0100
1000
1001
0000
0101
0000
,  // measure 74
1001
1100
0201
1000
,  // measure 75
0001
1000
0301
0000
0010
0000
1001
0000
,  // measure 76
1000
0010
1000
0001
0010
0001
0010
0100
,  // measure 77
1000
0000
0001
1000
1100
0000
0101
0000
,  // measure 78
0001
0010
0001
0010
0100
0010
0001
1000
,  // measure 79
0020
2030
3001
1001
,  // measure 80
1000
1010
0010
0110
,  // measure 81
0100
0101
0001
0100
,  // measure 82
0010
1000
2002
0000
,  // measure 83
0000
0000
0000
0000
,  // measure 84
0000
0000
3003
0000
;

//---------------dance-single - ----------------
#NOTEDATA:;
#CHARTNAME:;
#STEPSTYPE:dance-single;
#DESCRIPTION:;
#CHARTSTYLE:;
#DIFFICULTY:Medium;
#METER:7;
#RADARVALUES:0.392228,0.594880,0.273778,0.109511,0.031289,351.000000,316.000000,35.000000,14.000000,0.000000,0.000000,0.000000,0.000000,0.000000,0.392228,0.594880,0.273778,0.109511,0.031289,351.000000,316.000000,35.000000,14.000000,0.000000,0.000000,0.000000,0.000000,0.000000;
#CREDIT:;
#NOTES:
// measure 0
1000
0000
0010
0000
0000
0100
0000
0010
,  // measure 1
0000
0000
0100
0000
0000
0002
0000
0000
,  // measure 2
1003
0000
0100
0000
0000
0010
0000
0001
,  // measure 3
0000
0000
0010
0000
0000
0200
0000
0000
,  // measure 4
1300
0100
1000
0010
,  // measure 5
0100
0001
0010
0100
,  // measure 6
2002
0000
0000
0000
,  // measure 7
3003
0000
0000
0000
,  // measure 8
0000
0000
0000
0000
,  // measure 9
1001
1000
0010
0100
,  // measure 10
0001
1000
0010
0010
,  // measure 11
0100
0001
1000
0100
,  // measure 12
0001
0000
0100
0000
1000
0001
1000
0001
,  // measure 13
1000
0010
0100
0001
,  // measure 14
0010
1000
0010
0100
,  // measure 15
1000
1000
1000
1000
,  // measure 16
0101
0000
1100
0000
1000
0010
0001
0000
,  // measure 17
0010
0100
0001
0100
,  // measure 18
1000
0000
0100
0000
0010
0000
1000
0001
,  // measure 19
0010
0100
1000
0100
,  // measure 20
0001
0000
0100
0000
1000
0001
1000
0001
,  // measure 21
1000
0010
0001
0010
,  // measure 22
0100
0001
0010
1000
,  // measure 23
0010
0000
0000
0010
0000
0100
0010
0000
0000
0001
0000
0000
,  // measure 24
1001
1000
0200
0300
,  // measure 25
1000
1000
0001
0001
,  // measure 26
1000
0001
1000
0001
,  // measure 27
0100
0100
0010
0100
,  // measure 28
0002
0000
0000
0000
0000
0000
0003
0000
0000
1000
0001
1000
,  // measure 29
0001
0101
0011
0101
,  // measure 30
0011
0101
0011
1001
,  // measure 31
1100
1010
1100
1010
,  // measure 32
1100
0000
0000
1010
0000
0000
1000
0000
0010
0100
0000
0100
,  // measure 33
0001
0011
0101
0011
,  // measure 34
0101
0011
0101
1001
,  // measure 35
1100
1010
1100
1010
,  // measure 36
1100
1000
0002
0003
,  // measure 37
1000
0100
0010
0100
,  // measure 38
1000
0000
0000
0010
0000
0000
0100
0000
0002
0000
0000
0000
,  // measure 39
0103
0010
1000
0001
,  // measure 40
0010
0000
0000
0100
0000
0000
1000
0000
0200
0000
0000
0000
,  // measure 41
1300
0010
0100
0010
,  // measure 42
1000
0000
0001
0001
,  // measure 43
0100
0100
0000
0000
,  // measure 44
0001
0001
0000
0000
,  // measure 45
1000
0001
0100
0000
0000
0000
0010
0100
,  // measure 46
0000
0002
0000
0000
0000
0000
1003
0010
,  // measure 47
1000
0100
1000
0000
0000
0000
0100
1000
,  // measure 48
0000
0020
0000
0000
0000
0000
0130
0001
,  // measure 49
1000
0001
1000
0000
0000
0000
0100
1000
,  // measure 50
0000
0020
0000
0000
0000
0000
0130
0001
,  // measure 51
0100
0000
0001
0000
0000
0000
0100
0010
,  // measure 52
0000
2000
0000
0000
0000
0000
3010
0100
,  // measure 53
0001
0001
1000
1000
,  // measure 54
0100
1000
0100
1000
,  // measure 55
0100
0100
0010
0010
,  // measure 56
0100
1000
0010
0100
,  // measure 57
0001
1000
0100
1000
,  // measure 58
0001
0001
0001
0100
,  // measure 59
0010
1000
0010
0100
,  // measure 60
0001
0001
0100
0010
,  // measure 61
1000
0000
0001
0000
0000
0000
1000
0100
,  // measure 62
0000
1000
0000
0000
0010
0000
0100
0001
,  // measure 63
1000
0000
0001
0000
0000
0000
1000
0001
,  // measure 64
0000
0100
0000
0000
0010
0000
0100
0010
,  // measure 65
1000
0000
0010
0000
,  // measure 66
0100
0000
0001
0000
,  // measure 67
1001
1000
0100
0010
0011
0000
1100
0000
,  // measure 68
0000
0100
0000
0010
0000
0001
0000
0000
,  // measure 69
1000
0000
0001
0100
0010
0000
1000
0000
,  // measure 70
0000
0001
0000
1000
0000
0010
0000
0000
,  // measure 71
0100
0000
0000
0100
0000
0000
0001
0000
0010
0000
0000
0000
0100
0000
0000
0000
,  // measure 72
0000
1000
0000
0001
0000
1000
0000
0000
,  // measure 73
0001
0000
1000
0001
0010
0000
0100
0000
,  // measure 74
0000
0100
0000
0010
1000
0000
0100
0000
,  // measure 75
0001
0100
1000
0000
1010
0000
0101
0000
,  // measure 76
0000
0000
0001
0010
0000
0001
0000
0000
,  // measure 77
1000
0000
0100
1000
0010
0000
0100
0000
,  // measure 78
0000
0000
0001
0100
0000
0010
0000
0000
,  // measure 79
1000
0000
0001
0100
0010
0000
1000
0000
,  // measure 80
0000
0000
0001
1000
0000
0100
0000
0000
,  // measure 81
1000
0000
0001
0100
0010
0000
1000
0000
,  // measure 82
0001
0100
0020
0000
,  // measure 83
0000
0000
0000
0000
,  // measure 84
0000
0000
0030
0000
;

//---------------dance-single - ----------------
#NOTEDATA:;
#CHARTNAME:;
#STEPSTYPE:dance-single;
#DESCRIPTION:;
#CHARTSTYLE:;
#DIFFICULTY:Easy;
#METER:5;
#RADARVALUES:0.318476,0.462684,0.179911,0.031289,0.000000,285.000000,262.000000,23.000000,4.000000,0.000000,0.000000,0.000000,0.000000,0.000000,0.318476,0.462684,0.179911,0.031289,0.000000,285.000000,262.000000,23.000000,4.000000,0.000000,0.000000,0.000000,0.000000,0.000000;
#CREDIT:;
#NOTES:
// measure 0
1000
0000
0100
0000
,  // measure 1
1000
1000
0010
0000
,  // measure 2
0100
0000
0001
0000
,  // measure 3
0010
0010
0001
0000
,  // measure 4
1000
0000
0001
0000
,  // measure 5
0100
0000
0010
0000
,  // measure 6
2000
0000
0000
0000
,  // measure 7
3000
0000
0000
0000
,  // measure 8
0000
0000
0000
0000
,  // measure 9
1001
0001
1000
0010
,  // measure 10
1000
0001
0100
0001
,  // measure 11
1000
0100
1000
0010
,  // measure 12
0100
0000
0001
0000
0010
0100
0010
0100
,  // measure 13
1000
0100
1000
0010
,  // measure 14
0100
0001
1000
0100
,  // measure 15
1000
0010
0100
0001
,  // measure 16
1001
1001
1001
1001
,  // measure 17
0001
1000
0010
1000
,  // measure 18
0100
0000
1000
0000
0010
0000
0100
0001
,  // measure 19
0100
0010
1000
0100
,  // measure 20
0010
0000
0001
0000
1000
0001
1000
0001
,  // measure 21
1000
0100
1000
0010
,  // measure 22
1000
0001
0010
0100
,  // measure 23
0110
1001
0110
1001
,  // measure 24
1000
0001
0001
0000
,  // measure 25
1000
0100
1000
0010
,  // measure 26
1000
0001
1000
0100
,  // measure 27
1000
0001
1000
0010
,  // measure 28
0200
0000
0000
0301
,  // measure 29
0100
0001
0100
0001
,  // measure 30
0100
0001
0100
0100
,  // measure 31
0010
1000
0010
1000
,  // measure 32
0010
1000
0010
0010
,  // measure 33
0100
0001
0100
0001
,  // measure 34
1000
0001
1000
0001
,  // measure 35
1000
0100
1000
0100
,  // measure 36
1000
0010
0200
0000
,  // measure 37
0301
0000
0100
0000
,  // measure 38
0010
1000
0010
0000
,  // measure 39
1000
0000
0001
0000
,  // measure 40
1000
0100
1000
0000
,  // measure 41
0010
0000
0000
0000
,  // measure 42
0000
0000
0100
0000
,  // measure 43
0001
0000
0000
0000
,  // measure 44
0010
0000
0000
0000
,  // measure 45
0100
1000
0000
0100
,  // measure 46
1000
0010
0000
0100
,  // measure 47
0001
0001
0000
0100
,  // measure 48
0010
0100
0000
0010
,  // measure 49
1000
1000
0000
0100
,  // measure 50
1000
0001
0000
0010
,  // measure 51
0001
0001
0000
0010
,  // measure 52
0100
1000
0000
0100
,  // measure 53
1000
0000
0010
0000
,  // measure 54
0100
0000
0001
0000
,  // measure 55
1000
0000
0010
0000
,  // measure 56
0100
0000
0001
0000
,  // measure 57
1000
0000
0010
0000
,  // measure 58
0100
0000
0001
0000
,  // measure 59
1000
0000
0100
0000
,  // measure 60
1000
0000
0010
0000
,  // measure 61
0100
0001
0000
0100
,  // measure 62
0010
1000
0001
0010
,  // measure 63
0100
0100
0000
0010
,  // measure 64
0001
1000
0010
0100
,  // measure 65
0001
0000
0100
0000
,  // measure 66
0010
0000
1000
0000
,  // measure 67
1001
0000
1001
1001
,  // measure 68
0001
1000
0010
0100
,  // measure 69
0001
0010
0110
0110
,  // measure 70
0100
1000
0010
0100
,  // measure 71
0001
1000
1001
1001
,  // measure 72
0001
0100
0001
0010
,  // measure 73
0100
1000
0100
0100
,  // measure 74
0010
0001
1001
1001
,  // measure 75
1001
1001
0001
1001
,  // measure 76
1000
0010
0100
0001
,  // measure 77
0010
0100
1000
1001
,  // measure 78
0001
1000
0010
1000
,  // measure 79
0001
0100
0001
1001
,  // measure 80
0001
0100
0001
0100
,  // measure 81
0001
0100
0010
0010
,  // measure 82
0010
0010
0200
0000
,  // measure 83
0000
0000
0000
0000
,  // measure 84
0000
0000
0300
0000
;

//---------------dance-single - ----------------
#NOTEDATA:;
#CHARTNAME:;
#STEPSTYPE:dance-single;
#DESCRIPTION:;
#CHARTSTYLE:;
#DIFFICULTY:Beginner;
#METER:2;
#RADARVALUES:0.188851,0.387200,0.179911,0.007822,0.000000,169.000000,146.000000,23.000000,1.000000,0.000000,0.000000,0.000000,0.000000,0.000000,0.188851,0.387200,0.179911,0.007822,0.000000,169.000000,146.000000,23.000000,1.000000,0.000000,0.000000,0.000000,0.000000,0.000000;
#CREDIT:;
#NOTES:
// measure 0
1000
0000
0000
0000
,  // measure 1
0001
0000
0000
0000
,  // measure 2
0100
0000
0000
0000
,  // measure 3
0010
0000
0000
0000
,  // measure 4
1000
0000
0000
0000
,  // measure 5
0001
0000
1000
0000
,  // measure 6
0020
0000
0000
0000
,  // measure 7
0030
0000
0000
0000
,  // measure 8
0000
0000
0000
0000
,  // measure 9
1001
0000
0001
0000
,  // measure 10
1000
0000
0010
0010
,  // measure 11
0100
0000
0010
0000
,  // measure 12
1000
0000
0001
0001
,  // measure 13
0001
1000
0000
1000
,  // measure 14
0000
0001
0000
1000
,  // measure 15
0010
0000
0100
0000
,  // measure 16
0010
0010
0010
0010
,  // measure 17
1001
0000
0001
0000
,  // measure 18
1000
0000
0010
0000
,  // measure 19
1000
0000
0001
0000
,  // measure 20
0100
0000
0010
0010
,  // measure 21
0000
0100
0000
0010
,  // measure 22
0000
1000
0000
0001
,  // measure 23
1000
0000
0001
0000
,  // measure 24
0100
0010
0010
0000
,  // measure 25
1001
0000
0000
0000
,  // measure 26
0000
0000
0000
0000
,  // measure 27
1001
0000
0001
0000
,  // measure 28
0100
0000
0000
0010
,  // measure 29
1001
0000
1001
0000
,  // measure 30
1001
0000
1001
1001
,  // measure 31
0110
0000
0110
0000
,  // measure 32
0110
0000
0010
1001
,  // measure 33
0010
0000
0110
0000
,  // measure 34
1001
0000
0110
0000
,  // measure 35
1001
0000
1001
0000
,  // measure 36
0010
1001
1001
0000
,  // measure 37
0001
0000
0000
0000
,  // measure 38
0100
0000
0000
0000
,  // measure 39
0001
0000
0000
0000
,  // measure 40
1000
0000
0000
0000
,  // measure 41
0010
0000
0000
0000
,  // measure 42
0000
0000
0100
0000
,  // measure 43
0010
0000
0000
0000
,  // measure 44
1000
0000
0000
0000
,  // measure 45
0001
0001
0000
0000
,  // measure 46
0000
0000
0000
1000
,  // measure 47
0001
0001
0000
0000
,  // measure 48
0000
0000
0000
0001
,  // measure 49
1000
1000
0000
0000
,  // measure 50
0000
0000
0000
1000
,  // measure 51
0001
1000
0000
0000
,  // measure 52
0000
0000
0000
0010
,  // measure 53
0100
0000
0000
0000
,  // measure 54
0010
0000
0000
0000
,  // measure 55
1000
0000
0000
0000
,  // measure 56
0001
0000
0000
0000
,  // measure 57
0100
0000
0000
0000
,  // measure 58
0010
0000
0000
0000
,  // measure 59
1000
0000
0000
0000
,  // measure 60
0100
0000
0000
0000
,  // measure 61
1000
1000
0000
0000
,  // measure 62
0000
0000
0000
0000
,  // measure 63
0001
0001
0000
0000
,  // measure 64
0000
0000
0000
0000
,  // measure 65
0100
0000
0000
0000
,  // measure 66
0010
0000
0000
0000
,  // measure 67
1001
0000
0001
0001
,  // measure 68
0000
1000
0000
0001
,  // measure 69
0000
0100
0010
0010
,  // measure 70
0000
0100
0000
0010
,  // measure 71
0000
1000
1000
0001
,  // measure 72
0000
1000
0000
0010
,  // measure 73
0000
0100
0100
0100
,  // measure 74
0000
0010
1000
1000
,  // measure 75
1000
1000
0001
1001
,  // measure 76
0000
0001
0001
0000
,  // measure 77
1000
0001
0100
0100
,  // measure 78
0000
0010
0000
0000
,  // measure 79
0100
0100
0010
0000
,  // measure 80
1000
0000
0001
0000
,  // measure 81
0100
0000
0010
0000
,  // measure 82
0100
0000
1001
0000
;
