#VERSION:0.83;
#TITLE:I will be back;
#SUBTITLE:-オレは帰ってきた-;
#ARTIST:SUPER STAR 満-MITSURU-;
#TITLETRANSLIT:;
#SUBTITLETRANSLIT:-ore wa kaettekita-;
#ARTISTTRANSLIT:;
#GENRE:;
#ORIGIN:;
#CREDIT:;
#BANNER:bn.png;
#BACKGROUND:bg.png;
#PREVIEWVID:;
#JACKET:jacket.png;
#CDIMAGE:;
#DISCIMAGE:;
#LYRICSPATH:;
#CDTITLE:;
#MUSIC:I will be back -ore wa kaettekita-.mp3;
#OFFSET:0.489000;
#SAMPLESTART:12.683812;
#SAMPLELENGTH:11.860465;
#SELECTABLE:YES;
#BPMS:0.000=172.000,
168.000=86.000,
184.000=172.000;
#STOPS:216.000=0.349;
#DELAYS:;
#WARPS:;
#TIMESIGNATURES:0.000=4=4;
#TICKCOUNTS:0.000=4;
#COMBOS:0.000=1;
#SPEEDS:0.000=1.000=0.000=0;
#SCROLLS:0.000=1.000;
#FAKES:;
#LABELS:0.000=Song Start;
#BGCHANGES:-0.500=i will be backbga.avi=1.000=0=0=0=StretchNoLoop====,
99999=-nosongbg-=1.000=0=0=0 // don't automatically add -songbackground-
;
#KEYSOUNDS:;
#ATTACKS:
;

//---------------dance-single - ----------------
#NOTEDATA:;
#CHARTNAME:;
#STEPSTYPE:dance-single;
#DESCRIPTION:;
#CHARTSTYLE:;
#DIFFICULTY:Hard;
#METER:8;
#RADARVALUES:0.526121,0.904777,0.141648,0.274443,0.340841,416.000000,400.000000,16.000000,31.000000,0.000000,0.000000,0.000000,0.000000,0.000000,0.526121,0.904777,0.141648,0.274443,0.340841,416.000000,400.000000,16.000000,31.000000,0.000000,0.000000,0.000000,0.000000,0.000000;
#CREDIT:;
#NOTES:
0000
0000
0000
0000
,
0000
0000
0000
0000
,
0000
0000
0000
0000
,
0000
0000
0000
0000
,
0000
0000
0000
0000
,
0002
0000
0203
0000
,
0302
0000
0023
0000
,
0032
0000
2003
0000
,
3200
0000
0320
0000
,
0030
0000
0100
0010
,
2002
0000
0000
0000
,
0000
0000
0000
0000
,
0000
0000
0000
0000
,
0000
0000
0000
3003
,
1001
0000
0000
1010
0000
0000
0000
1001
,
0000
0000
0000
0011
0000
0000
1100
0000
,
1001
0000
0000
0011
0000
0000
0000
1100
,
0000
0000
0000
0000
0100
0010
1001
0000
,
0001
0000
0100
0000
0010
0000
1000
0010
,
0000
0001
0000
0010
0000
1000
0001
0000
,
1000
0000
0010
0000
0100
0000
0010
1000
,
0000
0001
0000
0010
0000
0100
0010
0000
,
0001
0000
0100
0000
0010
0000
1000
0010
,
0000
0100
0000
0001
0000
0010
1000
0000
,
0010
0000
0100
0000
1000
0000
0000
0100
,
0000
1000
0000
0010
0000
0100
0001
0000
,
0001
1000
0100
1000
0001
0100
0000
0001
,
0000
1000
0010
1000
0001
0010
0001
1000
,
0001
0100
0001
0010
0001
1000
0000
0001
,
0000
0100
0000
0010
0000
0100
0010
0010
,
1000
0100
0001
0100
1000
0100
0000
0010
,
0000
0100
0010
0001
0100
1000
0100
0010
,
1000
0010
1000
0100
0010
0100
0000
1000
,
0000
0001
0000
0010
0000
0100
0200
0000
,
0310
0000
0100
2000
0000
3001
0010
0200
,
0000
0310
0001
0200
0000
0310
2000
0000
,
3200
0000
0310
0002
0000
0013
0100
2000
,
0000
3010
0100
0010
1000
0001
1001
0000
,
0002
0000
0103
0020
0000
1030
0001
0200
,
0000
0301
1000
0020
0000
1030
0200
0000
,
2300
0000
3001
0200
0000
0301
1000
0020
,
0000
0130
0010
1000
0001
0010
1001
0000
,
1000
0010
1000
0001
0000
0010
0001
0010
0000
0001
0010
0001
0000
0010
0001
0010
,
0100
1000
0010
0100
0000
0010
0100
0001
0000
1000
0100
0010
0100
1000
0001
0010
,
0100
1000
0001
0100
0000
0010
0100
0010
0000
0100
0010
1000
0000
1000
0010
0100
,
0001
1000
0100
0010
0000
0100
1000
0001
0000
1000
0100
0010
0100
1000
0001
0010
,
0100
0000
0000
0100
0000
0000
0100
0000
0000
0100
0000
0100
,
0010
0000
0000
0010
0000
0000
0010
0000
0001
1000
0000
1000
,
0010
0000
0000
0010
0000
0000
0010
0000
0000
0010
0000
0100
,
0001
0000
0000
0001
0000
0000
0001
0000
0001
1000
0000
1000
,
0010
0000
0000
0100
0000
0001
0010
0000
0000
0001
0000
1000
,
0010
0000
0000
0100
0000
0001
0010
0000
0000
0100
0000
1000
,
0010
0000
0010
0100
0000
0100
0001
0000
0001
0010
0000
0100
,
1000
0010
0100
0001
0010
0100
1000
0000
1010
0000
0011
0000
,
2002
0000
0000
0000
0003
0000
3000
0000
0000
0000
0000
0000
1000
0010
0000
0100
,
0000
0000
0001
0100
0000
0010
0000
0000
0100
0000
0010
0000
1000
0000
0001
0000
,
0100
0000
0001
0000
1000
0000
0100
0000
1000
0000
0010
0000
0100
0000
0001
2000
,
0000
0000
3001
0000
0010
0000
1000
0000
0010
0000
0100
0000
1000
0000
0001
0100
,
0000
0000
0001
0000
0010
0000
0100
0010
0000
0000
0100
0000
1000
0000
0001
0000
,
0010
0000
0100
0000
0010
0000
0001
0000
1000
0000
0100
0000
0010
0000
0000
0001
,
1000
0000
0000
0100
1000
0000
1000
0100
0000
0000
1000
0000
0010
0000
0100
0001
,
0000
0010
0100
1000
0010
1000
0001
0100
,
0001
0100
0010
0100
0010
0100
0010
1000
,
0010
1000
0001
1000
0001
1000
0001
0100
,
0010
0100
0000
0010
1000
0100
1000
0010
,
1000
0001
0000
1000
0010
1000
0001
0100
,
0010
0000
1000
0000
0000
0000
0001
0000
1000
0000
0100
0000
0010
0000
0000
0001
,
0000
0000
1000
0000
0000
0010
0000
0000
0100
0000
0100
0000
0010
0000
0001
0000
,
0010
1000
0000
0010
0100
0001
0010
1000
,
0010
0000
0100
0000
0000
0000
0010
0000
0001
0000
1000
0000
0001
0000
0000
1000
,
0010
0000
0000
0010
0100
0000
0000
0100
0001
0000
0000
0001
0010
0100
0010
0100
,
0010
0100
0010
0100
0010
0100
0010
0100
0010
0100
0010
0100
1000
0000
0001
0000
,
2002
0000
0000
0000
,
3003
0000
0000
0000
;

//---------------dance-single - ----------------
#NOTEDATA:;
#CHARTNAME:;
#STEPSTYPE:dance-single;
#DESCRIPTION:;
#CHARTSTYLE:;
#DIFFICULTY:Easy;
#METER:4;
#RADARVALUES:0.269384,0.549329,0.168207,0.150501,0.000000,213.000000,194.000000,19.000000,17.000000,0.000000,0.000000,0.000000,0.000000,0.000000,0.269384,0.549329,0.168207,0.150501,0.000000,213.000000,194.000000,19.000000,17.000000,0.000000,0.000000,0.000000,0.000000,0.000000;
#CREDIT:;
#NOTES:
0000
0000
0000
0000
,
0000
0000
0000
0000
,
0000
0000
0000
0000
,
0000
0000
0000
0000
,
0000
0000
0000
0000
,
1000
0000
0001
0000
,
0100
0000
0001
0000
,
1000
0000
0100
0000
,
0010
0000
0001
0000
,
0000
0000
1000
0001
,
2002
0000
0000
0000
,
0000
0000
0000
0000
,
0000
0000
0000
0000
,
0000
0000
0000
3003
,
1000
0000
0000
1000
0000
0000
0000
1000
,
0000
0000
0000
1000
0000
0000
1000
0000
,
0001
0000
0000
0001
0000
0000
0000
0001
,
0000
0000
0001
1000
,
0001
0100
0001
0010
,
0001
1000
0001
0001
,
1000
0100
1000
0010
,
1000
0100
1000
1000
,
0001
0100
0001
1000
,
0100
1000
0001
0001
,
1000
0001
0010
0001
,
1000
0010
1000
0001
,
1000
0001
1000
0000
,
0010
0000
0100
0000
,
0001
0100
0001
0000
,
1000
0000
0100
0000
,
1000
0010
1000
0000
,
0010
0000
0100
0000
,
0001
0100
0001
0000
,
1000
0000
0001
0000
,
2000
0000
3020
0000
,
0230
0000
0301
1000
,
0200
0000
2300
0000
,
3020
0000
0130
0001
,
2000
0000
3002
0000
,
0203
0000
0301
0010
,
0002
0000
2003
0000
,
3020
0000
0130
1001
,
1000
0001
0100
0010
,
1000
0100
1000
0001
,
0100
0001
0010
0001
,
1000
0010
0100
0001
,
1001
0000
1000
0001
,
1000
0000
0010
0100
,
0010
0000
1000
0010
,
1000
0000
0001
0100
,
1001
0000
0110
0000
,
1010
0000
0101
0000
,
1001
0101
1001
1100
,
1001
0110
1001
0001
,
1001
0000
0000
1010
,
0000
0101
0000
0000
1010
0000
0001
0000
,
1000
0100
1000
0010
,
0100
0001
0010
0001
,
0100
0001
1000
0001
,
0010
0100
1000
0100
,
0100
1000
0010
0100
,
0001
0010
0010
0001
,
1000
0001
0010
0001
,
0100
0001
1000
0001
,
0100
0000
0001
1000
,
0100
0000
1000
0010
,
0100
0000
0010
0100
,
0100
0010
0010
1000
,
0001
0000
0010
0001
,
0100
0000
0010
1000
,
0100
0010
0001
2000
,
0000
0000
0000
3000
,
0220
0000
0000
0000
,
0330
0000
0000
0000
;

//---------------dance-single - ----------------
#NOTEDATA:;
#CHARTNAME:;
#STEPSTYPE:dance-single;
#DESCRIPTION:;
#CHARTSTYLE:;
#DIFFICULTY:Medium;
#METER:6;
#RADARVALUES:0.364238,0.581642,0.194766,0.185913,0.070824,288.000000,266.000000,22.000000,21.000000,0.000000,0.000000,0.000000,0.000000,0.000000,0.364238,0.581642,0.194766,0.185913,0.070824,288.000000,266.000000,22.000000,21.000000,0.000000,0.000000,0.000000,0.000000,0.000000;
#CREDIT:;
#NOTES:
0000
0000
0000
0000
,
0000
0000
0000
0000
,
0000
0000
0000
0000
,
0000
0000
0000
0000
,
0000
0000
0000
0000
,
1000
0000
0100
0000
,
1000
0000
0010
0000
,
0100
0000
0001
0000
,
0010
0000
0100
0000
,
0000
0000
1000
0001
,
2002
0000
0000
0000
,
0000
0000
0000
0000
,
0000
0000
0000
0000
,
0000
0000
0000
3003
,
0001
0000
0000
1010
0000
0000
0000
0101
,
0000
0000
0000
0011
0000
0000
0100
0000
,
1000
0000
0000
0011
0000
0000
0000
0101
,
0000
0000
0000
0000
0001
1000
0001
0000
,
1000
0010
1000
0100
,
1000
0000
0010
0000
0100
0001
0100
0000
,
0001
0010
0001
1000
,
0100
0000
1000
0000
0001
1000
0001
0000
,
1000
0010
0100
0010
,
1000
0000
0001
0000
0010
0100
1000
0000
,
0100
0000
1000
0000
0010
0000
0000
0100
,
0000
0001
0000
0100
0000
0010
1000
0000
,
0001
0000
1000
0001
0000
0100
0000
0001
,
0000
0010
0000
0001
0000
1000
0001
0000
,
0100
0000
0010
1000
0000
0010
0000
0100
,
0000
0010
0000
0100
0000
0010
0100
0001
,
1000
0000
0001
1000
0000
0100
0000
1000
,
0000
0010
0000
0100
0000
0001
0100
0000
,
0010
0000
1000
0100
0000
0010
0000
0001
,
0000
0010
0000
0001
0000
1000
0001
0000
,
0200
0000
0000
0320
0000
0000
0000
2030
,
0000
0000
0000
3200
0000
0000
0310
0000
,
0002
0000
0000
0023
0000
0000
0000
0032
,
0000
0000
0000
2003
0000
0000
3010
0000
,
0200
0000
0000
0320
0000
0000
0000
2030
,
0000
0000
0000
3002
0000
0000
0013
0000
,
0002
0000
0000
2003
0000
0000
0000
3020
,
0000
0000
0000
0000
0130
0010
1001
0000
,
1000
0000
0000
0010
0000
0000
0000
0100
0000
0000
0000
0010
0000
0000
1000
0000
,
0001
0000
0000
0010
0000
0000
0000
0001
0000
0000
1000
0000
0100
0000
0010
0000
,
0001
0000
0000
0010
0000
0000
0000
0001
0000
0000
0000
1000
0000
0000
0010
0000
,
1000
0000
0000
0010
0000
0000
0000
0100
0000
0000
0010
0000
0100
0000
0001
0000
,
1000
0001
1000
0001
,
0010
0001
0010
0010
,
0100
1000
0100
0100
,
1000
0010
0100
0001
,
1001
0010
1001
0100
,
1001
0010
1001
0100
,
1001
0110
1001
0110
,
0101
0000
0000
1010
0000
0000
1100
0000
0100
0000
0010
0000
,
0011
0000
0000
0000
0000
0000
0000
0000
0000
0000
0000
0000
1020
0000
0000
0130
,
0000
0000
0102
0000
0000
0013
0000
0000
0100
0000
1000
0000
0001
0000
0000
0000
,
0100
0010
1000
0010
,
0100
0000
0001
0000
1000
0000
0100
1000
,
0100
0000
0010
0100
0010
0000
0001
0000
,
0010
0100
1000
0001
,
0001
1000
0010
0100
,
0001
0000
1000
0010
1000
0000
0001
0100
,
0001
0100
0010
0100
0010
0100
0010
1000
,
0010
1000
0001
1000
0001
1000
0001
0000
,
1000
0010
0000
0010
1000
0000
0001
0000
,
1000
0100
0000
0100
1000
0000
0001
0000
,
0010
0000
0001
0000
0000
0000
0001
0000
0010
0000
0000
0000
0001
0000
0000
0100
,
0000
0000
0010
0000
0000
1000
0000
0000
0001
0000
1000
0000
0100
0000
0000
0000
,
0010
0100
0000
0100
0010
0000
0001
0000
,
0001
0100
0000
0100
0001
0000
0010
0000
,
0100
0000
1000
0000
0001
0000
1000
0010
,
0100
0001
1000
0010
0100
0001
0010
0100
,
2002
0000
0000
0000
,
3003
0000
0000
0000
;

//---------------dance-single - ----------------
#NOTEDATA:;
#CHARTNAME:;
#STEPSTYPE:dance-single;
#DESCRIPTION:;
#CHARTSTYLE:;
#DIFFICULTY:Beginner;
#METER:2;
#RADARVALUES:0.137854,0.223096,0.132795,0.000000,0.000000,109.000000,94.000000,15.000000,0.000000,0.000000,0.000000,0.000000,0.000000,0.000000,0.137854,0.223096,0.132795,0.000000,0.000000,109.000000,94.000000,15.000000,0.000000,0.000000,0.000000,0.000000,0.000000,0.000000;
#CREDIT:;
#NOTES:
0000
0000
0000
0000
,
0000
0000
0000
0000
,
0000
0000
0000
0000
,
0000
0000
0000
0000
,
0000
0000
0000
0000
,
1000
0000
0000
0000
,
0001
0000
0000
0000
,
0100
0000
0000
0000
,
0010
0000
0000
0000
,
0000
0000
1000
0001
,
1001
0000
0000
0000
,
0000
0000
0000
0000
,
0000
0000
0000
0000
,
0000
0000
0000
0000
,
0110
0000
0000
0000
,
0100
0000
0000
0000
,
0010
0000
0000
0000
,
1000
0000
0001
1000
,
0001
0000
0000
0000
,
0001
0000
0000
0000
,
1000
0000
0000
0000
,
1000
0000
0000
0000
,
0010
0000
0000
0000
,
0010
0000
0000
0000
,
0100
0000
0000
0000
,
0100
0000
0000
0000
,
1001
0000
1000
0000
,
0001
0000
0000
0000
,
0100
0000
0010
0000
,
1000
0000
0000
0001
,
0001
0000
1000
0000
,
0010
0000
0000
0000
,
1000
0000
0001
0000
,
0100
0000
0000
0000
,
1001
0000
1000
0000
,
1000
0000
1000
0000
,
0001
0000
0001
0000
,
0001
0000
0100
1001
,
0010
0000
0010
0000
,
0010
0000
0010
0000
,
0100
0000
0100
0000
,
0100
0000
0010
1001
,
1000
0000
0001
0000
,
0100
0000
0010
0000
,
0100
0000
0001
0000
,
1000
0000
0001
0000
,
1001
0000
0000
0000
,
1000
0000
0000
0000
,
0010
0000
0000
0000
,
0100
0000
0000
0000
,
0001
0000
0000
0000
,
1000
0000
0000
0000
,
0010
0000
0000
0000
,
0100
0000
0010
0000
,
1001
0000
0000
1001
,
0000
0000
0000
0010
,
0000
0000
0000
1000
,
0000
0000
0000
0100
,
0000
1000
0000
0001
,
0000
0000
0000
0100
,
0000
0000
0000
0010
,
0000
0000
0000
1000
,
0000
1000
0000
0001
,
0000
0001
0000
1001
,
0000
0000
0000
0110
,
0000
0000
0000
0110
,
0000
0000
0000
0100
,
0000
0010
0000
1001
,
0000
0000
0000
1001
,
0000
0000
0000
1000
,
0000
0001
0000
0010
,
0000
0000
0000
0100
,
1001
0000
0000
0000
;

//---------------dance-single - ----------------
#NOTEDATA:;
#CHARTNAME:;
#STEPSTYPE:dance-single;
#DESCRIPTION:;
#CHARTSTYLE:;
#DIFFICULTY:Challenge;
#METER:10;
#RADARVALUES:0.768947,1.066344,0.380679,0.185913,0.805623,608.000000,565.000000,43.000000,21.000000,0.000000,0.000000,2.000000,0.000000,0.000000,0.768947,1.066344,0.380679,0.185913,0.805623,608.000000,565.000000,43.000000,21.000000,0.000000,0.000000,2.000000,0.000000,0.000000;
#CREDIT:;
#NOTES:
// measure 0
0000
0000
0000
0000
,  // measure 1
0000
0000
0000
0000
,  // measure 2
0000
0000
0000
0000
,  // measure 3
0000
0000
0000
0000
,  // measure 4
0000
0000
0000
0000
,  // measure 5
2000
0000
0000
0000
0000
0000
0000
0000
0020
0000
0000
0000
0000
0000
0000
3000
,  // measure 6
2000
0000
0000
0000
0000
0000
0000
0030
0200
0000
0000
0000
0000
0000
0000
3000
,  // measure 7
2000
0000
0000
0000
0000
0000
0000
0300
0002
0000
0000
0000
0000
0000
0000
3000
,  // measure 8
0020
0000
0000
0000
0000
0000
0000
0003
0200
0000
0000
0000
0000
0000
0000
0000
,  // measure 9
0330
0000
0011
1010
,  // measure 10
4004
0000
0000
0000
,  // measure 11
0000
0000
0000
0000
,  // measure 12
0000
0000
0000
0000
,  // measure 13
0000
0000
0000
3003
,  // measure 14
0101
0000
0010
1010
0000
1000
0010
0110
,  // measure 15
0000
0010
1000
1100
0000
0010
0011
0000
,  // measure 16
1001
0000
1000
1010
0000
1000
0001
0011
,  // measure 17
0000
0000
0010
0000
0001
0000
0101
0000
0100
0010
1000
0001
0010
0001
1000
0100
,  // measure 18
1000
0010
0001
0010
0100
0001
0010
0001
,  // measure 19
1000
0100
0001
0100
0010
0001
2001
0000
,  // measure 20
3100
0010
0001
0100
1000
0100
0010
1000
,  // measure 21
0010
0100
0001
0010
0001
1000
1002
0000
,  // measure 22
0013
0001
0100
1000
0100
0010
1000
0100
,  // measure 23
1000
0001
0010
0100
0010
0001
2001
0000
,  // measure 24
3001
0100
1000
0100
0010
0001
0010
1000
,  // measure 25
0100
1000
0001
0010
0001
0100
0210
0000
,  // measure 26
0301
0001
0010
0100
1000
1000
0000
1100
,  // measure 27
0000
0100
0010
0010
0001
1000
0010
0010
,  // measure 28
0100
0100
0001
0010
0100
0010
0000
0011
,  // measure 29
0000
1010
0000
0011
0000
1001
1000
1000
,  // measure 30
0001
0001
0010
0100
0010
0100
0000
1000
,  // measure 31
0000
0100
0010
0010
0001
1000
0010
0010
,  // measure 32
0100
0100
0001
0100
0010
0100
0000
0110
,  // measure 33
0000
0000
1010
0000
0000
0000
0101
0000
0001
0100
0001
0100
0010
1000
0010
1000
,  // measure 34
0001
0000
1000
0000
0100
0010
0001
0100
0010
0000
1000
0000
0100
1000
0010
0100
,  // measure 35
0001
0000
0010
0000
0100
0010
0001
1000
0010
0000
0100
0000
1001
0000
0000
0000
,  // measure 36
1000
0000
0001
0000
0010
0001
0100
0010
1000
0000
0100
0000
0010
0001
0100
0001
,  // measure 37
1000
0000
0010
0000
0100
0001
0010
0001
1000
0000
0001
0000
0110
0000
0000
0000
,  // measure 38
0001
0000
1000
0000
0100
1000
0010
0100
0001
0000
0010
0000
0100
0010
0001
1000
,  // measure 39
0010
0000
0100
0000
0010
1000
0001
0100
0001
0000
1000
0000
0100
0000
0000
0000
,  // measure 40
0010
0000
0001
0000
1000
0100
1000
0010
0100
0000
0001
0000
0010
0001
0100
0010
,  // measure 41
1000
0001
1000
0001
1000
0001
1000
0001
1000
0000
0001
0000
0110
0000
0000
0000
,  // measure 42
1000
0010
0100
0001
0000
0001
0010
1000
0000
1000
0010
0001
0000
0001
0010
1000
,  // measure 43
0010
0100
1000
0010
0000
0010
0001
0010
0000
0010
1000
0010
0001
0010
0100
0001
,  // measure 44
0001
0100
0010
1000
0000
1000
0100
0001
0000
0001
0100
1000
0000
1000
0100
0001
,  // measure 45
0100
0010
0001
0100
0000
0100
1000
0100
0000
0100
0001
0100
1000
0100
0010
1000
,  // measure 46
0101
0000
0000
0100
0000
0000
0100
0000
0000
0100
0000
0010
,  // measure 47
0100
0000
0000
0100
0000
0000
0100
0000
0010
0100
0000
0100
,  // measure 48
0001
0000
0000
0001
0000
0000
0001
0000
0000
0001
0000
1000
,  // measure 49
0001
0000
0000
0001
0000
0000
0001
0000
1000
0001
0000
0001
,  // measure 50
0010
0000
0100
1000
0000
1000
0010
0000
0010
0100
0000
0100
,  // measure 51
0001
0000
0001
1000
0000
1000
0100
0000
0100
0010
0000
0010
,  // measure 52
0011
0000
1000
1100
0000
0001
0101
0000
1000
1010
0000
0001
,  // measure 53
1000
1000
0010
0100
0100
0001
0011
0000
1100
0000
1010
0000
,  // measure 54
2002
0000
0000
0000
3000
0000
0003
0000
0000
0000
0000
0000
1000
1010
0000
0101
,  // measure 55
0000
0000
0001
0011
0000
1100
0000
0000
1000
0000
0001
0000
1000
0010
1000
0000
,  // measure 56
0010
1000
0010
0000
1000
0000
0001
0010
0000
0100
0010
0001
1000
0001
1000
0020
,  // measure 57
0000
0000
0130
0001
0010
0001
1000
0100
1000
0010
0100
0001
1000
0010
1000
0100
,  // measure 58
0000
0100
0010
0001
1000
0001
1000
0100
0000
0100
0010
0001
1000
0010
0100
0001
,  // measure 59
1000
0010
0100
0001
0010
0100
0010
0001
1000
0100
1000
0001
1000
0001
0100
0000
,  // measure 60
0001
1000
0100
0000
0010
0100
0010
0001
0000
0010
0001
0100
0010
1000
0010
0200
,  // measure 61
0000
0000
0310
0100
0001
1000
0100
1000
0001
0010
0100
1000
0001
0100
0001
0100
,  // measure 62
0010
0100
0010
0100
0010
1000
0010
1000
0100
1000
0100
1000
0001
1000
0001
1000
,  // measure 63
0010
0000
0000
0100
0000
0000
0010
0000
0000
0100
0000
0000
0001
0000
0000
0100
0000
0000
0010
0000
0000
1000
0000
0000
0100
0000
0000
0010
0000
0000
0001
0000
0000
1000
0000
0000
0001
0000
0000
0000
0000
0000
1000
0000
0010
0000
1000
0000
,  // measure 64
0010
0000
0200
0000
0000
0000
0301
0000
0100
0000
0010
0000
1000
0000
0001
1000
,  // measure 65
0100
0000
0010
0000
0001
0100
0001
0100
0001
0100
0001
0100
0001
0000
1000
0000
,  // measure 66
0100
0000
0010
0001
0000
0001
1000
0000
0010
0000
1000
0000
2100
0000
0000
3010
,  // measure 67
0000
0000
0201
0000
0000
0310
0000
0000
0100
0000
0001
0000
1000
0000
0001
0000
,  // measure 68
0010
0100
1000
0001
0000
0100
0001
0000
0100
0000
0010
1000
0001
0000
0010
0000
,  // measure 69
0100
0010
0100
1000
0000
0001
1000
0000
0010
0000
0100
0001
1000
0000
0001
0100
,  // measure 70
0001
0000
0100
0010
0100
0000
0010
1000
0010
0000
1000
0100
1000
0100
0010
0001
,  // measure 71
0100
0010
1000
0010
0100
0001
1000
0010
0100
0001
1000
0001
0100
0000
0010
0000
,  // measure 72
2002
0000
0000
0000
,  // measure 73
3003
0000
0000
0000
;
