#TITLE:Hyperscape;
#SUBTITLE:;
#ARTIST:Tim Besamusca;
#TITLETRANSLIT:;
#SUBTITLETRANSLIT:;
#ARTISTTRANSLIT:;
#GENRE:;
#CREDIT:;
#BANNER:Hyperscape.png;
#BACKGROUND:Hyperscape-bg.png;
#LYRICSPATH:;
#CDTITLE:;
#MUSIC:Hyperscape.ogg;
#OFFSET:-3.575002;
#SAMPLESTART:82.155090;
#SAMPLELENGTH:14.328362;
#SELECTABLE:YES;
#BPMS:0.000000=134.000000
,171.000000=67.000000
,171.250000=33.500000
,171.375000=134.000000
;
#STOPS:171.375000=1.511000
;
#BGCHANGES:;
#KEYSOUNDS:;
#ATTACKS:;

//---------------dance-single - ----------------
#NOTES:
     dance-single:
     :
     Hard:
     8:
     0.315503,0.484175,0.016989,0.305795,0.191122,260.000000,258.000000,2.000000,36.000000,0.000000,0.000000,0.315503,0.484175,0.016989,0.305795,0.191122,260.000000,258.000000,2.000000,36.000000,0.000000,0.000000:
0001
1000
0001
0010
,
0001
0100
0001
1000
,
0200
1300
0100
0010
,
0002
0013
0020
0130
,
0200
1300
0100
0010
,
0100
1000
0100
1000
0100
0010
0001
1000
,
0010
0000
0000
0010
0000
0000
1000
0000
0010
0000
0000
0000
0100
0000
0000
0000
,
0001
0000
0000
0001
0000
0000
1000
0000
0001
0000
0000
0000
0010
0000
0000
0000
,
0100
0000
0000
0100
0000
0000
1000
0000
0010
0000
0000
0000
0100
0000
0000
0000
,
0001
0000
0000
0001
0000
0000
1000
0000
0001
0000
0000
0000
0010
0000
0000
0000
,
0100
0000
0000
0100
0000
0000
0010
0000
0100
0000
0000
0000
1000
0000
0000
0000
,
0010
0000
0000
0010
0000
0000
1000
0000
0001
0000
0000
0000
0010
0000
0000
0000
,
0100
0000
0000
0100
0000
0000
0010
0000
0100
0000
0000
0000
1000
0000
0000
0000
,
0010
0000
0000
0010
0000
0000
0100
0000
0001
0000
0000
0000
1000
0000
0000
0000
,
1001
0000
0000
0000
0001
0000
0000
0000
0001
0000
0000
0000
0000
0000
1000
0001
,
0100
0000
0000
0010
0000
0010
0100
0001
,
1000
1000
1000
0000
,
0000
0000
0000
0000
,
0100
0000
0000
0000
0100
0000
0000
0000
0100
0000
0000
0000
0000
0000
0010
0100
,
0010
0000
0000
0100
0000
0010
0001
1000
,
0001
0001
0001
0000
,
0000
0000
0000
0000
,
1000
0000
0000
0000
0000
0000
0000
0000
0000
0000
0000
0000
0000
0000
0001
1000
,
0100
0000
0000
0010
0000
0100
0010
0001
,
1000
0000
0000
0000
,
0000
0000
0000
0000
0000
0000
0000
0000
0000
0000
0000
0000
0000
0000
0001
0010
,
0100
0000
0000
0000
0000
0000
0000
0000
0000
0000
0000
0000
0000
0000
0100
1000
,
0010
0000
0000
0100
0000
0010
0100
0001
,
1000
0000
0000
0000
,
0000
0000
0000
0000
0000
0000
0000
0000
0000
0000
0000
0000
0000
0000
0001
0100
,
0020
0000
0000
0000
0000
0000
0000
0000
0000
0000
0000
0000
0000
0000
0130
0001
,
2000
0000
0000
0000
0000
0000
3100
0010
0002
0000
0000
0000
0000
0000
0013
0100
,
2000
0000
0000
0100
0200
0000
0000
0000
,
0000
0000
0000
0000
0000
0000
0000
0000
0000
0000
0000
0000
3300
0000
0100
0010
,
0002
0000
0000
0000
0000
0000
0000
0000
0000
0000
0000
0000
0000
0000
1003
0010
,
0200
0000
0000
0000
0000
0000
0310
1000
0002
0000
0000
0000
0000
0000
0013
0100
,
2000
0000
0000
0000
,
0000
0000
0000
3000
,
2002
0000
0000
0000
,
0000
0000
0000
0000
,
0000
0000
0000
0000
,
0000
0000
0000
0000
0000
0000
0000
3003
,
0001
0000
0000
0000
1000
0000
0000
0000
0001
0000
0100
0000
0000
0000
0100
0000
0010
0000
1000
0000
0001
0000
1000
0000
0002
0000
0000
0003
0100
0000
0001
0000
,
0020
0000
0000
0000
0001
0000
0000
0000
0100
0000
0000
0000
0031
0000
1000
0001
,
0020
0000
0000
0000
0130
0000
1000
0010
0200
0000
0000
0000
0310
0000
0100
0001
,
0020
0000
0130
1000
0002
0000
1000
0000
,
0100
0000
0000
0000
1000
0000
0000
0000
0100
0000
0000
0000
1003
0000
0100
0010
,
0002
0000
0000
0000
0010
0000
0000
0000
0010
0000
0000
0000
0013
0000
0100
1000
,
0020
0000
0000
0000
1030
0000
0001
1000
0200
0000
0000
0000
0310
0000
0100
1000
,
0020
0100
1000
0100
,
1000
0000
0000
0000
0100
0000
0000
0000
1000
0000
0000
0000
0130
0000
0010
1000
,
0002
0000
0000
0000
1000
0000
0000
0000
1000
0000
0000
0000
1003
0000
0001
1000
,
0020
0000
0000
0000
0130
0000
0001
0100
0020
0000
0000
0000
1030
0000
0001
1000
,
0200
0000
0310
0001
2000
0000
0001
0000
,
0010
0000
0000
0000
0001
0000
0000
0000
0010
0000
0000
0000
3001
0000
0010
0100
,
2000
0000
0000
0000
0100
0000
0000
0000
0100
0000
0000
0000
3100
0000
0010
0001
,
0200
0000
0000
0000
0310
0000
0100
0001
0020
0000
0000
0000
0130
0000
0010
0100
,
2000
0001
0010
0001
,
3001
0000
1000
0000
0010
0000
0100
0000
0001
1000
0001
1000
0001
1000
0001
2000
,
0002
0000
0000
0000
,
3003
0000
0000
0000
;

//---------------dance-single - ----------------
#NOTES:
     dance-single:
     :
     Medium:
     5:
     0.251189,0.356761,0.084943,0.263323,0.000000,207.000000,197.000000,10.000000,31.000000,0.000000,0.000000,0.251189,0.356761,0.084943,0.263323,0.000000,207.000000,197.000000,10.000000,31.000000,0.000000,0.000000:
1000
0000
0001
0000
,
0100
0000
0001
0000
,
1000
0100
1000
0010
,
0100
0001
0100
0010
,
0100
0001
1000
0001
,
1000
0000
0100
0000
0010
0001
0010
0001
,
0010
0100
1000
1001
,
0001
0010
0100
1001
,
1000
0100
0010
1001
,
0001
0010
0100
1001
,
0001
1000
0010
1001
,
0100
0010
1000
1001
,
0001
0100
0010
1001
,
1000
0001
0100
0010
,
0100
0000
0000
0000
0000
0000
0000
0001
,
1000
0000
0000
0100
0000
1000
0100
0010
,
0100
0000
0000
0000
,
0000
0000
0000
0000
,
0010
0000
0000
0000
0000
0000
0000
0010
,
0100
0000
0000
0010
0000
0001
0010
0100
,
0010
0000
0000
0000
,
0000
0000
0000
0000
,
0100
0000
0000
0000
0000
0000
0000
1000
,
0001
0000
0000
0100
0000
0010
0100
0001
,
0010
0000
0000
0000
,
0000
0000
0000
0000
0000
0000
0000
0010
,
0001
0000
0000
0000
0000
0000
0000
0001
,
1000
0000
0000
0010
0000
0100
0001
1000
,
0010
0000
0000
0000
,
0000
0000
0000
0000
0000
0000
0000
0100
,
0002
0000
0000
0000
0000
0000
0000
1003
,
0200
0000
0000
1300
0020
0000
0000
0130
,
0002
0000
0000
1000
2000
0000
0000
0000
,
0000
0000
0000
0000
0000
0000
3003
0001
,
2000
0000
0000
0000
0000
0000
0000
3010
,
0200
0000
0000
0301
0020
0000
0000
0130
,
2000
0000
0000
0000
,
0000
0000
0000
3000
,
2002
0000
0000
0000
,
0000
0000
0000
0000
,
0000
0000
0000
0000
,
0000
0000
0000
3003
,
1000
0000
0001
0000
0100
0001
0200
0300
,
2010
0000
0010
0000
0010
0000
0010
3100
,
0002
0000
1003
0001
0200
0000
0310
1000
,
0002
0000
1003
0001
0002
0000
0100
0000
,
0100
0000
0100
0000
0100
0000
0103
0010
,
2000
0000
0010
0000
0010
0000
3010
0100
,
0002
0000
1003
0100
0020
0000
0130
1000
,
0002
1000
1000
1000
,
1000
0000
1000
0000
1000
0000
1003
0001
,
0200
0000
0010
0000
0010
0000
0310
1000
,
0200
0000
0310
0001
0200
0000
0310
1000
,
0002
0000
1003
0001
2000
0000
0100
0000
,
0100
0000
0100
0000
0100
0000
3100
0010
,
0002
0000
0010
0000
0010
0000
0013
0100
,
0020
0000
0130
0001
0010
0000
0100
0010
,
0002
1000
1000
1000
,
1003
0100
0010
0001
1000
0001
1000
0001
,
2002
0000
0000
0000
,
3003
0000
0000
0000
;

//---------------dance-single - ----------------
#NOTES:
     dance-single:
     :
     Easy:
     2:
     0.110426,0.225524,0.033977,0.254829,0.000000,91.000000,87.000000,4.000000,30.000000,0.000000,0.000000,0.110426,0.225524,0.033977,0.254829,0.000000,91.000000,87.000000,4.000000,30.000000,0.000000,0.000000:
0000
0000
0000
0000
,
0000
0000
0000
0000
,
1000
0000
0000
0000
,
0010
0000
0100
0000
,
0001
0000
0000
0000
,
1000
0000
0001
0000
,
1000
0001
1000
0010
,
1000
0001
1000
0100
,
1000
0001
1000
0010
,
1000
0001
1000
0100
,
0010
0100
0010
0001
,
0010
0100
0010
0100
,
1000
0001
1000
0100
,
1000
0001
1000
0010
,
0100
0000
0000
0000
,
0001
0000
1000
0000
,
0100
0000
0000
0000
,
0000
0000
0000
0000
,
1000
0000
0000
0000
,
0010
0000
0100
0000
,
0001
0000
0000
0000
,
0000
0000
0000
0000
,
1000
0000
0000
0000
,
0010
0000
0100
0001
,
0001
0000
0000
0000
,
0000
0000
0000
0000
,
1000
0000
0000
0000
,
0010
0000
0100
0000
,
0001
0000
0000
0000
,
0000
0000
0000
0000
,
1002
0000
0000
0000
,
0203
0000
0302
0000
,
2003
0000
0200
0000
,
0000
0000
0000
3300
,
0200
0000
0000
0000
,
0320
0000
0032
0000
,
2000
0000
0000
0000
,
0000
0000
0000
3003
,
2002
0000
0000
0000
,
0000
0000
0000
0000
,
0000
0000
0000
0000
,
0000
0000
0000
0000
0000
0000
0000
3003
,
0001
1000
0020
0030
,
0200
0000
0000
0000
,
0320
0000
2030
0000
,
3002
0000
0200
0000
,
0000
0000
0000
0303
,
0002
0000
0000
0000
,
0023
0000
0032
0000
,
2000
0000
0000
0000
,
0000
0000
0000
3003
,
2001
0000
0000
0000
,
3020
0000
0230
0000
,
0302
0000
0020
0000
,
0000
0000
0000
0033
,
0200
0000
0000
0000
,
2300
0000
3002
0000
,
2000
0000
0000
0000
,
0000
0000
0000
3003
,
0110
0000
0000
0000
;

//---------------dance-single - ----------------
#NOTES:
     dance-single:
     :
     Challenge:
     9:
     0.479321,0.637073,0.093437,0.467187,0.615837,395.000000,384.000000,11.000000,55.000000,0.000000,0.000000,0.479321,0.637073,0.093437,0.467187,0.615837,395.000000,384.000000,11.000000,55.000000,0.000000,0.000000:
0001
1000
0100
0000
1000
0001
0010
0000
,
0100
1000
0010
0000
0100
0001
1000
0000
,
0100
0000
1000
0000
0010
0000
0100
0010
1000
0001
0000
0100
0000
0010
0100
0001
,
0100
0000
0001
0000
0010
0000
0100
1000
0001
1000
0000
0001
0000
0100
0010
0100
,
0001
0000
1000
0000
0100
0000
0010
0001
0100
0001
0000
0100
0000
0010
1000
0100
,
0010
0000
0100
0000
1000
0000
0001
0000
1000
0010
1000
0010
1000
0010
1000
0010
,
0100
0000
0100
0001
0000
0001
0100
0010
1000
0000
0000
0000
1001
0000
0000
0000
,
1000
0000
0100
0010
0000
0100
0010
0001
0100
0000
0000
0000
1010
0000
0000
0000
,
0010
0000
0100
0010
0000
0010
1000
0001
0010
0000
0000
0000
0110
0000
0000
0000
,
0100
0000
1000
0001
0000
0001
1000
0100
1000
0000
0000
0000
0011
0000
0000
0000
,
1001
0000
0001
1000
0000
1000
0001
0100
0010
0000
0000
0000
1001
0000
0000
0000
,
1010
0000
1000
0010
0000
0100
0001
0010
0100
0000
1000
0100
0000
0010
0001
0000
,
1001
0000
1000
0100
0000
0010
0001
1000
0010
0000
0000
0000
0101
0000
0000
0000
,
0001
0000
1000
0010
0000
0100
0010
1000
0001
0000
0000
0000
0011
0000
0000
0000
,
1001
0000
0000
0000
0001
0000
0000
0000
0001
0000
0000
0000
0000
0000
0001
0100
,
1000
0000
0000
0100
0000
1000
0010
0001
,
0020
0000
0000
0000
,
0000
0000
0000
0000
,
0130
0000
0000
0000
0100
0000
0000
0000
0100
0000
0000
0000
0000
0000
0100
0010
,
1000
0000
0000
0001
0000
1000
0100
0001
,
0200
0000
0000
0000
,
0000
0000
0000
0000
,
0320
0000
0000
0000
0000
0000
0000
0000
0000
0000
0000
0000
0000
0000
0031
0010
,
0200
0000
0000
2300
0000
3001
1000
0100
,
2000
0000
0000
0000
,
0000
0000
0000
0000
0000
0000
0000
0000
0000
0000
0000
0000
0000
0000
3001
1000
,
0200
0000
0000
0000
0000
0000
0000
0000
0000
0000
0000
0000
0300
0000
0100
1000
,
0002
0000
0000
2003
0000
3010
0100
0001
,
0020
0000
0000
0000
,
0000
0000
0000
0000
0000
0000
0000
0000
0000
0000
0000
0000
0000
0000
0230
0320
,
0002
0000
0000
0000
0000
0000
0000
0000
0000
0000
0000
0000
0000
0033
0002
0203
,
2000
0000
0000
0000
0000
3300
2000
3200
0002
0000
0000
0000
0000
0303
0002
0203
,
0320
0000
0000
1000
2000
0000
0000
0000
,
0000
0000
0000
0000
0000
0000
0000
0000
0000
0000
0000
0000
0000
3030
2000
3020
,
0002
0000
0000
0000
0000
0000
0000
0000
0000
0000
0000
0000
0000
0033
0002
0023
,
0200
0000
0000
0000
0000
0330
0200
0320
2000
0000
0000
0000
0000
3030
0002
0023
,
0200
0000
0000
0000
,
0000
0000
0000
0000
0000
0000
0000
0330
,
4000
0004
0000
0000
0000
0000
0000
0000
0000
0000
0000
0000
0000
0000
0000
0000
,
0000
0000
0000
0000
,
0000
0000
0000
0000
,
0000
0000
0000
0000
0000
0000
0000
0000
0000
0000
0000
0000
3003
0000
0000
1000
,
0001
0000
0000
0100
0000
0000
0010
0000
0000
0000
0000
0000
0100
0000
0000
0010
0000
0000
0000
0000
0000
0010
0000
0000
1000
0000
0000
0001
0000
0000
1000
0000
0000
0001
0000
0000
4000
0000
0000
0002
3000
0000
0013
0000
0000
0100
0000
0000
,
2000
0000
0001
0000
3001
0000
1000
0010
0000
0010
0000
0010
0000
0010
0100
0001
,
0020
0000
0100
0000
0130
0000
0100
1000
0002
0100
0000
0100
0003
0001
0100
0001
,
2000
0000
0001
0000
0001
0000
3001
0010
0002
1000
0000
1000
0003
1000
0100
0010
,
0001
0000
0001
0000
0100
0000
0010
1000
0001
0010
0000
0001
0000
1000
0100
0010
,
0002
0000
1000
0000
1003
0000
0001
0100
0000
0100
0000
0100
0000
0100
0010
1000
,
0200
0000
0010
0000
0310
0000
0010
0001
2000
0010
0000
0010
3000
1000
0010
1000
,
0002
0000
1000
0000
1000
0000
1003
0100
0010
0100
0000
0100
0000
0100
0010
0001
,
1000
0000
1000
0000
0010
0000
0100
0001
1000
0100
0000
0100
0000
0000
0010
0001
,
2000
0000
0010
0000
3010
0000
0100
0001
1000
0100
0000
1000
0000
0100
0010
0001
,
0200
0000
0010
0000
0310
0000
0100
1000
0200
0010
0000
0010
0300
0010
1000
0001
,
2000
0000
0001
0000
0001
0000
3001
0010
0002
0100
0000
0100
0003
0100
0010
1000
,
0001
0000
0010
0000
0001
0000
1000
0100
0010
0100
0000
1000
0000
0100
0001
0100
,
2000
0000
0100
0000
3100
0000
1000
0010
0100
0001
0000
0001
0000
0001
0010
0001
,
0200
0000
1000
0000
1300
0000
1000
0100
0002
1000
0000
1000
0003
1000
0100
0001
,
0200
0000
0010
0000
0310
0000
0010
0100
1000
0001
0000
0001
0000
1000
0010
0100
,
0001
0000
0010
0000
0100
0000
1000
0000
0001
1000
0001
1000
0001
1000
0001
1000
,
0020
0000
0000
0000
,
0030
0000
0000
0000
;

//---------------dance-single - ----------------
#NOTES:
     dance-single:
     :
     Beginner:
     1:
     0.072808,0.100233,0.016989,0.000000,0.000000,60.000000,58.000000,2.000000,0.000000,0.000000,0.000000,0.072808,0.100233,0.016989,0.000000,0.000000,60.000000,58.000000,2.000000,0.000000,0.000000,0.000000:
// measure 0
0000
0000
0000
0000
,  // measure 1
0000
0000
0000
0000
,  // measure 2
1000
0000
0000
0000
,  // measure 3
0001
0000
0001
0000
,  // measure 4
0001
0000
0000
0000
,  // measure 5
0000
0100
0000
0000
,  // measure 6
0010
0000
0000
0000
,  // measure 7
0010
0000
0000
0000
,  // measure 8
1000
0000
0000
0000
,  // measure 9
1000
0000
0000
0000
,  // measure 10
0001
0000
0000
0000
,  // measure 11
0001
0000
1000
0000
,  // measure 12
0001
0000
0000
0000
,  // measure 13
0100
0000
0000
0000
,  // measure 14
1001
0000
0000
0000
,  // measure 15
0010
0000
0000
0000
,  // measure 16
0001
0000
0000
0000
,  // measure 17
0000
0000
0000
0000
,  // measure 18
1000
0000
0000
0000
,  // measure 19
0010
0000
0000
0100
,  // measure 20
0100
0000
0000
0000
,  // measure 21
0000
0000
0000
0000
,  // measure 22
0010
0000
0000
0000
,  // measure 23
1000
0000
0000
1000
,  // measure 24
1000
0000
0000
0000
,  // measure 25
0000
0000
0000
0000
,  // measure 26
0010
0000
0000
0000
,  // measure 27
0100
0000
0000
0010
,  // measure 28
0010
0000
0000
0000
,  // measure 29
0000
0000
0000
0000
,  // measure 30
1000
0000
0000
0000
,  // measure 31
0001
0000
0001
0000
,  // measure 32
0001
0000
0100
0000
,  // measure 33
0000
0000
0000
0000
,  // measure 34
0010
0000
0000
0000
,  // measure 35
1000
0000
1000
0000
,  // measure 36
0100
0000
0000
0000
,  // measure 37
0000
0000
0000
0000
,  // measure 38
0010
0000
0000
0000
,  // measure 39
0000
0000
0000
0000
,  // measure 40
0000
0000
0000
0000
,  // measure 41
0000
0000
0000
0000
,  // measure 42
0000
0000
0000
0000
,  // measure 43
0001
0000
0000
0000
,  // measure 44
0010
0000
0001
0000
,  // measure 45
1000
0000
1000
0000
,  // measure 46
0000
0000
0000
0000
,  // measure 47
0010
0000
0000
0000
,  // measure 48
0100
0000
0001
0000
,  // measure 49
1000
0000
0000
0000
,  // measure 50
0000
0000
0000
0000
,  // measure 51
0100
0000
0000
0000
,  // measure 52
1000
0000
0010
0000
,  // measure 53
1000
0000
0001
0000
,  // measure 54
0000
0000
0000
0000
,  // measure 55
0100
0000
0000
0000
,  // measure 56
0010
0000
1000
0000
,  // measure 57
0001
0000
0000
0000
,  // measure 58
0000
0000
0000
0000
,  // measure 59
1001
0000
0000
0000
;
