#TITLE:Hidden Heaven;
#SUBTITLE:;
#ARTIST:Blitz Lunar;
#TITLETRANSLIT:;
#SUBTITLETRANSLIT:;
#ARTISTTRANSLIT:;
#GENRE:;
#CREDIT:;
#BANNER:Hiden Heaven.png;
#BACKGROUND:Hiden Heaven-bg.png;
#LYRICSPATH:;
#CDTITLE:cdtitle.png;
#MUSIC:Hidden Heaven.ogg;
#OFFSET:-5.824000;
#SAMPLESTART:25.745708;
#SAMPLELENGTH:11.470589;
#SELECTABLE:YES;
#BPMS:0.000000=170.000000
,120.000000=85.000000
,136.000000=170.000000
;
#STOPS:
;
#BGCHANGES:;
#KEYSOUNDS:;
#ATTACKS:;

//---------------dance-single - ----------------
#NOTES:
     dance-single:
     :
     Hard:
     8:
     0.520523,0.680688,0.284421,0.169115,0.065340,474.000000,437.000000,37.000000,22.000000,0.000000,0.000000,0.520523,0.680688,0.284421,0.169115,0.065340,474.000000,437.000000,37.000000,22.000000,0.000000,0.000000:
1001
0000
0000
0000
0000
0110
0000
0101
,
0000
0000
0000
0000
0000
0011
0000
1100
,
0000
0000
0000
0000
1000
0010
1000
0200
,
0000
0310
0001
0200
0000
0301
0010
0000
,
0100
0000
0100
0000
1000
0100
0000
1000
,
0000
1000
0100
0000
0010
0001
0100
0010
,
0000
0100
0001
0000
0100
0010
1000
0200
,
0000
1300
0010
0200
0000
0310
1000
0001
,
0100
0000
0001
0000
0100
0010
0000
1000
,
0000
0001
0010
0000
0001
1000
0010
0001
,
0010
1000
0100
0001
0000
0100
1000
0002
,
0000
1003
0010
0200
0000
0000
0000
0000
,
0310
0100
0010
1000
0001
0100
0010
1000
,
0100
0010
0001
1000
0000
0110
0000
1001
,
0000
0001
0010
0000
0001
1000
0100
1000
,
0000
0001
0000
0100
0000
0001
0000
0020
,
0000
0000
0000
0000
0030
0000
0000
0100
,
0000
1000
0100
0010
0000
0011
0000
1100
,
0000
1000
0010
0000
0100
0010
1000
0010
,
0000
0100
0000
0001
0000
1000
0000
0010
,
0000
1000
0001
0100
0000
0000
0001
0100
,
0000
0010
1000
0001
0000
0011
0000
1100
,
0000
0100
0010
0000
0001
1000
0100
1000
,
0000
0010
0000
0100
0000
0001
0000
1001
,
0000
0001
0100
0110
0000
0010
1000
1010
,
0000
0010
0000
1010
0000
1001
0000
0011
,
0000
0000
0000
0000
0000
0010
0100
0010
,
0001
1000
0010
0100
0000
0010
1000
0100
,
0000
0000
0010
0001
1000
0010
1000
2002
,
0000
0000
3003
0001
0010
0100
0010
0001
,
1000
0000
0000
0000
0001
0000
0000
0000
0100
0000
0000
0001
0100
0001
0100
0010
,
1000
0000
0000
1000
0010
0001
0010
1000
0001
0000
0000
0000
0100
0000
0000
0000
,
0010
0000
0000
0000
1000
0000
0000
0000
0001
0000
0000
0100
1000
0100
0001
0100
,
0010
0000
0000
0100
0001
0100
1000
0002
0000
1003
0001
0000
0010
0100
1000
0001
,
1001
0000
1000
0000
0100
1000
0000
0010
,
0000
0100
0010
1000
0010
0100
0001
0010
,
0001
0000
0000
1000
0100
0001
0100
0010
,
0000
0001
0100
0010
0100
0001
1000
0100
,
0010
0000
0100
0000
0010
0001
1000
0010
,
0000
1000
0001
0010
0001
1000
0100
1000
,
0001
0000
0000
1000
0100
0001
0100
0010
,
0000
0001
0010
0001
1000
0100
0010
0001
,
1000
0000
0001
0000
1000
0010
0000
0100
,
0000
0010
1000
0001
0010
0001
1000
0100
,
0010
0000
0100
1000
0001
0100
1000
0100
,
0000
1000
0010
1000
0001
0010
0001
1000
,
0001
0000
0001
0000
1000
0001
0010
0001
,
0000
0010
0001
0100
0010
1000
0100
1000
,
0001
0000
0000
1000
0100
0001
0100
1000
,
0000
0001
0010
0100
1000
0010
1000
0001
,
0010
0000
0100
0000
0100
1000
0010
0100
,
0000
0010
1000
0001
0010
0001
1000
0100
,
0010
0000
0000
0100
0010
0001
1000
0001
,
0100
0010
0100
0001
0100
0010
1000
0100
,
1000
0000
1000
0000
0001
0010
0001
1000
,
0000
0100
1000
0001
0010
0001
0100
0001
,
1000
0000
0000
0001
0010
1000
0010
0100
,
0000
0100
1000
0000
0001
0000
1000
0000
,
1001
0000
0000
0000
0000
0101
0000
1010
,
0000
0000
0000
0000
0000
1100
0000
0011
,
0000
0000
0000
0000
0000
0001
1000
0020
,
0000
0130
0001
2000
0000
3100
0010
0001
,
0011
0000
0000
0000
0000
1100
0000
0011
,
0000
0000
0000
0000
0000
0101
0000
1010
,
0000
0000
0000
0000
0000
0010
0100
1001
,
0000
0001
0100
0020
0000
1030
0100
0000
,
0010
0000
0010
0000
0010
0001
0010
0100
,
0000
0100
1000
0000
0100
1000
0100
0010
,
0000
0000
0010
0000
0010
0001
0010
0200
,
0000
1300
0010
0200
0000
0310
1000
0001
,
1000
0000
1000
0000
1000
0010
1000
0001
,
0000
0001
0100
0000
0001
0100
0001
1000
,
0100
0010
0100
1000
0010
0100
0001
0000
,
1001
0000
0000
1002
0000
0000
0000
0000
0000
0000
0000
0000
0000
0000
0000
0000
,
0203
0301
0200
0310
,
0110
0000
0000
0100
0010
0000
0100
0000
0010
0000
1000
0000
0001
0000
0100
0000
,
0001
0010
0100
1000
0002
0020
0000
0033
,
0011
0000
1000
1000
0101
0000
0001
0001
,
1100
1000
0010
2002
0000
0000
0000
0000
,
0000
0000
0000
0000
,
0000
0000
3003
0000
;

//---------------dance-single - ----------------
#NOTES:
     dance-single:
     :
     Easy:
     5:
     0.249280,0.309404,0.107619,0.130680,0.000000,227.000000,213.000000,14.000000,17.000000,0.000000,0.000000,0.249280,0.309404,0.107619,0.130680,0.000000,227.000000,213.000000,14.000000,17.000000,0.000000,0.000000:
1000
0000
0000
0000
0000
0001
0000
0001
,
0000
0000
0000
0000
0000
0100
0000
0100
,
0000
0000
0000
0000
0000
0000
0000
0010
,
0000
0000
0000
0100
0000
0000
0001
0000
,
1000
0001
1000
0000
,
0010
0000
0100
0000
,
0001
0000
0000
0000
1000
0000
0000
0100
,
0000
0000
0000
0010
0000
0000
0000
0000
,
0100
1000
0100
0000
,
1000
0000
0001
0100
,
0001
0010
0000
0100
,
2000
0000
0000
0002
0000
0000
0000
0000
,
0000
0000
0000
0000
,
0000
0000
0000
3003
0000
0001
0000
1000
,
0000
0000
0001
0000
0100
0000
0000
0001
,
0000
0010
0000
0001
0000
1000
0000
0200
,
0000
0000
0000
0000
0300
0000
0000
1000
,
0000
0010
0000
0100
0000
0110
0000
1001
,
0000
0000
0001
0000
1000
0000
0000
0100
,
0000
1000
0000
0010
0000
0100
0000
0001
,
0000
0000
0000
1000
0000
0000
0000
0100
,
0000
1000
0000
0010
0000
0110
0000
0101
,
0000
0001
1000
0001
,
0100
0000
0001
0000
1000
0000
0000
0100
,
0000
0000
0000
1000
0000
0000
0000
0010
,
0000
0100
0000
0110
0000
1001
0000
0110
,
0000
0000
0000
1000
,
0001
0100
0001
0010
,
0000
0100
1000
0001
,
1000
0000
0001
1000
,
0010
0000
0000
0100
,
0001
1000
0100
0000
,
0000
0000
0000
1000
,
0010
0000
0100
0000
0001
0000
1000
0001
,
1000
0001
0000
1000
,
0000
0010
0100
0001
,
0010
0000
0100
0010
,
0001
1000
0100
1000
,
0002
0000
0000
0000
0000
0000
1003
0002
,
0000
0000
0103
0001
,
1000
0000
0010
1000
,
0000
0010
0100
0001
,
1000
1000
0000
0001
,
0000
0100
0001
0010
,
0001
0000
0010
0100
,
1000
0100
1000
0010
,
0100
0100
0000
0010
,
0000
0100
0001
1000
,
0001
0000
0010
0100
,
0010
0001
1000
0001
,
1001
0000
0000
0000
,
1000
0000
0001
0100
,
0010
0000
0100
0001
,
1000
0100
0010
0100
,
1000
1000
0001
0100
,
0000
0000
0001
0100
,
0010
0000
0100
0010
,
1000
0000
0001
1000
,
1001
0000
0000
0000
0000
0010
0000
0010
,
0000
0000
0000
0000
0000
0100
0000
0100
,
0000
0000
0000
0000
0000
0000
0000
1020
,
0000
0000
0000
0230
0000
0000
0300
0000
,
1001
0000
0000
0000
0000
0001
0000
1000
,
0000
0000
0000
0000
0000
1000
0000
0010
,
0000
0000
0000
0000
0000
0000
0000
0102
,
0000
0000
0000
2003
0000
0000
3000
0000
,
0100
0000
0100
0000
1000
0000
0000
0100
,
0000
1000
0010
0100
,
0001
0000
1000
0000
0001
0000
0100
0002
,
0000
0000
0000
0203
0000
0000
0310
0000
,
0100
0000
0100
0000
0100
0000
0000
0010
,
0000
0100
0001
1000
,
0100
0010
0000
0001
,
2002
0000
0000
0000
,
0000
0000
0000
3003
,
0220
0000
0000
0000
,
0000
0000
0000
0000
0000
0300
0030
0000
,
0100
0000
0001
1000
0001
0000
1000
0001
,
0010
0100
2000
0002
0000
0000
0000
0000
,
0000
0000
0000
0000
,
0000
0000
3003
0000
;

//---------------dance-single - ----------------
#NOTES:
     dance-single:
     :
     Medium:
     7:
     0.400824,0.464105,0.269047,0.084557,0.007687,365.000000,330.000000,35.000000,11.000000,0.000000,0.000000,0.400824,0.464105,0.269047,0.084557,0.007687,365.000000,330.000000,35.000000,11.000000,0.000000,0.000000:
1001
0000
0000
0000
0000
0110
0000
0110
,
0000
0000
0000
0000
0000
1001
0000
1001
,
0000
0000
0000
0000
0000
0001
1000
0001
,
0000
0001
0100
0001
0000
0100
0010
0000
,
1000
0010
0100
0001
,
1000
0100
1000
0010
,
0100
0000
0001
0000
1000
0000
0001
0100
,
0000
0010
1000
0001
0000
0010
0100
0000
,
0010
0001
0010
0010
,
0100
1000
0100
0100
,
1000
0000
0010
0000
0000
0100
0010
0000
,
0000
1000
0001
0200
0000
0000
0000
0000
,
0301
0010
0100
1000
,
0001
0010
0100
1000
0000
0001
0000
1001
,
0000
0001
0100
0000
0001
0100
0001
1000
,
0000
0100
0000
1000
0000
0010
0000
0200
,
0000
0000
0000
0000
0000
0300
0000
0010
,
0000
1000
0000
0010
0000
0110
0000
0110
,
0000
0100
0010
0000
0100
0010
1000
0001
,
0000
1000
0000
0100
0000
1000
0000
0010
,
0000
0100
0010
1000
0000
0000
0000
0001
,
0000
1000
0000
1100
0000
0011
0000
1100
,
0000
0100
1000
0000
0100
1000
0010
0100
,
0000
0001
0000
1000
0000
0001
0000
0101
,
0000
0001
0000
0101
0000
0100
0000
0110
,
0000
0010
0000
0110
0000
1001
0000
0110
,
0000
0000
0000
0000
0000
0010
0100
0000
,
0010
0000
1000
0001
0000
0100
0001
1000
,
0000
0000
0001
0010
0100
0010
0001
1000
,
0000
0000
0001
0010
,
0100
0000
1000
0000
0010
0100
0010
0000
,
1000
0000
0001
0000
0100
0001
0100
0000
,
0010
0000
1000
0000
0001
0010
0001
0000
,
0010
0000
0100
0000
1000
0100
1000
0010
,
1000
0000
1000
0000
0000
0010
0000
0100
,
0000
0001
0100
0000
0001
0000
1000
0000
,
0100
0000
0000
1000
0100
0010
0100
1000
,
0000
0100
1000
0010
,
0200
0000
0000
0000
0000
0000
0310
2000
,
0000
0000
0000
3001
0010
0100
1000
0100
,
0010
0000
0000
0100
0010
0001
1000
0001
,
0000
1000
0100
1000
,
0010
0000
0010
0000
0000
0100
0000
0010
,
0000
0100
0001
0000
0100
0000
0010
0000
,
1000
0000
0000
0001
1000
0100
1000
0001
,
0000
1000
0100
0010
0001
0010
0100
1000
,
0200
0000
0000
0000
0000
0000
1300
0020
,
0000
0000
0000
0130
0001
0000
0100
0000
,
0010
0000
0000
0100
0001
1000
0001
1000
,
0000
0001
0010
0000
0100
0000
1000
0000
,
1100
0000
0100
0000
1000
0100
0000
1000
,
0000
0010
0100
0000
0001
0000
1000
0000
,
0001
0000
0100
0000
0010
1000
0000
0010
,
0000
0100
0001
0000
1000
0000
0100
0000
,
0001
0000
0100
0000
1000
0010
0000
0001
,
0000
0010
0100
0000
0001
0000
0100
0000
,
0010
0000
1000
0000
0001
0100
0000
0010
,
0000
1000
0001
0000
1000
0000
0100
0000
,
1001
0000
0000
0000
0000
0011
0000
1100
,
0000
0000
0000
0000
0000
1100
0000
0101
,
0000
0000
0000
0000
0001
1000
0010
1000
,
0000
0010
0100
0001
0000
1000
0100
0010
,
0011
0000
0000
0000
0000
1100
0000
0011
,
0000
0000
0000
0000
0000
0101
0000
1010
,
0000
0000
0000
0000
0010
0100
0001
1000
,
0000
0001
1000
0001
0000
0100
0001
0000
,
0100
0000
0100
0000
0010
0100
0000
0010
,
0000
1000
0010
0000
0100
0010
1000
0001
,
0000
0000
0010
0000
0100
1000
0000
1100
,
0000
0010
0000
0011
0000
0001
0100
0010
,
1000
0000
0001
0000
1000
0010
0000
0100
,
0000
0010
0100
0000
0001
0000
1000
0100
,
0010
0100
1000
0001
0000
1000
0001
0000
,
1001
0000
0000
2002
0000
0000
0000
0000
0000
0000
0000
0000
0000
0000
0000
0000
,
0000
0000
0000
3003
,
0110
0000
0000
0220
0000
0000
0000
0000
0000
0000
0000
0000
0000
0000
0000
0000
,
0000
0000
0000
0000
0000
0000
0000
0000
0000
0000
0000
0300
0030
0000
0000
0000
,
1001
0000
0001
0100
1000
0000
1000
0100
,
0010
1000
0001
0020
0000
0000
0000
0000
,
0000
0000
0000
0000
,
0000
0000
0030
0000
;

//---------------dance-single - ----------------
#NOTES:
     dance-single:
     :
     Beginner:
     2:
     0.141661,0.240989,0.092245,0.000000,0.000000,129.000000,117.000000,12.000000,0.000000,0.000000,0.000000,0.141661,0.240989,0.092245,0.000000,0.000000,129.000000,117.000000,12.000000,0.000000,0.000000,0.000000:
1000
0000
0000
0000
0000
0000
0000
0010
,
0000
0000
0000
0000
0000
0000
0000
1000
,
0000
0000
0000
0000
0000
0000
0000
0001
,
0000
0000
0000
1000
0000
0000
0000
0000
,
0010
0000
0000
0100
,
0000
0000
0010
0000
,
0000
0000
1000
0000
0000
0000
0000
0001
,
0000
0000
0000
1000
0000
0000
0000
0000
,
0010
0000
0000
0000
0000
0000
0000
0100
,
0000
0000
0000
0010
,
0000
0000
0000
0000
0000
0000
0000
1000
,
0000
0000
0000
0001
0000
0000
0000
0000
,
0100
0000
0000
0000
,
0000
0000
0000
0000
0000
0000
0000
0010
,
0000
0000
0000
0000
0000
0000
0000
1000
,
0000
0000
0000
0000
0000
0000
0000
0001
,
0000
0000
0000
0000
0000
0000
0000
0100
,
0000
0000
0000
0010
0000
0000
0000
0100
,
0000
0000
0010
0000
0000
0000
0000
1000
,
0000
0000
0000
0000
0000
0000
0000
0001
,
0000
0000
0000
0000
0000
0000
0000
1000
,
0000
0000
0000
0001
0000
0001
0000
0001
,
0000
0000
0100
0000
0000
0000
0000
0010
,
0000
0000
0000
0000
0000
0000
0000
1000
,
0000
0000
0000
0001
0000
0000
0000
0100
,
0000
0100
0000
0010
0000
0010
0000
0100
,
0000
0000
0000
0010
,
0000
0000
0000
0000
0000
0000
0000
1000
,
0000
0001
0000
1000
,
0000
0000
0000
0000
,
0010
0000
0000
0000
,
1000
0000
0000
0000
,
0001
0000
0000
0000
,
0100
0000
0000
0010
,
1000
0000
0000
0000
,
0000
0000
0001
0000
,
1000
0000
0100
0100
,
0000
1000
0000
0000
,
0010
0000
0000
0000
,
0100
0000
0010
0000
,
1000
0000
0001
0000
,
0000
0100
0000
0010
,
0010
0000
0000
0000
,
0000
0000
1000
0000
,
1000
0000
0001
0001
,
0000
0100
0000
0000
,
0001
0000
0000
1000
,
0000
0000
0100
0000
,
1000
0000
0010
0010
,
0000
0000
0000
0000
,
1001
0000
0000
0000
,
0000
0000
1000
1000
,
0001
0000
1000
0001
,
0000
0100
0000
0000
,
0010
0000
0000
0100
,
0000
0000
0010
0010
,
1000
0000
0001
0001
,
0000
0000
0000
0000
,
1001
0000
0000
0000
0000
0001
0000
0001
,
0000
0000
0000
0000
0000
1000
0000
1000
,
0000
0000
0000
0000
0000
0000
0000
1001
,
0000
0000
0000
0110
0000
0000
0000
0000
,
1001
0000
0000
0000
0000
1000
0000
1000
,
0000
0000
0000
0000
0000
0010
0000
0010
,
0000
0000
0000
0000
0000
0000
0000
1001
,
0000
0000
0000
0110
0000
0000
0000
0000
,
0100
0000
0010
0000
,
0000
0000
1000
0000
0000
0000
0000
0001
,
0000
0000
0000
0000
1000
0000
0000
0010
,
0000
0000
0000
0100
0000
0000
0000
0000
,
0010
0000
0000
0000
0000
0000
0000
1000
,
0000
0000
0000
0001
,
0000
0000
0000
0000
,
1001
0000
0000
0000
,
0000
0000
0000
0000
,
0110
0000
0000
0000
,
0000
0000
0000
0000
,
0110
0000
1001
0000
,
0010
0000
0000
1001
0000
0000
0000
0000
;

//---------------dance-single - ----------------
#NOTES:
     dance-single:
     :
     Challenge:
     11:
     0.731367,1.120771,0.276734,0.276734,0.545780,666.000000,630.000000,36.000000,36.000000,0.000000,0.000000,0.731367,1.120771,0.276734,0.276734,0.545780,666.000000,630.000000,36.000000,36.000000,0.000000,0.000000:
// measure 0
1001
1000
0100
1000
0010
1010
0000
0101
,  // measure 1
0000
0001
0010
0001
1000
1001
0000
0101
,  // measure 2
0000
0000
0001
0000
0010
0000
0001
0000
1000
0000
0001
0100
0001
0100
0002
0000
,  // measure 3
0000
0000
0103
0010
1000
0000
0200
0000
0000
0000
0310
0000
1001
0000
0000
0000
,  // measure 4
1000
0010
0100
0001
0010
0001
1000
0100
,  // measure 5
0000
0010
0001
0100
0001
1000
0100
0010
,  // measure 6
0000
0000
0000
0100
0000
0000
0010
0000
0000
0001
0000
0000
0100
0000
0000
0010
0000
0000
1000
0000
0000
0001
0200
0000
,  // measure 7
0000
0000
0000
0310
0000
0000
1000
0000
0000
0100
0020
0000
0000
0000
0000
0031
0000
0000
0010
0000
0000
0001
0000
0000
,  // measure 8
1000
0010
0100
0001
0010
0001
1000
0100
,  // measure 9
0000
0000
0000
0000
0100
0000
0000
0000
0010
0000
0000
0000
0001
0000
0000
0000
0100
0000
0000
0000
0001
0000
0000
0000
0001
0010
0000
0000
0010
0100
0000
0000
,  // measure 10
0100
0000
0000
0000
0000
0000
1000
0000
0000
0000
0000
0000
0000
0000
0000
0000
0000
0000
0000
0000
0000
0000
0000
0000
1000
0000
0000
0000
0000
0000
0000
0000
0000
0000
0000
0000
0000
0000
0000
0000
0000
0000
0000
0000
0000
0000
0000
0000
0010
0000
0000
0000
0000
0000
0000
0000
0000
0000
0000
0000
0000
0000
0000
0000
0000
0000
0000
0000
0000
0000
0000
0000
0100
0000
0000
0000
0000
0000
0010
0000
0000
0000
0000
0000
0000
0000
0000
0000
0000
0000
0000
0000
0000
0000
0000
0000
0000
0000
0000
0000
0000
0000
0000
0000
0000
0000
0000
0000
0000
0000
0000
0000
0000
0000
0000
0000
0000
0000
0000
0000
0010
0000
0000
0000
0000
0000
0100
0000
0000
0000
0000
0000
0000
0000
0000
0000
0000
0000
0000
0000
0000
0000
0000
0000
0010
0000
0000
0000
0000
0000
0000
0000
1000
0000
0000
0000
0000
0000
0000
0000
0000
0000
0000
0000
0000
0000
0000
0000
0002
0000
0000
0000
0000
0000
0000
0000
0000
0000
0000
0000
0000
0000
0000
0000
0000
0000
0000
0000
0000
0000
0000
0000
,  // measure 11
0000
0000
0000
0000
0000
0000
1003
0000
0000
0010
0000
0000
0100
0000
0000
0001
0000
0000
0020
0000
0000
0000
0000
0000
0000
0000
0000
0000
0000
0000
0130
0000
0010
0000
0100
0000
0010
0000
0000
0000
0000
0000
0000
0000
0000
0000
0000
0000
,  // measure 12
0100
0010
0001
0100
0010
1000
0100
0010
0001
0010
0100
1000
0100
0010
0001
1000
,  // measure 13
0001
0000
0000
0100
0000
0000
0010
0000
0000
1000
0000
0000
0001
0000
1000
0000
0001
0000
1000
0000
0100
0000
0010
0000
0000
0000
0000
0000
0000
0000
0011
0000
0000
0000
0000
0000
0000
0000
0000
0000
0000
0000
1100
0000
0000
0000
0000
0000
,  // measure 14
0000
1000
0020
0000
0130
0001
0010
0002
,  // measure 15
0000
1003
0000
2000
0000
3100
0000
0020
,  // measure 16
0000
0000
0000
0000
0000
0000
0030
0110
,  // measure 17
0000
0000
0100
0010
0001
0000
0011
0000
0000
0000
1100
0000
0000
0000
1001
0000
,  // measure 18
0000
1000
0020
0000
0130
0001
1000
0200
,  // measure 19
0000
0310
0000
0002
0000
1003
0000
0020
,  // measure 20
0000
0130
0001
2000
0000
0000
3001
0020
,  // measure 21
0000
0130
1000
1010
0000
0101
0000
1001
,  // measure 22
0000
1000
0100
0000
0010
0001
0010
0100
,  // measure 23
0000
0010
0000
0001
0000
1000
0000
1001
,  // measure 24
0000
0000
0000
0001
0000
0000
1000
0000
0000
0020
0000
0000
0000
0000
0000
0130
0001
1000
0001
0000
0000
0101
0000
0000
,  // measure 25
0000
0011
0000
1001
0000
0110
0000
1001
,  // measure 26
0000
0000
0000
0000
0000
1000
0010
1000
,  // measure 27
0100
0000
1000
0000
0001
0000
0010
0000
0000
0000
0100
0000
0010
0001
0100
0000
,  // measure 28
0000
0000
0000
0000
0010
1000
0010
0100
0001
0010
0001
1000
0100
1000
0020
0000
,  // measure 29
0000
0000
0000
0000
0000
0000
0000
0000
0000
0130
0000
0000
0001
1000
0001
1000
0000
0000
0100
0000
0000
0010
0000
0000
,  // measure 30
0001
0000
1000
0000
0000
0100
0000
0010
0000
0100
1000
0001
1000
0100
1000
0001
,  // measure 31
0010
0000
0000
0000
0000
0000
0100
1000
0100
0000
1000
0001
1000
0000
0010
0000
0000
0000
0100
0000
0001
0000
0000
0000
0010
0000
0000
0000
0100
0000
0000
0000
,  // measure 32
1000
0000
0001
0000
0100
0001
0000
0010
0000
0100
0010
0001
0100
1000
0100
0010
,  // measure 33
1000
0000
0000
0000
0000
0000
0001
0100
0010
0000
0100
0001
1000
0000
0010
0000
0000
0000
0100
0000
0001
0000
0000
0000
1000
0000
0001
1000
0100
0010
0100
1000
,  // measure 34
0001
1000
0010
0000
0100
0001
0010
0001
,  // measure 35
0000
1000
0100
0010
0100
1000
0010
0100
,  // measure 36
0002
0000
0000
0000
0003
0000
1000
0001
0100
0000
0001
1000
0100
0000
1000
0000
,  // measure 37
0000
0001
0010
0001
1000
0100
0010
0001
,  // measure 38
1000
0000
0001
0000
0100
0001
0010
0001
,  // measure 39
0000
1000
0100
1000
0010
0100
0001
0010
,  // measure 40
0200
0000
0000
0000
0300
0000
0010
0100
1000
0000
1000
0010
0100
0000
0001
0000
,  // measure 41
0000
0000
1000
0000
0010
0000
0001
0000
0010
0100
0010
0100
0001
0000
1000
0000
,  // measure 42
0100
0000
1000
0000
0010
0100
0000
0001
,  // measure 43
0000
1000
0001
0010
0001
1000
0100
1000
,  // measure 44
0020
0000
0000
0000
0030
0000
0100
0001
0100
0000
0010
1000
0010
0000
0100
0000
,  // measure 45
0000
0000
0000
0001
0000
0000
0010
0001
0010
0001
0000
0000
0100
0000
0000
0001
0000
0000
1000
0000
0000
0100
0000
0000
,  // measure 46
0010
0000
0100
0000
1000
0100
1000
0001
,  // measure 47
0000
0100
0001
0010
1000
0010
0100
1000
,  // measure 48
0002
0000
0000
0000
0003
0000
1000
0001
0100
0000
0100
0001
0010
0000
0100
0000
,  // measure 49
0000
0000
1000
0000
0100
0000
0010
0000
0001
0000
0010
0100
1000
0010
0100
0001
,  // measure 50
1000
0000
0000
0000
0001
0000
0000
0000
1000
0000
0100
0000
1000
0010
0100
0000
,  // measure 51
0000
0001
0010
0001
1000
0100
0010
0001
,  // measure 52
2000
0000
0000
0000
3000
0000
0001
0100
0010
0000
0100
0001
1000
0000
0100
0000
,  // measure 53
0010
0001
0010
1000
0010
0100
1000
0010
,  // measure 54
0100
0000
0001
0000
0010
0100
0010
0001
,  // measure 55
0000
1000
0010
0100
0001
0010
0001
1000
,  // measure 56
0200
0000
0000
0000
0300
0000
0010
0001
1000
0000
1000
0001
0100
0000
0010
0000
,  // measure 57
0000
0100
0001
0000
1000
0000
0010
0000
,  // measure 58
1001
0001
0100
0001
0010
0110
0000
1100
,  // measure 59
0000
1000
0010
0100
0001
0011
0000
1100
,  // measure 60
0000
0000
1000
0000
0100
0000
0001
0000
0100
0000
0010
0001
0010
0001
2000
0000
,  // measure 61
0000
0000
3001
0100
0010
1000
0200
0000
0000
0000
0310
0001
1000
0000
0001
0000
,  // measure 62
1001
0001
0010
0001
0100
0101
0000
1010
,  // measure 63
0000
1000
0100
1000
0001
1001
0000
1010
,  // measure 64
0000
0000
1000
0000
0100
0000
1000
0000
0001
0000
1000
0010
1000
0010
2000
0000
,  // measure 65
0000
0000
3010
0100
0001
0000
0020
0000
0000
0000
0130
0000
1001
0000
0000
0000
,  // measure 66
0001
0100
0010
1000
0100
1000
0001
0010
,  // measure 67
0000
0100
1000
0010
1000
0001
0010
0100
,  // measure 68
0000
0000
0000
0010
0000
0000
0100
0000
0000
1000
0000
0000
0010
0000
0000
0100
0000
0000
0001
0000
0000
1000
0020
0000
,  // measure 69
0000
0000
0000
0130
0000
0000
0001
0000
0000
0010
0200
0000
0000
0000
0000
1300
0000
0000
0100
0000
0000
1000
0000
0000
,  // measure 70
0001
0100
0010
1000
0100
1000
0001
0010
,  // measure 71
0000
0000
0000
0010
0000
0000
0100
0000
0000
1000
0000
0000
0010
0000
0000
1000
0000
0000
1000
0100
0000
0100
0010
0000
,  // measure 72
0010
0000
0000
0000
0000
0000
0000
0000
0001
0000
0000
0000
0000
0000
0000
0000
0000
0000
0000
0000
0000
0000
0000
0000
0001
0000
0000
0000
0000
0000
0000
0000
0000
0000
0000
0000
0000
0000
0000
0000
0000
0000
0000
0000
0000
0000
0000
0000
0100
0000
0000
0000
0000
0000
0000
0000
0000
0000
0000
0000
0000
0000
0000
0000
0000
0000
0000
0000
0000
0000
0000
0000
0010
0000
0000
0000
0000
0000
0100
0000
0000
0000
0000
0000
0000
0000
0000
0000
0000
0000
0000
0000
0000
0000
0000
0000
0000
0000
0000
0000
0000
0000
0000
0000
0000
0000
0000
0000
0000
0000
0000
0000
0000
0000
0000
0000
0000
0000
0000
0000
0010
0000
0000
0000
0000
0000
0000
0000
0100
0000
0000
0000
0000
0000
0000
0000
0000
0000
0000
0000
0000
0000
0000
0000
0100
0000
0000
0000
0000
0000
0000
0000
0001
0000
0000
0000
0000
0000
0000
0000
0000
0000
0000
0000
0000
0000
0000
0000
0000
0000
0000
0000
0000
0000
0000
0000
0000
0000
0000
0000
0000
0000
0000
0000
0000
0000
0000
0000
0000
0000
0000
0000
,  // measure 73
1010
0000
0000
0001
0100
0010
1000
0001
0010
0100
0010
0001
1000
0010
0100
0001
,  // measure 74
1000
0000
0001
0000
1000
0000
0001
0000
0000
1000
0000
0000
0001
0000
1000
0000
0001
0000
1000
0000
0000
0001
0000
0000
1000
0000
0001
0000
1000
0000
0001
0000
0000
1000
0000
0000
0001
0000
1000
0000
0001
0000
1000
0000
0000
0001
0000
0000
,  // measure 75
0100
0000
0000
0010
1000
0100
0010
0001
0010
0100
0010
0001
1000
0100
0010
0100
,  // measure 76
1000
0000
0000
0010
0000
0000
0100
0000
0000
0001
0000
0000
0010
0000
0000
0100
0000
0000
0010
0000
0000
0001
0000
0000
1000
0000
0100
0000
0010
0000
0001
0000
0000
0000
0000
0000
0010
0000
0000
0000
0000
0000
0100
0000
0000
0000
0000
0000
,  // measure 77
1100
0000
0000
0000
0000
0000
0000
0000
2000
3001
0000
0000
0002
1003
0000
0000
0110
0000
0000
0000
0000
0000
0000
0000
0020
0130
0000
0000
0200
0310
0000
0000
,  // measure 78
0100
0000
0001
1000
0010
0000
2002
0000
0000
0000
0000
0000
0000
0000
0000
0000
,  // measure 79
0000
0000
0000
0000
,  // measure 80
0000
0000
0000
0000
,  // measure 81
3003
0000
0000
0000
;
