#TITLE:Headless Chicken;
#SUBTITLE:;
#ARTIST:r300k;
#TITLETRANSLIT:;
#SUBTITLETRANSLIT:;
#ARTISTTRANSLIT:;
#GENRE:;
#CREDIT:;
#BANNER:;
#BACKGROUND:;
#LYRICSPATH:;
#CDTITLE:;
#MUSIC:Headless Chicken.ogg;
#OFFSET:-2.267001;
#SAMPLESTART:44.701939;
#SAMPLELENGTH:10.607735;
#SELECTABLE:YES;
#BPMS:0.000000=181.000000
;
#STOPS:28.000000=0.331000,
28.500000=0.331000
;
#BGCHANGES:;
#KEYSOUNDS:;
#ATTACKS:;

//---------------dance-single - ----------------
#NOTES:
     dance-single:
     :
     Hard:
     11:
     0.734433,0.767414,0.115098,0.245542,0.928455,670.000000,655.000000,15.000000,32.000000,0.000000,0.000000,0.734433,0.767414,0.115098,0.245542,0.928455,670.000000,655.000000,15.000000,32.000000,0.000000,0.000000:
0001
0000
0001
0000
0000
1000
0100
0010
,
0100
0000
0100
0000
0000
0010
0001
1000
,
0001
0000
0001
0000
0000
0100
0001
0100
,
0010
0100
0001
1000
,
0001
0000
0001
0000
0000
1000
0100
0010
,
0100
0000
0100
0000
0000
0010
0001
1000
,
0100
0000
0100
0000
0000
0010
0001
1000
,
0010
0000
0000
0100
0000
0000
0001
0000
0000
0000
0000
0000
0100
0000
0000
0000
0000
0000
0010
0000
0000
0000
1000
0000
,
0010
0000
0000
0100
0000
0001
0010
0000
0000
0100
0000
1000
,
0001
0000
0000
0100
0000
0010
1000
0000
0000
0001
0000
1000
,
0100
0000
0000
0010
0000
0001
1000
0000
0000
0010
0000
1000
,
0001
0000
0000
0100
0000
0001
1000
0000
0000
1000
0000
0001
,
0010
0000
0000
0100
0000
0010
0001
0000
0000
0001
0000
0010
,
0100
0000
0000
1000
0000
0100
0010
0000
0000
0010
0000
0000
,
0100
0000
0010
0001
0000
0001
0100
0000
0000
0010
0000
0000
,
0110
0000
0000
1001
0000
0000
1000
0000
0001
0100
0010
0100
,
0010
0000
0010
1000
0000
0000
0001
0000
0010
0100
1000
0100
,
1000
0000
1000
0001
0000
0000
0100
0000
0010
1000
0001
1000
,
0001
0000
0001
1000
0000
0000
0100
0000
0010
0001
0100
0001
,
0100
0000
0100
0010
0000
0000
1000
0000
0001
0100
0010
1000
,
0100
0000
0000
0010
0000
0000
0100
0000
1000
0001
0010
0001
,
0100
0000
0000
0010
0000
0000
1000
0000
0001
0010
0001
1000
,
0100
0000
0000
1000
0000
0000
0101
0000
0000
1010
0000
1000
,
0001
0000
0001
0020
0030
0000
0110
0000
0000
0100
0000
0000
,
1100
0000
1000
0100
0000
0000
1001
0000
0001
0100
0000
1000
,
0100
0000
0100
0010
0000
0010
0001
0000
0000
1001
0000
0000
,
0001
0000
0100
0010
0000
0000
1000
0000
0010
1000
0000
0100
,
0001
0000
0001
0010
0000
0100
1000
0000
0000
0100
0000
0000
,
0010
0100
1000
0001
,
0100
0001
0100
0010
,
1000
0000
0000
0001
0000
0000
0010
0000
0000
0200
1300
0010
,
0100
0001
1000
0002
0000
0003
2200
0000
3300
1000
0001
0100
,
0010
0000
1000
0000
0010
0100
0001
0000
0000
1000
0000
0100
,
0010
0100
1000
0002
0000
0000
0103
0000
0000
0010
0000
0000
,
0100
0000
0001
0100
0010
1000
0001
0000
0000
0001
0000
1000
,
0100
1000
0010
0100
0000
0000
0001
0000
2000
0000
3100
1000
,
0010
0000
0100
0000
0010
0100
0010
0000
1000
0001
0000
0001
,
0010
0100
1000
0010
0000
0100
0001
0000
0000
0010
0000
0000
,
0100
0000
1000
0100
0000
0100
1000
0001
0100
1000
0000
1000
,
0100
0010
0001
0020
0000
0000
1030
0000
0000
0001
0000
1000
,
0010
0000
0001
0010
0100
0010
1000
0000
0001
0010
0000
0001
,
1000
0000
1000
0010
0000
0100
0001
0000
0000
1000
0000
0001
,
0010
0000
1000
0010
0100
0001
0010
0000
0100
1000
0000
1000
,
0001
1000
0001
0100
0000
0100
0010
0000
1000
0010
0000
0001
,
0010
0000
1000
0010
0100
0001
1000
0000
0001
0100
0000
0100
,
0010
0000
0010
1000
0000
1000
0001
0000
0001
0100
0000
1000
,
0200
0000
0301
0200
0000
0310
1000
0001
1000
0100
0000
1000
,
0001
1000
0001
0010
0000
0000
1001
0000
0001
1000
0010
1000
,
0010
0000
0010
0000
0100
0001
0100
0000
0010
1000
0000
1000
,
0001
0000
0001
0010
0000
0010
0100
0000
0000
1000
0000
0000
,
0010
0000
0000
0000
0100
0010
1000
0000
0000
0001
0000
0010
,
0100
0000
0100
1000
0000
1000
0010
0000
0200
0000
0000
0000
,
0301
0000
0000
0000
0000
1000
0001
0000
0000
0010
0000
0000
,
0001
0100
0010
1000
,
1000
0000
0001
0010
,
0100
0000
1000
0000
0001
0000
1000
0000
0000
0000
0000
0000
0001
0000
0000
0000
0000
0000
0100
0000
0000
0010
0000
0000
,
1000
0000
0010
0100
0001
0000
1000
0100
,
0010
0000
0100
1000
0010
0000
0100
0001
,
1000
0000
0001
1000
0010
0000
1000
0001
,
0100
0000
0001
0000
1000
0000
0001
0010
,
0100
0000
0100
0010
0001
0000
0001
1000
,
0100
0000
0010
0001
0100
0000
0100
0010
,
1000
0000
0000
0001
0000
0000
1001
0000
1010
0000
1000
0010
,
0100
0000
0001
0000
0010
0000
0100
0000
0000
0000
0000
0000
1000
0000
0000
0100
0000
0000
1000
0000
0000
0010
0000
0000
,
0100
0001
0010
0001
0100
0010
1000
0001
,
0010
0100
1000
0100
0010
0100
1000
0010
,
0100
0001
0010
0001
0100
0010
1000
0001
,
0010
0000
0100
1000
0001
0000
0000
0000
1000
0000
0010
0000
0100
0000
0010
0000
,
1000
0001
0010
0100
1000
0001
1000
0010
,
0100
0001
0100
0010
1000
0001
0010
0100
,
1000
0010
1000
0002
0013
0000
0100
0010
,
0110
0000
0000
0020
0030
0020
0130
0001
1000
0020
0000
0000
,
1030
0000
0001
1000
0100
1000
0001
0000
1000
0001
0000
0001
,
0100
0001
0100
0010
0000
0010
1000
0000
0100
0010
0001
0010
,
0100
1000
0001
1000
0010
0100
0010
0000
0010
0100
0000
0100
,
0001
1000
0001
0100
0000
0100
0010
0000
0100
0001
0000
0100
,
0001
0000
0100
0001
0010
0100
1000
0000
0000
1000
0000
0001
,
0100
0010
1000
0001
0000
1000
0100
0000
0010
0000
0000
0010
,
0100
0000
0100
2000
3002
0203
0310
1000
0001
0010
0000
0100
,
0010
0001
1000
0020
0000
0000
0130
0000
0001
2000
0000
3001
,
2000
0000
3001
2000
0000
3001
0010
0001
1000
0010
0000
0100
,
0010
1000
0001
0010
0000
0100
0010
0000
0010
0002
0000
1003
,
0002
0000
0103
0002
0000
1003
0100
0000
0000
0100
0000
0010
,
0100
0000
0100
1000
0000
1000
0001
0000
0001
0200
0000
0310
,
0200
0000
1300
0200
0000
0310
1000
0000
0100
0001
0000
0001
,
0010
0000
0100
1000
0000
1000
0001
0000
0001
0020
0000
1030
,
0020
0000
0031
0020
0000
1030
0100
0010
0001
1000
0000
0001
,
0010
0100
1000
0001
0000
0000
1001
0000
0000
0000
0001
0100
,
0001
0000
0001
0000
1000
0100
1000
0000
0100
0010
0000
0010
,
0001
0000
0001
0100
0000
0100
0010
0000
0000
0010
0000
0000
,
0100
0000
0100
0000
0000
0010
1000
0000
0000
0001
0000
0010
,
0100
0000
0100
1000
0000
1000
0001
0000
0002
0000
0000
0000
,
1003
0000
0000
0000
0000
0001
0010
0000
0000
0001
0000
0000
,
1000
0010
0100
0100
,
0001
0000
0000
0000
0000
0000
1000
0000
0000
0100
0000
1000
,
0010
0100
0001
1001
0000
0000
0000
0000
0000
0000
0000
0000
;

//---------------dance-single - ----------------
#NOTES:
     dance-single:
     :
     Easy:
     6:
     0.411063,0.584697,0.306927,0.191830,0.007673,375.000000,335.000000,40.000000,25.000000,0.000000,0.000000,0.411063,0.584697,0.306927,0.191830,0.007673,375.000000,335.000000,40.000000,25.000000,0.000000,0.000000:
0001
0001
0000
1000
,
0100
0100
0000
1000
,
0010
0010
0000
0100
,
0010
0010
0100
0100
,
0001
0001
0000
1000
,
0100
0100
0000
1000
,
0010
0010
0000
0100
,
0001
1000
0100
0000
1000
0000
0010
0000
,
0100
0000
0010
0100
,
0001
0000
1000
0001
,
0010
0001
1000
0100
,
0010
0100
1000
0010
,
0100
0000
0010
0100
,
0001
0000
1000
0001
,
0100
0000
0001
0100
,
0020
1030
0010
0100
,
0001
0000
1000
0100
,
1000
0010
0100
0001
,
1000
0000
0100
1000
,
0010
0100
0001
0010
,
0100
0000
0010
0001
,
1000
0010
0100
0001
,
1000
0000
0001
0100
,
1000
0000
0200
0300
0010
0000
1000
0000
,
0010
1000
0001
0001
,
1000
1000
0001
0100
,
0001
0100
0010
0010
,
1000
1000
0001
0010
,
0100
1000
0001
0010
,
0100
1000
0100
0010
,
0001
1000
2002
0000
,
0000
3003
0220
0330
,
1001
0000
0001
1000
,
0010
1000
1001
1001
,
0101
0000
0001
0100
,
0010
1000
1020
0000
,
0130
0000
0110
0110
,
1001
0001
1001
1001
,
1001
0001
1010
0001
,
0011
0010
0120
0100
,
0100
0130
0010
0001
,
0010
0100
2001
0010
,
0010
3001
1000
0010
,
0100
0001
0201
0010
,
0010
0301
0100
0010
,
1000
0001
1002
0010
,
0010
2003
3001
0100
,
1000
1001
0001
0000
,
0100
0000
0001
1000
,
0010
1000
0001
0001
,
0010
0000
0001
0100
,
0010
1000
0001
2000
,
3010
0000
0100
0010
,
1000
0000
0001
0000
,
1000
0000
0001
0000
,
0100
0010
0100
0000
1001
0000
0000
0000
,
0001
0000
0100
0000
,
0001
0000
1000
0000
,
0100
0000
1000
0000
,
0010
0000
0100
0000
,
0001
0000
1000
0000
,
0100
0000
1000
0000
,
0010
0000
0200
0320
,
2030
3002
1003
0001
,
0100
0001
1000
0100
,
1000
0010
0100
0010
,
1000
0001
0010
0100
,
1000
0001
1000
0000
0001
0000
0100
0000
,
0001
1000
0100
1000
,
0010
0100
0001
0010
,
0100
0000
1000
0000
0001
0000
1000
1000
,
0001
0100
0020
1030
,
0101
1100
1001
0001
,
0100
0010
1000
1010
,
0101
1010
0010
0100
,
0001
0010
0100
1100
,
0101
1100
0100
0010
,
0100
1000
0001
1001
,
0110
1001
0002
0103
,
0002
1003
0102
0100
,
0010
1003
0001
0100
,
1000
0100
0120
1000
,
0100
0031
0001
0010
,
1000
0100
2100
0100
,
0010
3001
0001
1000
,
0010
0100
0201
1000
,
0010
0301
1000
0001
,
0100
0010
1001
0000
,
0101
0000
0100
0010
,
1000
0010
0100
0100
,
0001
0000
1000
0100
,
1000
0010
0200
0000
,
0301
0000
0010
0001
,
1000
0000
0001
0000
,
1000
0000
0010
1001
,
0001
1000
0001
1000
0000
0000
0000
0000
0000
0000
0000
0000
;

//---------------dance-single - ----------------
#NOTES:
     dance-single:
     :
     Medium:
     9:
     0.580970,0.694327,0.268561,0.153464,0.387496,530.000000,495.000000,35.000000,20.000000,0.000000,0.000000,0.580970,0.694327,0.268561,0.153464,0.387496,530.000000,495.000000,35.000000,20.000000,0.000000,0.000000:
1000
0000
1000
0000
0000
0001
0100
0010
,
0100
0000
0010
0000
0000
1000
0010
0100
,
0010
0000
0100
0000
0000
0010
0100
0001
,
1000
0100
0010
0100
,
1000
0000
1000
0000
0000
0001
0100
0001
,
0010
0000
0010
0000
0000
0010
0100
0001
,
1000
0000
1000
0000
0000
0001
0010
0100
,
0010
0100
1000
0000
0010
0000
0100
0000
,
0101
0001
0010
0100
,
1100
1000
0010
0100
,
0101
0001
1001
0101
,
1001
1100
1000
0010
,
0110
0100
0001
0010
,
0110
0100
1000
0010
,
0110
0000
0000
0100
0000
0000
0001
0000
0000
1000
0000
0010
,
0100
0000
0000
0001
0000
0000
1000
0000
0000
0001
0100
0001
,
0010
0100
1000
0010
,
0001
0000
0000
0010
0000
0000
0100
0000
0000
0010
1000
0010
,
0100
0001
1001
1001
,
0010
0000
0000
1001
0000
0000
1000
0000
0000
0001
0010
0001
,
1000
0100
1000
0010
,
0100
0000
0000
0001
0000
0000
0010
0000
0000
0100
0010
0001
,
1000
0000
0000
0001
0000
0000
1000
0000
0000
0010
0000
0100
,
0001
0000
0001
0010
0000
0000
0110
0000
0000
0100
0000
0000
,
1100
1000
1001
0001
,
0101
0100
0110
0010
,
1010
1000
1001
0001
,
0011
0010
0100
0100
,
0010
0010
0001
0001
,
1000
1000
0001
0010
,
0100
0000
0000
1000
0000
0000
0010
0000
0000
0100
0000
0010
,
0100
0010
1000
0001
0000
0000
2002
0000
0000
3003
0001
0100
,
0001
0000
0100
0000
0000
0010
1000
0000
0000
0100
0000
0000
,
0010
0001
1000
0001
0000
0000
1100
0000
0000
1100
0000
0000
,
1000
0000
0010
0000
0100
0010
1000
0000
0000
0001
0000
1000
,
0001
0100
0001
0010
0000
0000
0100
0000
0020
0000
0000
0130
,
1000
0000
0001
0000
0000
1000
0010
0000
0000
0010
0000
0100
,
0001
0010
0001
1000
0000
0000
0011
0000
0000
0011
0000
0000
,
0001
0000
1000
0000
0000
0010
0100
0001
0100
0001
0000
1000
,
0010
0100
0010
0100
0000
0000
1001
0000
0000
1000
0000
0001
,
1000
0000
0001
1000
0001
1000
0100
0000
0000
0010
0000
0000
,
0001
0000
0000
1000
0000
0000
1001
0000
0000
1000
0000
0001
,
1000
0000
0001
1000
0001
1000
0010
0000
0000
0010
0000
0000
,
0100
0000
0000
0100
0000
0000
1001
0000
1000
0001
0000
1000
,
0001
0000
0001
1000
0001
1000
0100
0000
0000
0010
0000
0000
,
0001
0000
0000
0100
0000
0000
0010
0000
1000
0010
0000
0010
,
0100
0000
0100
0001
0000
1000
0001
0010
0100
1000
0000
0001
,
1000
0100
0010
0001
0000
0000
0010
0000
0000
0100
0000
0000
,
1000
0000
0100
1000
,
0010
0100
0001
0001
,
0001
0000
0001
0000
0000
0000
1000
0000
0000
0100
0000
0000
,
1000
0000
0000
0010
0000
0000
0100
0000
0200
0000
0000
0000
,
0310
0000
0100
0100
,
0001
1000
0100
0010
,
0100
0000
1000
0100
,
1000
0000
0100
0000
0010
0000
0001
0000
0000
0000
0000
0000
0001
0000
0000
0000
0000
0000
1000
0000
0000
0010
0000
0000
,
1000
0000
0010
0100
0010
0000
0100
0001
,
0100
0000
0001
0010
0001
0000
1000
0001
,
1000
0000
0001
1000
0010
0000
1000
0000
,
0100
0000
0010
0000
0001
0000
1000
0001
,
0100
0000
0001
1000
0010
0000
1000
0001
,
0100
0000
0001
1000
0010
0000
1000
0001
,
0100
0000
0010
1000
0002
0000
0000
0000
,
0000
0000
0003
0000
0010
0000
0001
0010
,
0100
0000
0100
1000
0100
0000
1000
0100
,
0010
0000
0001
0010
0001
0000
0001
0010
,
0100
0000
0100
1000
0100
0000
1000
0010
,
0100
0000
0001
0000
1000
0000
0010
0100
,
0001
0000
1000
0100
0010
0000
0001
0010
,
1000
0000
0010
0001
0100
0000
0100
0010
,
1000
0000
0010
0000
1001
0000
1000
1000
,
0001
0000
0000
0100
0000
0010
1000
0100
0010
0002
0000
0000
,
1003
0000
0001
0100
0000
0001
0100
0000
0000
0010
0000
0000
,
1000
0000
0000
0100
0000
0000
0010
0000
0001
0010
0000
0010
,
0100
0000
0100
1000
0000
1000
0001
0000
0000
0010
0000
0000
,
0001
0000
0000
1000
0000
0000
0010
0000
0100
0010
0000
0100
,
0001
0000
0100
0010
0000
0010
1000
0000
0000
0100
0000
0000
,
1000
0000
0000
0010
0000
0000
0100
0000
0001
0000
0000
1000
,
0001
0000
0001
0200
0000
0000
0310
0000
0000
1010
0000
0000
,
1000
0000
0000
1001
0000
0000
1100
0000
0000
2000
0000
3001
,
0200
0000
0310
2000
0000
0000
3100
0000
0000
0010
0000
0000
,
0100
0000
0000
1000
0000
0000
0010
0000
0000
0200
0000
0301
,
0020
0000
0130
2000
0000
3001
0100
0000
0000
0100
0000
0000
,
0001
0000
0000
0010
0000
0000
0100
0000
1000
0020
0000
0130
,
0002
0000
1003
0200
0000
0000
0310
0000
0000
0010
0000
0000
,
0100
0000
0000
1000
0000
0000
0001
0000
0010
0002
0000
0103
,
0020
0000
1030
0002
0000
0000
1003
0000
0000
0100
0000
0000
,
0010
0000
0000
1001
0000
0000
0101
0000
0000
0000
0001
1000
,
0001
0000
0001
0000
0000
0000
1000
0000
0000
0100
0000
0000
,
1000
0010
0100
0100
,
0001
0000
0001
0000
0000
1000
0001
0000
0000
0010
0000
0000
,
0001
0000
0000
1000
0000
0000
0010
0000
0200
0000
0000
0000
,
0301
0000
1000
0100
,
0010
0001
1000
0001
,
0100
0010
1000
0001
,
1000
0001
0100
0010
0000
0000
0000
0000
0000
0000
0000
0000
;

//---------------dance-single - ----------------
#NOTES:
     dance-single:
     :
     Beginner:
     3:
     0.183060,0.328892,0.099751,0.030693,0.000000,167.000000,154.000000,13.000000,4.000000,0.000000,0.000000,0.183060,0.328892,0.099751,0.030693,0.000000,167.000000,154.000000,13.000000,4.000000,0.000000,0.000000:
// measure 0
0100
0000
0000
0000
,  // measure 1
0010
0000
0000
0000
,  // measure 2
1000
0000
0000
0000
,  // measure 3
0001
0000
0001
0000
,  // measure 4
1000
0000
0000
0000
,  // measure 5
0010
0000
0000
0000
,  // measure 6
0100
0000
0000
0000
,  // measure 7
1001
0000
0001
0000
,  // measure 8
0000
0000
1000
0000
,  // measure 9
0000
0000
0010
0000
,  // measure 10
0000
0000
0100
0000
,  // measure 11
0010
0000
1000
0000
,  // measure 12
0000
0000
0001
0000
,  // measure 13
0000
0000
1000
0000
,  // measure 14
0000
0000
0010
0000
,  // measure 15
0100
0100
1001
0000
,  // measure 16
0000
0000
1000
0000
,  // measure 17
0000
0000
0010
0000
,  // measure 18
0000
0000
0100
0000
,  // measure 19
0000
0000
0001
0000
,  // measure 20
0000
0000
1000
0000
,  // measure 21
0000
0000
0010
0000
,  // measure 22
0000
0000
0100
0000
,  // measure 23
0010
0000
1001
0000
,  // measure 24
0000
0000
1000
0000
,  // measure 25
0000
0000
0001
0000
,  // measure 26
0000
0000
0100
0000
,  // measure 27
0000
0000
0010
0000
,  // measure 28
0000
0000
0000
0000
,  // measure 29
0000
0000
0000
0000
,  // measure 30
0000
0000
0200
0000
,  // measure 31
0000
0300
1001
0000
,  // measure 32
0001
0000
1000
1000
,  // measure 33
1000
0000
0010
0000
,  // measure 34
0100
0000
0010
0000
,  // measure 35
1000
1000
1000
0000
,  // measure 36
0001
0000
1000
0000
,  // measure 37
0010
0000
0100
0100
,  // measure 38
0100
0000
0110
0000
,  // measure 39
1001
0000
0000
1000
,  // measure 40
1000
1000
0010
0000
,  // measure 41
0100
0000
0000
0001
,  // measure 42
0001
0001
0100
0000
,  // measure 43
0010
0000
0000
0100
,  // measure 44
0100
0100
0001
0000
,  // measure 45
1000
0000
0000
0010
,  // measure 46
0010
0010
0100
0000
,  // measure 47
0010
0000
1001
0000
,  // measure 48
0000
0000
1000
0000
,  // measure 49
0000
0000
0100
0000
,  // measure 50
0000
0000
1000
0000
,  // measure 51
0000
0000
0020
0000
,  // measure 52
0030
0000
0100
0000
,  // measure 53
0000
0000
0001
0000
,  // measure 54
0000
0000
0000
0000
,  // measure 55
0000
1001
0001
0000
,  // measure 56
0000
0000
0100
0000
,  // measure 57
0000
0000
0001
0000
,  // measure 58
0000
0000
1000
0000
,  // measure 59
0100
0000
1000
0000
,  // measure 60
0000
0000
0010
0000
,  // measure 61
0000
0000
0100
0000
,  // measure 62
0000
0000
0020
0000
,  // measure 63
0000
0030
1000
0000
,  // measure 64
0000
0000
0001
0000
,  // measure 65
0100
0000
0001
0000
,  // measure 66
0000
0010
0010
0000
,  // measure 67
0100
0000
1000
0000
,  // measure 68
0000
0000
0001
0000
,  // measure 69
0000
1000
1000
0000
,  // measure 70
0010
0000
0100
0000
,  // measure 71
0000
0020
0000
0030
,  // measure 72
0100
0100
0010
0000
,  // measure 73
1000
0000
0001
0001
,  // measure 74
0001
0001
1000
0000
,  // measure 75
0001
0000
0100
0000
,  // measure 76
0010
0010
0100
0000
,  // measure 77
0010
0000
1000
0000
,  // measure 78
0001
0001
1001
0000
,  // measure 79
0110
0000
0001
0001
,  // measure 80
0001
0001
0000
0000
,  // measure 81
0000
0000
1000
1000
,  // measure 82
1000
1000
0000
0000
,  // measure 83
0000
0000
0010
0010
,  // measure 84
0010
0010
0000
0000
,  // measure 85
0000
0000
0100
0100
,  // measure 86
0100
0100
0110
0000
,  // measure 87
1001
0000
0001
0000
,  // measure 88
0000
0000
1000
0000
,  // measure 89
0000
0000
0010
0010
,  // measure 90
0010
0000
0100
0000
,  // measure 91
0000
0000
0010
0000
,  // measure 92
0000
0000
1000
0000
,  // measure 93
0000
0000
0001
0000
,  // measure 94
0000
0000
0000
0000
,  // measure 95
0010
1001
0000
0000
;
