#TITLE:Hard Times;
#SUBTITLE:;
#ARTIST:GRiZ;
#TITLETRANSLIT:;
#SUBTITLETRANSLIT:;
#ARTISTTRANSLIT:;
#GENRE:;
#CREDIT:;
#BANNER:Hard Times.png;
#BACKGROUND:Hard Times-bg.png;
#LYRICSPATH:;
#CDTITLE:;
#MUSIC:Hard Times.mp3;
#OFFSET:2.567998;
#SAMPLESTART:67.858765;
#SAMPLELENGTH:11.090576;
#LASTBEATHINT:2.372824;
#SELECTABLE:YES;
#BPMS:0.000000=91.970001
,104.000000=92.489998
,108.000000=92.000000
;
#STOPS:
;
#BGCHANGES:;
#KEYSOUNDS:;
#ATTACKS:;

//---------------dance-single - ----------------
#NOTES:
     dance-single:
     :
     Hard:
     7:
     0.298884,0.362109,0.136797,0.297734,0.265547,260.000000,243.000000,17.000000,37.000000,0.000000,0.000000,0.298884,0.362109,0.136797,0.297734,0.265547,260.000000,243.000000,17.000000,37.000000,0.000000,0.000000:
0000
0000
0000
0000
,
0000
0000
0000
0000
,
0000
0000
0000
0000
,
0000
0000
0000
0000
,
0000
0000
0000
0000
,
0101
0000
0001
0000
1000
0100
1000
0000
,
0010
0000
1000
0000
0001
0001
1000
0001
,
0011
0000
0100
0000
1000
0010
0100
0000
,
0001
0100
0000
0010
1000
0100
0000
0010
0001
0100
0000
0010
1000
0001
0000
0000
,
2001
0000
3100
0000
1000
0010
0100
0001
,
1000
0020
0030
0200
,
0301
0000
1000
0000
0001
1000
0100
0010
,
0200
0000
1300
0000
0200
0000
0310
0001
,
1001
0000
1000
0000
0001
0100
0001
0010
,
0000
0200
0300
0020
,
0031
0000
1000
0001
0100
0000
0001
1000
,
1001
0000
0000
0000
,
1000
0000
0001
0000
0000
0100
0000
0000
0000
0010
0000
1000
0000
0000
0000
0000
0000
0000
0100
0000
0000
0010
0000
0000
,
0001
0000
1000
0000
0000
0010
0000
0000
0000
0100
0000
0001
0000
0000
0000
0000
0000
0000
1000
0000
0000
0001
0000
0000
,
0100
0000
0010
0000
0000
1000
0000
0000
0000
0001
0000
0010
0000
0000
0000
0000
0000
0000
0100
0000
0000
1000
0000
0000
,
0001
0000
1000
0000
0000
0010
0000
0000
0010
0000
0000
0000
0100
0000
0001
0000
0000
0000
1000
0000
0000
0001
0000
0000
,
0100
0000
0001
0000
0000
0010
0000
0000
0000
0100
0000
1000
0000
0000
0000
0000
0000
0000
1000
0000
0000
0100
0000
0000
,
0010
0000
0100
0000
0000
0010
0000
0000
0000
0001
0000
1000
0000
0000
0000
0000
0000
0000
0001
0000
0000
0100
0000
0000
,
0010
0000
1000
0000
0000
0100
0000
0000
0000
0010
0000
0000
0001
0000
1000
0000
0000
0010
0000
0000
0000
0100
0000
0000
,
0001
0000
1000
0000
0000
0010
0000
0000
0000
0100
0000
0000
0001
0000
1000
0000
0000
0010
0000
0000
0000
0010
0000
1000
,
0002
2003
3002
2003
3002
2003
3002
2003
,
3010
0000
0000
1000
0010
0100
0010
0000
0000
0000
0000
0000
,
0201
0000
0000
0000
0000
0000
0310
0000
0000
1000
0000
0001
1000
0000
0001
0000
0000
1000
0000
0000
1000
0000
0000
1000
,
0020
0000
0000
0000
0000
0000
0130
0000
0001
0000
0000
2000
0000
0000
0000
0000
0000
0000
3200
0000
0000
0000
0000
0000
,
0310
0000
0000
0000
0000
0000
0100
0000
0000
1000
0000
0001
1000
0000
0001
0000
0000
1000
0000
0000
0001
0000
0000
1000
,
0200
0000
0310
0001
0200
0000
0300
0000
,
1020
0000
0000
0000
0000
0000
0130
0000
0000
0001
0000
1000
0001
0000
1000
0000
0000
0001
0000
0000
0001
0000
0000
0001
,
0200
0000
0000
0000
0000
0000
0310
0000
1000
0000
0000
0002
0000
0000
0000
0000
0000
0000
0013
0000
0100
1000
0000
0000
,
0001
0101
1000
1100
,
0001
0011
1000
1010
,
0001
0100
0010
1000
0001
0100
0010
1000
,
0001
1000
0001
1000
0001
1000
0001
1000
0020
0000
0000
0000
0000
0000
0030
0000
,
0202
0000
0000
0303
2020
0000
0000
3030
,
1002
0000
0000
2000
0000
0000
0000
0000
0000
0000
0000
0000
3003
0000
0000
0000
0000
0000
1000
0000
0001
0100
0000
0000
,
0010
0000
1000
0000
0001
0010
0001
0000
,
1000
0000
0000
0001
0000
0000
0010
0000
0100
0000
0000
1000
0000
0000
0001
1000
0000
0000
0010
0000
0000
0100
0000
0000
,
2002
0000
0000
3003
0020
0000
0000
0030
,
2100
0000
0000
0200
0000
0000
0000
0000
0000
0000
0000
0000
0000
0000
0000
3300
0000
0000
1000
0000
0100
0010
0000
0000
,
0001
0000
0100
0000
0010
1000
0001
0000
,
1000
0100
0001
0100
1000
0020
0000
0030
,
1001
0000
0000
0000
;

//---------------dance-single - ----------------
#NOTES:
     dance-single:
     :
     Easy:
     1:
     0.111507,0.162949,0.096562,0.032187,0.000000,97.000000,85.000000,12.000000,4.000000,0.000000,0.000000,0.111507,0.162949,0.096562,0.032187,0.000000,97.000000,85.000000,12.000000,4.000000,0.000000,0.000000:
0000
0000
0000
0000
,
0000
0000
0000
0000
,
0000
0000
0000
0000
,
0000
0000
0000
0000
,
0000
0000
0000
0000
,
1001
0000
0000
0000
,
0000
0000
0000
0000
,
1000
0000
0000
0000
,
0010
0010
0010
0010
,
1001
0000
0000
0001
,
0000
0200
0300
0010
,
1000
0000
0000
0100
,
1000
0000
0001
0000
,
1001
0000
0000
0010
,
0000
0200
0300
0010
,
1000
0000
0001
0000
,
1001
0000
0000
0000
,
0001
1000
0000
1000
,
0000
1000
0000
1000
,
0000
0001
0000
0001
,
0000
0001
0000
0001
,
0100
0010
0000
0010
,
0000
0010
0000
0010
,
0000
0100
0000
0100
,
0000
0100
0000
0100
,
0020
0000
0000
0000
,
0030
0000
0000
0000
,
1001
1000
0001
0000
,
0100
0000
0010
1000
,
0100
0000
1000
0000
,
0001
1000
0010
0000
,
1001
0000
0001
0000
,
0100
0000
0010
0000
,
1000
0000
0001
0000
,
0100
0000
0010
0000
,
1000
0010
0100
0001
,
1000
0001
0020
0030
,
1001
0000
1001
0000
,
1001
0000
0000
0001
,
0100
0000
0010
0000
,
1000
0100
0010
0100
,
1001
0000
0010
0000
,
1001
0000
0000
0001
,
0100
0000
0010
0000
,
1000
0000
0100
0000
,
1001
0000
0000
0000
;

//---------------dance-single - ----------------
#NOTES:
     dance-single:
     :
     Medium:
     4:
     0.178181,0.235371,0.064375,0.193125,0.000000,155.000000,147.000000,8.000000,24.000000,0.000000,0.000000,0.178181,0.235371,0.064375,0.193125,0.000000,155.000000,147.000000,8.000000,24.000000,0.000000,0.000000:
0000
0000
0000
0000
,
0000
0000
0000
0000
,
0000
0000
0000
0000
,
0000
0000
0000
0000
,
0000
0000
0000
0000
,
1001
0000
0000
0000
,
0000
0000
0000
0000
0100
0001
0010
0100
,
1001
0000
0000
0000
,
1000
1000
1000
1000
,
0101
0000
0001
0000
0010
0000
0100
1000
,
0001
0200
0000
0310
,
1000
0000
0010
0000
0100
0000
0001
1000
,
0200
0000
0000
0000
0000
0000
1300
0001
,
0011
0000
0100
0000
1000
0000
0001
1000
,
0010
0200
0000
0310
,
1000
0000
0001
0000
0100
0000
0001
0010
,
0100
0000
0000
0000
,
1000
0010
1000
0100
,
1000
0001
0010
0001
,
0100
0001
0010
0001
,
1000
1000
0001
1000
,
0100
1000
0010
0100
,
0010
1000
0100
1000
,
0001
0010
0001
0010
,
0001
0010
0001
0010
,
2200
0000
0000
0000
,
3300
0000
0000
0000
,
1002
0000
0100
0000
0200
0000
0000
0303
,
0001
1000
0200
2300
,
3020
1000
2000
3030
,
1000
0000
0010
0100
0001
0000
0010
0000
,
2100
0010
0002
3003
,
0101
0001
0020
0230
,
1300
0100
1000
0010
,
0100
0001
0010
0001
,
1000
0001
0100
0010
,
1000
0001
1000
0001
0020
0000
0230
0000
,
2300
0000
3200
0000
,
1300
0002
0000
0000
0000
0000
0103
1000
,
0100
0010
1000
0001
,
0010
1000
0010
0001
0100
1000
0100
0010
,
2000
0000
3020
0000
,
0130
0002
0000
0000
0000
0000
0013
0001
,
1000
0000
0010
0000
0100
0001
0010
0000
,
0100
0000
1000
0000
0001
0200
0000
0000
,
0310
0000
0000
0000
;

//---------------dance-single - ----------------
#NOTES:
     dance-single:
     :
     Beginner:
     1:
     0.071272,0.108633,0.040234,0.008047,0.000000,62.000000,57.000000,5.000000,1.000000,0.000000,0.000000,0.071272,0.108633,0.040234,0.008047,0.000000,62.000000,57.000000,5.000000,1.000000,0.000000,0.000000:
0000
0000
0000
0000
,
0000
0000
0000
0000
,
0000
0000
0000
0000
,
0000
0000
0000
0000
,
0000
0000
0000
0000
,
1001
0000
0000
0000
,
0000
0000
0000
0000
,
1001
0000
0000
0000
,
0010
0000
0010
0000
,
0100
0000
0000
0000
,
0000
0001
0000
0001
,
1000
0000
0000
0000
,
0100
0000
0000
0000
,
0010
0000
0000
0000
,
1000
0000
0000
0000
,
0001
0000
0001
0000
,
1000
0000
0000
0000
,
0010
0000
0000
0000
,
0100
0000
0000
0000
,
0001
0000
0000
0000
,
1000
0000
1000
0000
,
0001
0000
0000
0000
,
0100
0000
0000
0000
,
0010
0000
0010
0000
,
0010
0000
0010
0000
,
0200
0000
0000
0000
,
0300
0000
0000
0000
,
1001
0000
1000
0000
,
0001
0000
0000
0000
,
0100
0000
0010
0000
,
1000
0000
0000
0000
,
1001
0000
1000
0000
,
0001
0000
0000
0000
,
0100
0000
0100
0000
,
0100
0000
0100
0000
,
0010
0000
0010
0000
,
0000
0000
1000
1000
,
0001
0000
0001
0000
,
0001
0000
0000
0000
,
0100
0000
0000
0000
,
0010
0000
0000
0000
,
1000
0000
1000
0000
,
1000
0000
0000
0001
,
0100
0000
0010
0000
,
1000
0000
0001
0000
,
1001
0000
0000
0000
;

//---------------dance-single - ----------------
#NOTES:
     dance-single:
     :
     Challenge:
     9:
     0.550635,0.887167,0.193125,0.474765,0.885155,479.000000,455.000000,24.000000,59.000000,0.000000,0.000000,0.550635,0.887167,0.193125,0.474765,0.885155,479.000000,455.000000,24.000000,59.000000,0.000000,0.000000:
// measure 0
0000
0000
0000
0000
,  // measure 1
0000
0000
0000
0000
,  // measure 2
0000
0000
0000
0000
,  // measure 3
0000
0000
0000
0000
,  // measure 4
0000
0000
0000
0000
,  // measure 5
1001
0000
0000
0000
0000
0000
0010
0000
0000
0000
0000
0000
1000
0000
0000
0000
0100
0000
0000
0000
0000
0000
2000
0000
0000
0000
0000
0000
0000
0000
0000
0000
0000
0000
0000
0000
3001
0000
0000
0100
0000
0000
0000
0000
0000
0010
0000
0000
,  // measure 6
0000
0000
0000
0000
0000
0000
0100
0000
0000
0000
0000
0000
0001
0000
0000
1000
0000
0000
0001
0000
0000
0000
0000
0000
0010
0000
0000
0000
0100
0000
0000
0000
0000
0000
0100
0000
0010
0000
0000
0000
0000
0000
0001
0000
0000
0000
0000
0000
,  // measure 7
1001
0000
0000
0000
0100
0000
0010
0000
0000
0000
0000
0000
1000
0000
0000
0000
0000
0000
0001
0000
0000
0010
0000
0000
0000
0000
0000
0000
0000
0000
0002
0000
0000
0000
0000
0000
0000
0000
0000
0000
0000
0000
0103
0000
0000
0010
0000
0000
,  // measure 8
1000
0100
1000
0100
1000
0100
1000
0100
1000
0100
1000
0100
1000
0100
1000
0100
1000
0100
0010
0000
0000
0000
0000
0000
,  // measure 9
1001
0000
1000
0010
0000
0100
0000
0000
0010
1000
0000
0100
0000
0000
0010
0002
0000
0000
2003
0000
0000
3020
0000
0000
,  // measure 10
0130
0000
0000
0000
0000
0001
0100
0010
0100
1000
0100
0010
0100
1000
0100
0000
0000
0100
0020
0000
0000
0000
0000
0000
,  // measure 11
1030
0000
0001
0100
0000
0001
0000
0000
1000
0010
0000
1000
0000
0000
0100
2000
0000
0000
3002
0000
0000
0103
0000
0000
,  // measure 12
0012
0000
0000
0000
0000
0000
1003
0000
0100
1000
0000
0001
0000
0000
0100
0010
0000
1000
0010
0000
0100
0001
0000
0000
,  // measure 13
1001
0000
0001
0100
0000
0010
0000
0000
0100
0001
0000
0010
0000
0000
0100
2000
0000
0000
3002
0000
0000
0203
0000
0000
,  // measure 14
0310
0000
0000
0000
0000
1000
0010
0100
0010
0001
0010
0100
0010
0001
0010
0000
0000
0010
0200
0000
0000
0000
0000
0000
,  // measure 15
0301
0000
1000
0010
0000
1000
0100
0000
0000
0010
0000
0001
0010
0000
0010
0100
0000
0100
1000
0000
0000
0001
0000
0100
,  // measure 16
0010
0000
0000
0000
,  // measure 17
1000
0000
0100
0000
0000
0020
0000
0000
0000
0100
0000
0100
0000
0000
0000
0000
0000
0000
0230
0000
0000
0010
0000
0301
,  // measure 18
1000
0000
0010
0000
0000
0200
0000
0000
0000
0010
0000
0010
0000
0000
0000
0000
0000
0000
0320
0000
0000
0100
0030
0001
,  // measure 19
0010
0000
0001
0000
0000
2000
0000
0000
0000
0100
0000
3100
0000
0000
0000
0000
0000
0000
0200
0000
0000
1000
0000
0310
,  // measure 20
1000
0000
0010
0000
0000
0100
0000
0000
0100
0000
0000
0010
0100
0000
0001
0000
0000
0010
0001
0000
1000
0100
0000
0010
,  // measure 21
0001
0000
1000
0001
0000
0000
0101
0000
0001
1000
0000
1000
0010
0000
0010
0100
0000
0100
0110
0000
0000
0000
0000
0000
,  // measure 22
0010
0000
1000
0010
0000
0000
0110
0000
0100
0010
0000
0010
1000
0000
1000
0001
0000
0001
0011
0000
0000
0000
0000
0000
,  // measure 23
0001
0100
0010
1000
0001
0100
0010
1000
0001
0100
0010
1000
0001
0010
0100
1000
0001
0010
0100
1000
0001
0010
0100
1000
,  // measure 24
0001
0100
0001
0100
0010
0100
0010
1000
0010
1000
0001
1000
0001
0010
0001
0010
0100
0010
0100
1000
0100
1000
0001
0010
,  // measure 25
0200
0000
1300
0200
0000
0301
0200
0000
1300
0200
0000
0301
0200
0000
1300
0200
0000
0301
0200
0000
1300
0200
0000
0310
,  // measure 26
0002
0000
0000
0000
0000
0000
1003
0000
0010
0000
0001
0000
0020
0000
0000
0400
0000
0000
0000
0000
0000
0000
0330
0000
,  // measure 27
2001
0000
0000
0000
0000
0000
0000
0000
0000
0000
0000
0000
0000
0000
0000
0000
0000
0000
0000
0000
0000
0000
0000
0000
0000
0000
0000
0000
0000
0000
0000
0000
0000
0000
0000
0000
0000
0000
0000
0000
0000
0000
0000
0000
0000
0000
0000
0000
3020
0000
0000
0000
0000
0000
0000
0000
0000
0000
0000
0000
0000
0000
0000
0000
0000
0000
0000
0000
0000
0000
0000
0000
0130
0000
0000
0000
0000
0000
0000
0000
0000
0000
0000
0000
0000
0000
0000
0000
0000
0000
0001
0000
0000
0000
0000
0000
1000
0000
0000
0000
0000
0000
0000
0000
0000
0000
0000
0000
0000
0000
0000
0000
1000
0000
0000
0000
0000
0000
0000
0000
0000
0000
0000
0000
0000
0000
0000
0000
0000
0000
0000
0000
0000
0000
0000
0000
1000
0000
0000
0000
0000
0000
0000
0000
0000
0000
0000
0000
0000
0000
0000
0000
0000
0000
0000
0000
0000
0000
0000
0000
1000
0000
0000
0000
0000
0000
0000
0000
0000
0000
0000
0000
0000
0000
0000
0000
0000
0000
0000
0000
0000
0000
0000
0000
1000
0000
0000
0000
0000
0000
0000
0000
,  // measure 28
0020
0000
0000
0000
0000
0130
0010
0000
1000
0000
0000
0100
0120
0000
0000
0000
0000
0000
0032
0000
0000
0000
0000
0000
,  // measure 29
0103
0000
0000
0000
0000
0000
0000
0000
0000
0000
0000
0000
0110
0000
0000
0000
0000
0000
0000
0000
0000
1000
0001
1000
0001
0000
0000
0000
0001
0000
0000
0000
0000
0000
0001
0000
0000
0000
0000
0000
0001
0000
0000
0000
0000
0000
0001
0000
,  // measure 30
0100
0000
0010
2000
0000
0000
3100
0000
0100
0000
1000
0000
0002
0000
0000
0000
0000
0000
1003
0000
0001
1000
0000
0100
,  // measure 31
1200
0000
0000
0000
0000
0000
0000
0000
0000
0000
0000
0000
0000
0000
0000
0000
0000
0000
0000
0000
0000
0000
0000
0000
0010
0000
0000
0000
0000
0000
0000
0000
0000
0000
0000
0000
0000
0000
0000
0000
0000
0000
0000
0000
0000
0000
0000
0000
0010
0000
0000
0000
0000
0000
0000
0000
0000
0000
0000
0000
0000
0000
0000
0000
0000
0000
0000
0000
0000
0000
0000
0000
0310
0000
0000
0000
0000
0000
0000
0000
0000
0000
0000
0000
0000
0000
0000
0000
0000
0000
1000
0000
0000
0000
0000
0000
0001
0000
0000
0000
0000
0000
0000
0000
0000
0000
0000
0000
0000
0000
0000
0000
0001
0000
0000
0000
0000
0000
0000
0000
0000
0000
0000
0000
0000
0000
0000
0000
0000
0000
0000
0000
0000
0000
0000
0000
0001
0000
0000
0000
0000
0000
0000
0000
0000
0000
0000
0000
0000
0000
0000
0000
0000
0000
0000
0000
0000
0000
0000
0000
0001
0000
0000
0000
0000
0000
0000
0000
0000
0000
0000
0000
0000
0000
0000
0000
0000
0000
0000
0000
0000
0000
0000
0000
0001
0000
0000
0000
0000
0000
0000
0000
,  // measure 32
0200
0000
0000
0010
0000
0310
0100
0000
0001
0000
0000
0010
0210
0000
0000
0000
0000
0000
1300
0000
0001
1000
0000
0010
,  // measure 33
0200
0301
0021
0130
2000
3010
0102
0013
,  // measure 34
0002
1003
1020
0130
0002
0013
2001
3100
,  // measure 35
0100
0010
0001
0100
0010
1000
0001
0010
0001
0100
0010
1000
0100
1000
0010
0100
0001
0010
0001
0100
0001
0100
0010
0100
,  // measure 36
0010
0000
0000
0000
0000
0000
0000
0000
1000
0000
0000
0000
0000
0000
0000
0000
0001
0000
0000
0000
0000
0000
0000
0000
1000
0000
0000
0000
0000
0000
0000
0000
0001
0000
0000
0000
0000
0000
0000
0000
1000
0000
0000
0000
0000
0000
0000
0000
0001
0000
0000
0000
0000
0000
0000
0000
1000
0000
0000
0000
0000
0000
0000
0000
0001
0000
0000
0000
0000
0000
0000
0000
1000
0000
0000
0000
0000
0000
0000
0000
0001
0000
0000
0000
0000
0000
0000
0000
1000
0000
0000
0000
0000
0000
0000
0000
0010
0000
0000
0000
0000
0000
0100
0000
0000
0000
0000
0000
0010
0000
0000
0000
0000
0000
0100
0000
0000
0000
0000
0000
0010
0000
0000
0000
0000
0000
0100
0000
0000
0000
0000
0000
0010
0000
0000
0000
0000
0000
0100
0000
0000
0000
0000
0000
0001
0000
0000
0000
0000
0000
0000
0000
0000
0000
0000
0000
0000
0000
0000
0000
0000
0000
0000
0000
0000
0000
0000
0000
0000
0000
0000
0000
0000
0000
0000
0000
0000
0000
0000
0000
0000
0000
0000
0000
0000
0000
0000
0000
0000
0000
0000
0000
,  // measure 37
1002
0000
0000
0010
0000
0000
0013
0000
0000
0001
0010
0100
2100
0000
0000
0001
0000
0000
3001
0000
0000
1000
0000
0010
,  // measure 38
0210
0000
0000
0320
0000
0000
0130
0000
0100
0001
0000
0010
0000
0000
0010
0000
0000
0000
0100
0000
0010
0001
0000
0001
,  // measure 39
1000
0000
0001
0100
0000
0000
0010
0000
0000
1000
0000
0001
0000
0000
0000
0020
0000
0000
0000
0000
0000
0030
0000
0000
,  // measure 40
0100
0000
0000
1000
0000
0000
0100
0000
0001
0000
0000
0001
0000
0000
0001
0100
0000
0000
0010
0000
0000
0001
0000
0000
,  // measure 41
0120
0000
0000
1000
0000
0000
1000
0000
0000
1000
0000
0000
0230
0000
0000
0001
0000
0000
0001
0000
0000
0301
0000
1000
,  // measure 42
1002
0000
0000
2003
0000
0000
3001
0000
0001
0010
0000
0100
0000
0000
0100
0000
0000
0000
0010
0000
0001
0010
0000
0010
,  // measure 43
0100
0000
0010
0001
0000
0000
1000
0000
0000
0100
0000
0010
0000
0000
0000
0200
0000
0000
0000
0000
0000
0300
0000
0000
,  // measure 44
0010
0000
0000
0100
0000
0000
1000
0000
0001
1000
0000
1000
0001
0000
0100
0020
0000
0000
0000
0030
0000
0200
0000
0300
,  // measure 45
1001
0000
0000
0000
;
