#VERSION:0.83;
#TITLE:HYDRA;
#SUBTITLE:;
#ARTIST:96;
#TITLETRANSLIT:;
#SUBTITLETRANSLIT:;
#ARTISTTRANSLIT:;
#GENRE:;
#ORIGIN:;
#CREDIT:;
#BANNER:HYDRA.png;
#BACKGROUND:HYDRA-background.png;
#PREVIEWVID:;
#JACKET:HYDRA-jacket.png;
#CDIMAGE:;
#DISCIMAGE:;
#LYRICSPATH:;
#CDTITLE:;
#MUSIC:HYDRA.ogg;
#OFFSET:0.000000;
#SAMPLESTART:22.514874;
#SAMPLELENGTH:13.862816;
#SELECTABLE:YES;
#BPMS:0.000=138.500,
36.000=277.000;
#STOPS:;
#DELAYS:;
#WARPS:;
#TIMESIGNATURES:0.000=4=4;
#TICKCOUNTS:0.000=4;
#COMBOS:0.000=1;
#SPEEDS:0.000=1.000=0.000=0;
#SCROLLS:0.000=1.000;
#FAKES:;
#LABELS:0.000=Song Start;
#BGCHANGES:;
#KEYSOUNDS:;
#ATTACKS:
;

//---------------dance-single - ----------------
#NOTEDATA:;
#CHARTNAME:;
#STEPSTYPE:dance-single;
#DESCRIPTION:;
#CHARTSTYLE:;
#DIFFICULTY:Hard;
#METER:9;
#RADARVALUES:0.698245,0.967730,0.271020,0.523350,0.018691,523.000000,494.000000,29.000000,56.000000,0.000000,0.000000,0.000000,0.000000,0.000000,0.698245,0.967730,0.271020,0.523350,0.018691,523.000000,494.000000,29.000000,56.000000,0.000000,0.000000,0.000000,0.000000,0.000000;
#CREDIT:;
#NOTES:
0000
0000
0000
0000
,
0000
0000
0000
0000
,
0000
0000
0000
0000
,
0000
0000
0000
0000
,
0000
0000
0000
0000
,
0101
0101
0101
0101
,
1001
1001
1001
1001
,
1010
1010
1010
1010
,
1000
0000
0001
0100
0000
0010
1000
0000
0100
0010
0000
0100
2000
0000
0000
0000
,
3001
0000
1000
0010
0000
1000
0001
0000
,
1000
0100
0000
1000
0001
0000
0010
0000
,
0100
0000
0010
0001
0000
0010
1000
0000
,
0010
0100
0000
0010
0001
0000
0010
0000
,
0100
0000
1000
0010
0000
1000
0100
0000
,
1000
0001
0000
1000
0010
0000
0100
0000
,
0001
0000
0010
0100
0000
0010
0001
0000
,
0100
0010
0000
1000
0010
0000
1000
0000
,
0001
0000
1000
0100
0000
0010
0001
0000
,
0001
0100
0000
0010
1000
0000
0001
0000
,
0010
0000
0001
0010
0000
0100
1000
0000
,
1000
0010
0000
0100
0001
0000
1000
0000
,
0100
0000
0010
0100
0000
0100
1000
0000
,
1000
0010
0000
0010
0100
0000
0001
0000
,
0010
0000
0001
0100
0000
0010
1000
0000
,
1000
0001
0000
0001
0020
0000
0000
0000
,
0031
0000
1000
0010
1000
0000
0001
0000
,
0010
0001
0010
0000
0001
0000
1000
0010
,
1000
0000
0001
0100
0001
0000
0100
0010
,
0100
0000
0001
1000
0001
0000
1000
0000
,
0100
0000
0010
0100
0010
0000
0100
0000
,
1000
0100
1000
0000
0100
0000
1000
0001
,
1000
0000
0001
0100
0001
0000
0100
0001
,
1000
0100
0010
0100
1000
0000
0001
0000
,
1000
0000
0001
0100
0010
0000
1000
0000
,
0010
1000
0100
0000
0010
0000
0001
0100
,
0010
0000
0100
0010
1000
0000
0001
1000
,
0010
0000
1000
0010
0100
0000
0001
0000
,
0010
0000
0001
0010
0100
0000
1000
0000
,
1000
0100
0010
0000
0001
0000
0001
0010
,
0100
0000
1000
0100
0010
0000
0001
0000
,
2002
0000
0000
0000
0000
0000
0000
3003
,
0002
0000
0103
0010
2000
0000
3100
0000
,
0002
0000
0000
0103
0000
0000
0020
0000
,
0230
0000
0000
1300
0000
0000
0200
0000
,
0320
0000
0000
0031
0000
0000
2000
0000
,
3002
0000
1003
0001
0200
0000
0320
0000
,
2030
0000
0000
3010
0000
0000
0100
0000
,
0010
0100
0010
0100
0001
1000
0001
1000
,
0001
0010
0100
1000
,
0001
0000
1000
0001
0200
0000
0301
0000
,
0020
0000
0000
0032
0000
0000
1003
0000
,
0021
0000
0000
0130
0000
0000
1000
0000
,
2100
0000
0000
3010
0000
0000
0100
0000
,
0001
0000
1000
0100
0001
0000
0100
0000
,
0020
0000
0000
0031
0000
0000
1000
0000
,
2002
0000
0000
0000
,
0000
0000
0000
0000
3003
0000
0001
1000
,
0100
0000
0010
0001
0000
0001
1000
0000
,
0020
1030
0200
0310
,
0002
1003
0001
0100
,
0020
0000
0000
0000
0000
0000
0130
0010
,
1000
0000
0010
1000
0000
0100
0001
0000
,
2000
3010
0200
0301
,
1020
0000
0230
0000
,
0002
0000
0000
0000
0303
0000
0001
1000
,
0020
0000
0130
0001
0000
0010
0100
0000
,
2000
3100
0020
0130
,
0022
0000
0000
0033
2200
0000
0000
3300
,
2002
0000
0000
0000
0000
3003
0001
1000
,
0020
0000
0130
0001
0010
0100
0010
0000
,
0200
1300
0020
0031
,
0020
0000
1030
0000
0001
0000
1000
0001
,
0200
0000
0301
0000
0010
0000
0100
1000
,
0010
0000
0100
0001
0100
0000
0010
0100
,
0010
0000
1000
0010
1000
0000
0001
1000
,
0002
0000
0000
0203
0000
0000
2300
0000
,
3002
0000
2003
0000
,
3100
0000
0010
0001
0000
0010
0100
0000
,
0010
1000
0000
0010
0100
0000
1000
0000
,
0010
0000
0001
0010
0000
0010
1000
0000
,
1000
0010
0000
0010
0100
0000
0001
0000
,
1000
0000
0100
0001
0000
0001
0100
0000
,
0100
0010
0000
0010
0001
0000
1000
0000
,
0010
0000
1000
0010
0000
0010
0100
0000
,
0100
0001
0000
0001
1000
0000
0100
0000
,
0010
0001
0010
0001
0010
0001
0010
0001
,
0010
0001
0010
0001
0010
0000
0001
0000
,
1000
0100
1000
0100
1000
0100
1000
0100
,
1000
0100
1000
0100
1000
0000
0001
0000
,
0100
0010
0100
0010
0100
0010
0100
0010
,
0100
0010
0100
0010
0100
0000
0010
0000
,
1000
0000
0001
0100
0000
0010
1000
0000
,
1000
0100
0000
0010
0001
0000
1000
0000
,
0010
0000
1000
0100
0001
0000
1000
0000
,
0001
0010
1000
0000
0010
0000
0100
1000
,
0001
0000
1000
0000
0001
0100
0001
0010
,
0100
1000
0001
1000
0001
0000
1000
0010
,
0001
0000
0010
0000
1000
0100
0001
0000
,
0100
0000
0010
1000
0001
0000
0011
0000
,
1100
1010
2002
3003
,
0001
0000
1000
0001
0010
0000
0100
0000
,
1000
0010
0100
0000
0100
0000
0010
1000
,
0001
0000
0001
0000
0010
1000
0010
0001
,
0100
1000
0100
0010
1000
0000
0001
0010
,
1000
0000
0010
0000
1000
0100
0001
0000
,
0100
0000
0010
0001
0100
0000
0101
0000
,
1010
1100
0011
0000
,
0220
0000
0000
0000
,
0000
0000
0000
0000
0330
0000
1000
0001
,
1000
0000
0000
0000
;

//---------------dance-single - ----------------
#NOTEDATA:;
#CHARTNAME:;
#STEPSTYPE:dance-single;
#DESCRIPTION:;
#CHARTSTYLE:;
#DIFFICULTY:Medium;
#METER:8;
#RADARVALUES:0.471282,0.916797,0.196256,0.056073,0.009346,353.000000,332.000000,21.000000,6.000000,0.000000,0.000000,0.000000,0.000000,0.000000,0.471282,0.916797,0.196256,0.056073,0.009346,353.000000,332.000000,21.000000,6.000000,0.000000,0.000000,0.000000,0.000000,0.000000;
#CREDIT:;
#NOTES:
0000
0000
0000
0000
,
0000
0000
0000
0000
,
0000
0000
0000
0000
,
0000
0000
0000
0000
,
0000
0000
0000
0000
,
1001
1001
1001
1001
,
0110
0110
0110
0110
,
0101
0101
1010
1010
,
1000
0000
0000
0010
0000
0000
1000
0000
0000
0001
0000
0000
0020
0000
0000
0000
,
0130
0000
0000
1000
0000
0000
0010
0000
,
0000
0100
0000
0000
0010
0000
0100
0000
,
0001
0000
0000
1000
0000
0000
0100
0000
,
0000
0001
0000
0000
0100
0000
0010
0000
,
0001
0000
0000
0010
0000
0000
0100
0000
,
0000
1000
0000
0000
0100
0000
1000
0000
,
0010
0000
0000
0100
0000
0000
0001
0000
,
0000
1000
0000
0000
0001
0000
0010
0000
,
0001
0000
0000
0100
0000
0000
0010
0000
,
0000
1000
0000
0000
0010
0000
0100
0000
,
0001
0000
0000
0001
0000
0000
1000
0000
,
0000
0100
0000
0000
1000
0000
0010
0000
,
0100
0000
0000
0100
0000
0000
0001
0000
,
0000
0010
0000
0000
0100
0000
0010
0000
,
0001
0000
0000
0010
0000
0000
0100
0000
,
0000
0010
0000
0000
0001
0000
0000
0000
,
1000
0010
0010
1000
,
0001
0001
1000
0100
,
1000
0010
0100
0001
,
0010
0100
1000
0100
,
1000
0010
0010
1000
,
0001
0001
1000
0100
,
1000
0010
0100
0001
,
0010
0100
1000
0001
,
0100
0010
0010
0100
,
0001
0001
0100
0010
,
0100
0001
0100
0010
,
1000
0010
0100
0001
,
1000
0100
0100
1000
,
0010
0010
1000
0001
,
0100
0001
0010
0100
,
2000
0000
0000
0000
,
3100
0000
0000
0010
0000
0000
0001
0000
,
0010
0000
0000
0100
0000
0000
1000
0000
,
0100
0000
0000
1000
0000
0000
0010
0000
,
0100
0000
0000
0001
0000
0000
1000
0000
,
0100
0000
0000
1000
0000
0000
0010
0000
,
0100
0000
0000
0001
0000
0000
0100
0000
,
0010
0100
0001
1000
,
0010
0010
1000
1000
,
0010
0000
0000
1000
0000
0000
0010
0000
,
0100
0000
0000
0001
0000
0000
0010
0000
,
0100
0000
0000
1000
0000
0000
0100
0000
,
1000
0000
0000
0010
0000
0000
0100
0000
,
0001
0000
0000
1000
0000
0000
0100
0000
,
1000
0000
0000
0010
0000
0000
0100
0000
,
0002
0000
0000
0000
,
0000
0000
0000
1003
,
0100
0000
0000
1000
0000
0000
0010
0000
,
0100
0000
0001
0000
,
0010
0000
0100
1000
,
0001
0000
0000
0001
,
1000
0000
0000
0010
0000
0000
0100
0000
,
0001
0000
1000
0001
,
0100
0000
0001
0000
,
0010
0000
0000
0100
,
1000
0000
0000
0100
0000
0000
1000
0000
,
0010
0000
0100
0001
,
0101
0000
1100
0000
,
1001
0000
0000
0001
,
1000
0000
0000
0010
0000
0000
0100
0000
,
0001
0000
1000
0000
,
0100
0000
0000
1000
,
0001
0000
0000
0001
,
1000
0000
0000
0010
0000
0000
0100
0000
,
0001
0000
0000
0100
0000
0000
0010
0000
,
0110
0000
0000
0101
0000
0000
0001
0000
,
1001
0000
0110
0000
,
1001
0000
0000
1000
0000
0000
0001
0000
,
0000
0100
0000
0000
1000
0000
0100
0000
,
0010
0000
0000
1000
0000
0000
0001
0000
,
0000
0010
0000
0000
0100
0000
0010
0000
,
0001
0000
0000
0010
0000
0000
1000
0000
,
0000
0010
0000
0000
0100
0000
1000
0000
,
0001
0000
0000
0100
0000
0000
1000
0000
,
0000
0100
0000
0000
0010
0000
1000
0000
,
0001
0100
0001
0100
,
0001
0100
0001
0100
,
0010
1000
0010
1000
,
0010
1000
0010
1000
,
0001
0100
0001
0100
,
0001
0100
0001
0100
,
0010
1000
0010
1000
,
0010
1000
0010
1000
,
0001
0100
0100
0010
,
1000
1000
0010
0100
,
0100
0010
0100
0001
,
1000
0001
0010
0100
,
0100
0010
0001
0001
,
0010
0100
0100
0010
,
0001
0010
0200
0000
,
1300
0100
0100
1000
,
0010
0010
1000
0001
,
0001
1000
0100
0010
,
0001
0010
0100
1000
,
1000
0100
0010
0010
,
0100
0001
0001
0100
,
1000
0010
0100
0000
,
2002
0000
0000
0000
,
0000
0000
0000
0000
,
3003
0000
0000
0000
;

//---------------dance-single - ----------------
#NOTEDATA:;
#CHARTNAME:;
#STEPSTYPE:dance-single;
#DESCRIPTION:;
#CHARTSTYLE:;
#DIFFICULTY:Easy;
#METER:5;
#RADARVALUES:0.335104,0.509332,0.112146,0.242984,0.000000,251.000000,239.000000,12.000000,26.000000,0.000000,0.000000,0.000000,0.000000,0.000000,0.335104,0.509332,0.112146,0.242984,0.000000,251.000000,239.000000,12.000000,26.000000,0.000000,0.000000,0.000000,0.000000,0.000000;
#CREDIT:;
#NOTES:
0000
0000
0000
0000
,
0000
0000
0000
0000
,
0000
0000
0000
0000
,
0000
0000
0000
0000
,
0000
0000
0000
0000
,
0001
0001
0001
0001
,
0100
0100
0100
0100
,
0010
0010
0010
0010
,
1000
1000
1000
1000
,
0001
0000
1000
0000
,
0010
0000
0100
0001
,
0100
0000
0010
0000
,
1000
0000
0100
0010
,
0100
0000
0010
0000
,
0001
0000
1000
0001
,
1000
0000
0001
0000
,
0100
0000
0010
0100
,
0001
0000
0100
0000
,
0010
0000
1000
0010
,
1000
0000
0010
0000
,
0100
0000
0001
1000
,
0001
0000
1000
0000
,
0100
0000
1000
0010
,
1000
0000
0010
0000
,
0100
0000
0001
0000
,
1000
0000
0100
0000
,
1000
0000
0010
0000
,
0100
0000
0001
0000
,
0010
0000
0100
0010
,
0001
0000
0010
0000
,
0001
0000
1000
0000
,
0001
0000
0100
0000
,
0010
0100
0001
1000
,
0001
0000
0010
0000
,
0001
0000
0100
0000
,
0010
0000
1000
0000
,
0100
0000
0010
0001
,
1000
0000
0100
0000
,
1000
0000
0010
0000
,
0100
0010
1000
0001
,
0020
0000
0000
0000
,
0230
0000
1300
0000
,
0200
0000
0310
0000
,
0200
0000
0310
0000
,
0200
0000
1300
0000
,
2000
0000
3010
0000
,
2000
0000
3001
0000
,
2002
0000
0000
0000
,
0000
0000
3003
0000
,
0002
0000
0103
0000
,
0002
0000
1003
0000
,
0002
0000
0013
0000
,
0002
0000
1003
0000
,
2000
0000
3001
0000
,
0002
0000
1003
0000
,
0220
0000
0000
0000
,
0000
0000
0330
0000
,
0010
0000
0100
0000
,
0001
0000
1000
0000
,
0100
0000
1000
0010
,
1000
0000
0000
0000
,
0010
0000
0100
0000
,
0001
0000
0010
0100
,
1000
0000
0100
0000
,
2000
0000
0000
3100
,
1000
0000
0010
0000
,
0100
0000
0001
0100
,
0110
0000
1001
0000
,
0110
0000
0000
0010
,
0100
0000
0001
0000
,
1000
0000
0100
0000
,
2000
0000
0000
0000
,
3002
0000
0000
0103
,
0001
0000
0100
0000
,
0010
0000
1000
0000
,
1001
0000
0110
0000
,
0101
0000
1010
0000
,
2002
0000
0000
0000
,
0000
0000
0000
3003
,
1001
0000
0000
0000
,
0001
0100
0010
1000
,
0001
0000
0000
0000
,
1000
0100
0010
0001
,
1000
0000
0000
0000
,
0001
0010
0100
1000
,
0001
0000
0000
0000
,
1000
1000
0001
0100
,
0010
0000
0000
0000
,
0100
0100
0010
1000
,
0001
0000
0000
0000
,
1000
1000
0100
1000
,
0010
0000
0000
0000
,
2000
0000
3002
0000
,
0103
0010
1000
0000
,
0010
0100
0000
0010
,
0100
0000
0010
0100
,
0001
1000
0100
1000
,
0010
0000
0100
0010
,
0000
0100
0001
0100
,
0010
1000
0001
0000
,
1000
0100
0010
0000
,
0010
0001
0000
0001
,
0100
0010
0100
0001
,
1000
0001
0100
0001
,
0100
0000
0100
0010
,
0000
0010
0100
0001
,
1000
0100
0010
0000
,
2002
0000
0000
0000
,
0000
0000
0000
0000
,
3003
0000
0000
0000
;

//---------------dance-single - ----------------
#NOTEDATA:;
#CHARTNAME:;
#STEPSTYPE:dance-single;
#DESCRIPTION:;
#CHARTSTYLE:;
#DIFFICULTY:Beginner;
#METER:3;
#RADARVALUES:0.213612,0.407465,0.121492,0.000000,0.000000,160.000000,147.000000,13.000000,0.000000,0.000000,0.000000,0.000000,0.000000,0.000000,0.213612,0.407465,0.121492,0.000000,0.000000,160.000000,147.000000,13.000000,0.000000,0.000000,0.000000,0.000000,0.000000,0.000000;
#CREDIT:;
#NOTES:
0000
0000
0000
0000
,
0000
0000
0000
0000
,
0000
0000
0000
0000
,
0000
0000
0000
0000
,
0000
0000
0000
0000
,
1000
0000
1000
0000
,
0001
0000
0001
0000
,
0100
0000
0010
0000
,
1001
0000
0000
0000
,
1000
0000
0000
0000
,
0001
0000
0001
0000
,
0001
0000
0000
0000
,
1000
0000
1000
0000
,
0100
0000
0000
0000
,
0010
0000
0010
0000
,
0100
0000
0000
0000
,
0010
0000
0100
0000
,
0010
0000
0000
0000
,
1000
0000
1000
0000
,
0001
0000
0000
0000
,
0100
0000
0100
0000
,
0010
0000
0000
0000
,
0100
0000
0100
0000
,
0001
0000
0000
0000
,
1000
0000
0000
0000
,
0010
0000
0000
0000
,
0100
0000
0000
0000
,
0010
0000
0010
0000
,
0100
0000
0100
0000
,
0001
0000
0000
0000
,
1000
0000
0000
0000
,
0010
0000
0100
0000
,
0010
0000
0010
0000
,
0100
0000
0000
0000
,
0010
0000
0000
0000
,
1000
0000
1000
0000
,
0001
0000
0001
0000
,
0100
0000
0000
0000
,
0010
0000
0000
0000
,
0100
0000
0010
0000
,
1001
0000
0000
0000
,
1000
0000
0000
0000
,
0001
0000
0000
0000
,
0100
0000
0000
0000
,
0010
0000
0000
0000
,
1000
0000
0000
0000
,
0001
0000
1000
0000
,
1001
0000
0000
0000
,
0000
0000
0000
0000
,
0100
0000
0000
0000
,
0010
0000
0000
0000
,
1001
0000
0000
0000
,
0110
0000
0000
0000
,
1001
0000
0000
0000
,
0001
0000
1000
0000
,
0110
0000
0000
0000
,
0000
0000
0000
0100
,
0010
0000
0000
0000
,
0100
0000
0000
0000
,
0010
0000
0010
0000
,
1000
0000
0000
0000
,
0001
0000
0000
0000
,
1000
0000
0100
0000
,
1000
0000
1000
0000
,
1000
0000
0000
0000
,
0001
0000
0000
0000
,
0100
0000
0010
0000
,
0100
0000
0100
0000
,
0100
0000
0000
0000
,
0010
0000
0000
0000
,
0100
0000
0000
0000
,
0001
0000
0000
0000
,
1000
0000
0000
0000
,
0001
0000
0000
0000
,
1000
0000
0000
0000
,
0110
0000
0000
0000
,
1001
0000
0110
0000
,
1001
0000
0000
0000
,
0001
0000
0001
0000
,
0100
0000
0000
0000
,
0010
0000
0010
0000
,
1000
0000
0000
0000
,
0100
0000
0100
0000
,
0010
0000
0000
0000
,
0100
0000
0100
0000
,
1000
0000
1000
0000
,
1000
0000
1000
0000
,
0001
0000
0001
0000
,
0001
0000
0001
0000
,
0100
0000
0100
0000
,
0100
0000
0100
0000
,
0010
0000
0010
0000
,
0010
0000
0010
0000
,
0100
0000
0000
0001
,
0000
0000
1000
0000
,
0001
0000
0100
0000
,
0001
0000
1000
0000
,
0000
0000
0010
0000
,
0000
0100
0000
0000
,
0010
0000
1000
0000
,
0001
0000
0000
0000
,
1000
0000
0000
0001
,
0000
0000
0100
0000
,
0100
0000
0010
0000
,
0000
0000
0100
0000
,
0000
0000
0010
0000
,
0100
0000
0010
0000
,
1001
0000
0000
0000
,
0000
0000
0000
0000
,
0110
0000
0000
0000
;

//---------------dance-single - ----------------
#NOTEDATA:;
#CHARTNAME:;
#STEPSTYPE:dance-single;
#DESCRIPTION:;
#CHARTSTYLE:;
#DIFFICULTY:Challenge;
#METER:11;
#RADARVALUES:0.826412,1.018663,0.373821,0.532695,0.102801,619.000000,579.000000,40.000000,57.000000,0.000000,0.000000,0.000000,0.000000,0.000000,0.826412,1.018663,0.373821,0.532695,0.102801,619.000000,579.000000,40.000000,57.000000,0.000000,0.000000,0.000000,0.000000,0.000000;
#CREDIT:;
#NOTES:
// measure 0
0000
0000
0000
0000
,  // measure 1
0000
0000
0000
0000
,  // measure 2
0000
0000
0000
0000
,  // measure 3
0000
0000
0000
0000
,  // measure 4
0000
0000
0000
0000
,  // measure 5
0011
0000
0000
0100
0000
0000
1010
0000
0000
0100
0000
0000
0001
0000
1000
0000
,  // measure 6
1100
0000
0000
0010
0000
0000
0101
0000
0000
0010
0000
0000
0100
0000
0001
0000
,  // measure 7
0011
0000
0000
0100
0000
0000
1100
0000
0000
1000
0000
0000
1000
0000
0010
0000
,  // measure 8
0101
0000
0001
0100
0000
0100
1000
0000
1000
0010
0000
0001
0020
0000
0000
0000
,  // measure 9
0031
0100
0001
1000
0001
0010
0001
1000
,  // measure 10
0001
0100
0001
1000
0001
0000
0010
0000
,  // measure 11
0100
1000
0100
0010
0100
1000
0100
0010
,  // measure 12
0100
1000
0100
0010
0100
0000
1000
0000
,  // measure 13
0010
1000
0010
0100
0010
1000
0010
0100
,  // measure 14
0010
1000
0010
0100
0001
0000
0010
0000
,  // measure 15
0100
0010
0001
0100
0010
0100
0001
0010
,  // measure 16
0100
0010
0001
1000
0001
0000
1001
0000
,  // measure 17
1000
0010
1000
0001
1000
0100
1000
0001
,  // measure 18
1000
0010
1000
0001
1000
0000
0100
0000
,  // measure 19
0010
0001
0010
0100
0010
0001
0010
0100
,  // measure 20
0010
0001
0010
0100
0010
0000
0001
0000
,  // measure 21
0100
0001
0100
0010
0100
0001
0100
0010
,  // measure 22
0100
0001
0100
0010
1000
0000
0100
0000
,  // measure 23
0010
0100
1000
0010
0100
0010
1000
0100
,  // measure 24
0010
0100
1000
0001
0020
0000
0000
0000
,  // measure 25
0031
0000
0001
0010
0100
0000
1000
0000
,  // measure 26
0100
0010
0001
0000
1000
0000
0001
0010
,  // measure 27
0100
0000
0010
0100
1000
0000
1000
0100
,  // measure 28
0010
0000
0100
0010
0001
0000
1000
0000
,  // measure 29
0100
0000
0010
0100
1000
0000
0100
0000
,  // measure 30
0010
0100
1000
0000
0100
0000
1000
0100
,  // measure 31
0010
0000
0100
0010
0001
0000
0010
0100
,  // measure 32
1000
0100
0001
0100
0020
0000
0032
0000
,  // measure 33
0103
0000
0010
1000
0100
0000
0010
0000
,  // measure 34
0001
0100
0010
0000
1000
0000
0001
0100
,  // measure 35
0001
0000
0100
0010
0100
0000
0010
1000
,  // measure 36
0010
0000
1000
0100
1000
0000
0100
0000
,  // measure 37
0010
0000
0001
0100
0010
0000
0100
0000
,  // measure 38
0001
0100
0010
0000
1000
0000
0001
0100
,  // measure 39
1000
0000
1000
0100
0010
0000
1000
0000
,  // measure 40
0002
0000
0103
0010
0100
0010
0100
0010
,  // measure 41
0100
0000
0000
0001
0100
0001
0020
0000
0000
0130
0000
0000
,  // measure 42
0020
0000
0031
0200
0000
0310
2000
0000
,  // measure 43
3200
0000
0310
0002
0000
0103
2000
0000
,  // measure 44
3020
0000
0130
0002
0000
0013
0200
0000
,  // measure 45
1300
0000
0000
0001
1000
0100
1000
0000
0000
0020
0000
0000
,  // measure 46
0230
0000
0301
0020
0000
0130
2000
0000
,  // measure 47
3001
0100
1000
0100
0001
0010
1000
0010
,  // measure 48
0021
0130
2100
3010
,  // measure 49
0100
0000
0000
0001
1000
0001
0020
0000
0000
0230
0000
0000
,  // measure 50
2300
0000
3010
0200
0000
0301
0020
0030
,  // measure 51
0210
0000
0000
1300
0000
0000
0100
0000
,  // measure 52
0120
0000
0000
0031
0000
0000
0010
0000
,  // measure 53
0110
0000
0000
0100
0010
0001
1000
0000
0000
0020
0000
0000
,  // measure 54
2030
0000
3001
0200
0000
0310
2000
0000
,  // measure 55
0002
0000
0000
0000
,  // measure 56
0000
0000
0000
0000
3003
0000
0001
0100
,  // measure 57
1000
0000
1000
0100
0000
0100
0010
0000
,  // measure 58
2000
0000
3001
0010
,  // measure 59
0200
0000
0310
0001
,  // measure 60
2000
0000
0000
0000
0000
0000
3001
0100
,  // measure 61
0010
0000
0100
0001
0000
0010
0100
0000
,  // measure 62
2000
0000
3001
0010
,  // measure 63
2100
0000
3002
0000
,  // measure 64
0200
0000
0000
0000
0303
0000
0001
1000
,  // measure 65
0010
0000
0100
0001
0000
0001
1000
0000
,  // measure 66
0200
0000
0320
0230
,  // measure 67
2000
3300
0012
0003
,  // measure 68
1002
0000
0000
0000
0000
0000
1003
0001
,  // measure 69
0010
0000
0000
0100
1000
0100
1000
0000
0000
0001
0000
0000
,  // measure 70
0200
0000
0310
1000
,  // measure 71
0001
0000
1000
0000
0100
0000
0010
0001
,  // measure 72
0100
0000
0010
0000
1000
0000
0001
1000
,  // measure 73
0100
0010
0100
0000
0010
0001
0010
0000
,  // measure 74
0001
0100
0001
0000
0100
0010
0100
0000
,  // measure 75
0210
0000
0300
2010
0000
3000
0201
0300
,  // measure 76
0012
0000
0000
0003
2100
0000
0000
0000
,  // measure 77
3001
1000
0100
1000
0010
0100
0001
0010
,  // measure 78
0001
0100
0010
1000
0001
0010
0100
0000
,  // measure 79
1000
0010
0100
0001
0010
0001
0100
0010
,  // measure 80
1000
0100
1000
0010
0100
0001
1000
0000
,  // measure 81
0100
0010
0001
0100
0010
1000
0001
0010
,  // measure 82
0001
1000
0100
0010
0001
1000
0010
0000
,  // measure 83
0100
0001
0010
0001
1000
0100
0010
0001
,  // measure 84
0100
0010
1000
0001
0010
0100
1000
0000
,  // measure 85
0001
0100
1000
0100
0001
0100
1000
0100
,  // measure 86
0001
0100
1000
0100
0001
0100
1000
0100
,  // measure 87
0010
0001
0010
1000
0010
0001
0010
1000
,  // measure 88
0010
0001
0010
1000
0010
0001
0010
1000
,  // measure 89
0100
0001
0100
1000
0100
0001
0100
1000
,  // measure 90
0100
0001
0100
1000
0100
0001
0100
1000
,  // measure 91
0010
0001
0010
1000
0010
0001
0010
1000
,  // measure 92
0010
0001
0010
1000
0020
0000
0000
0000
,  // measure 93
1030
0000
0001
0100
0010
0000
0110
0000
,  // measure 94
1000
0010
0001
0000
0101
0000
0010
1000
,  // measure 95
0100
0000
0011
0000
0001
0010
0100
0010
,  // measure 96
0001
1000
0100
0010
0100
0000
1000
0010
,  // measure 97
0001
0000
0110
0000
0100
0001
0010
0000
,  // measure 98
0110
0000
1000
0100
0001
0000
0101
0000
,  // measure 99
0110
0000
1100
0000
2002
0000
0000
3003
,  // measure 100
1001
0000
0001
1000
0100
0000
0110
0000
,  // measure 101
0010
0001
0100
0000
0110
0000
1000
0100
,  // measure 102
0001
0000
0101
0000
0010
0001
0010
1000
,  // measure 103
0010
0100
1000
0010
0100
0000
0001
0010
,  // measure 104
1000
0000
1010
0000
0100
1000
0010
0000
,  // measure 105
1001
0000
0001
1000
0100
0000
0011
0000
,  // measure 106
1100
0101
2010
0000
,  // measure 107
3002
0000
0000
0000
,  // measure 108
0000
0000
0000
0000
0000
0000
0000
0000
0000
1003
0001
1000
,  // measure 109
0100
0000
0000
0000
;
