#VERSION:0.83;
#TITLE:HADES;
#SUBTITLE:;
#ARTIST:Massive New Krew;
#TITLETRANSLIT:;
#SUBTITLETRANSLIT:;
#ARTISTTRANSLIT:;
#GENRE:;
#ORIGIN:;
#CREDIT:;
#BANNER:HADES.png;
#BACKGROUND:HADES-bg.png;
#PREVIEWVID:;
#JACKET:HADES-jacket.png;
#CDIMAGE:;
#DISCIMAGE:;
#LYRICSPATH:;
#CDTITLE:;
#MUSIC:HADES.mp3;
#OFFSET:-2.600999;
#SAMPLESTART:83.083138;
#SAMPLELENGTH:12.387093;
#SELECTABLE:YES;
#BPMS:0.000=155.000,
263.000=310.000,
327.000=155.000;
#STOPS:52.000=1.161,
114.500=0.774,
199.000=1.161,
225.000=0.194,
226.500=0.194;
#DELAYS:;
#WARPS:;
#TIMESIGNATURES:0.000=4=4;
#TICKCOUNTS:0.000=4;
#COMBOS:0.000=1;
#SPEEDS:0.000=1.000=0.000=0;
#SCROLLS:0.000=1.000;
#FAKES:;
#LABELS:0.000=Song Start;
#BGCHANGES:;
#KEYSOUNDS:;
#ATTACKS:
;

//---------------dance-single - ----------------
#NOTEDATA:;
#CHARTNAME:;
#STEPSTYPE:dance-single;
#DESCRIPTION:;
#CHARTSTYLE:;
#DIFFICULTY:Hard;
#METER:9;
#RADARVALUES:0.507380,0.691305,0.261378,0.115314,0.253690,462.000000,428.000000,34.000000,15.000000,0.000000,0.000000,0.000000,0.000000,0.000000,0.507380,0.691305,0.261378,0.115314,0.253690,462.000000,428.000000,34.000000,15.000000,0.000000,0.000000,0.000000,0.000000,0.000000;
#CREDIT:;
#NOTES:
0000
0000
0000
0000
,
0000
0000
0000
0000
,
0000
0000
0000
0000
,
0000
0000
0000
0000
,
0001
0000
0000
0100
0000
0000
0001
0000
1000
0000
0000
0100
0000
0000
0010
0000
,
0100
0000
0000
1000
0000
0000
0010
0000
0000
0000
0100
0000
0010
0000
1000
0000
,
1100
0000
0000
0011
0000
0000
0101
0000
1001
0000
0000
0000
0000
0000
0000
0000
,
1000
0000
0010
1000
0000
1000
0001
0000
0000
0000
0000
0000
0000
0000
0000
0000
,
1100
0100
0110
0010
,
0011
0001
1001
1000
,
0001
0100
0010
1000
0001
0100
0010
1000
,
0001
1000
0010
0100
0001
1000
0010
0100
0010
0100
0010
0100
,
0000
0010
0000
1000
0000
0001
0000
0010
,
0000
1100
1000
0010
,
1000
0001
0010
0100
,
0010
0001
0100
0000
0010
0000
1000
0000
,
0001
0100
2020
0000
,
3030
0000
0000
0000
1000
0010
0000
0100
0001
0000
0000
0000
1000
0000
0000
0000
,
0100
0000
0000
0000
1000
0000
0000
0000
0010
0000
0000
0000
0100
0000
0001
1000
,
0001
0000
0100
0010
0100
0000
0001
0100
0010
0000
1000
0000
0000
0000
1000
0000
,
0000
0000
1000
0000
0001
0000
0000
0010
0000
0000
0200
0000
0000
0000
0000
0000
,
0000
0300
0000
0000
,
0000
0000
0000
0000
0000
0000
0001
1000
,
0001
0010
0100
1000
0100
1000
0001
0100
,
0001
1000
0000
0001
0010
0001
1000
0010
,
0100
0010
1000
0001
1000
0001
0100
0010
,
1000
0001
0000
1000
0001
0010
0100
0100
,
0100
0000
0010
0001
0100
0001
1000
0010
,
1000
0000
0100
0000
0000
0000
1000
0000
0001
0000
1000
0000
0001
0000
0000
0100
,
0010
0100
0010
0000
0000
0100
0000
0000
0001
0000
0000
0000
1000
0000
0001
0010
,
0000
0100
2000
0000
0000
0000
0000
0000
0000
0000
0000
0000
3010
0000
0000
0000
,
0000
0000
0000
1001
,
0110
1001
0110
2000
,
3000
0000
0001
0100
0020
0000
0000
0000
0030
0000
0100
0010
2000
0000
0000
0000
,
0000
0000
0000
0000
0000
0000
0000
0000
3000
0000
0001
1000
0100
0000
0000
1000
,
0000
0000
0010
0100
0002
0000
0000
0000
0003
0000
1000
0000
0001
0000
0000
0010
,
0000
0000
0001
0000
0200
0000
0000
0000
0300
0000
0000
0000
0010
0000
0000
1000
,
0000
0000
0010
0000
0001
0000
0000
0010
0000
0000
0100
0000
0001
0000
0000
0010
,
0000
0000
0002
0000
0000
0000
0000
0000
0003
0000
1000
0001
0010
0000
0000
0100
,
0000
0000
0010
0000
0001
0000
0000
1000
0000
0000
0010
0000
0100
0000
0001
0100
,
0000
0010
0200
0000
0000
0000
0000
0000
0300
0000
0000
0000
1001
0000
0000
0000
,
0001
0010
0001
1000
,
0001
1000
0001
1001
,
0001
0010
0001
1000
,
0001
0000
1000
0010
0100
0000
1001
0001
,
1000
0001
1000
0001
1000
0001
1001
0001
,
1000
0001
1000
0001
1000
0001
1001
0001
,
1000
0001
1001
1000
0001
1000
1001
0000
,
0110
0000
0000
0001
0100
0010
1000
0001
0010
0011
0000
0000
,
1010
0011
1010
0000
,
1000
0000
0001
0000
1000
0000
0000
0000
0010
0000
0000
0000
0100
0000
0001
0100
,
0001
0000
0000
0100
0000
0000
0010
0000
0000
0000
1000
0000
0001
0010
0001
0010
,
0001
1000
0010
1000
,
0100
0000
0000
0000
0010
0000
0000
0000
0100
1000
0100
1000
0100
0000
1000
0001
,
1000
0001
0100
0000
0010
0000
1000
0000
,
0001
0000
0000
0010
0000
0000
0002
0000
0000
0000
1003
0000
0001
0000
1000
0010
,
1000
0000
0100
0000
0110
0000
0010
0000
0001
0000
0101
0000
0001
0000
0000
1000
,
0000
0200
0000
0000
0300
0000
1000
0001
,
0100
0000
0000
0000
0010
0000
0000
0000
1000
0000
0100
0010
0001
0000
0010
0000
,
0001
0000
1000
0000
0000
0000
0010
0000
1000
0010
1000
0100
1000
0000
0000
0000
,
0010
0100
0001
0010
,
0001
0000
0000
0000
1000
0001
0100
0010
1000
0000
0010
0100
0001
0000
1000
0000
,
0100
0000
0000
0000
1000
0000
0000
0000
0001
0000
0000
0000
0100
0000
0000
0010
,
0000
0000
1000
0000
0100
0000
0001
0000
0100
0000
0010
0001
0100
0000
0000
0110
,
0000
0000
1000
0000
0001
0000
0000
1001
0000
0000
0001
0000
0101
0000
0000
1010
,
0000
2200
0000
0000
3300
0000
1000
0000
,
0010
0100
0001
0010
,
0001
0000
1000
0000
0010
0000
0100
0010
,
0100
0010
1000
0001
1000
0001
0010
0000
,
0010
0000
0010
0000
0000
0000
0001
0100
,
0010
0100
0000
0001
1000
0000
0100
0000
,
0010
0100
1000
0000
0001
0000
0100
0010
,
1000
0001
0100
0010
1000
0001
0010
0000
,
0001
1000
0100
0000
0000
0000
0001
0000
,
0010
0001
1000
0100
,
1000
0000
0010
0000
0100
0001
0010
0000
,
0100
0010
0001
1000
,
0010
0100
0001
0000
0010
0100
1000
0000
,
0001
0100
0001
0000
0100
0010
0100
0000
,
0010
1000
0010
0000
0000
0000
1000
0000
,
0001
0000
0000
0010
0000
0000
0000
0000
0000
0100
0000
0000
1000
0000
0000
0000
0000
0000
0010
0000
0000
0000
0100
0000
,
0000
0001
0000
1000
0000
0000
0000
0000
0000
0110
0000
0000
;

//---------------dance-single - ----------------
#NOTEDATA:;
#CHARTNAME:;
#STEPSTYPE:dance-single;
#DESCRIPTION:;
#CHARTSTYLE:;
#DIFFICULTY:Medium;
#METER:7;
#RADARVALUES:0.389870,0.565613,0.284440,0.107626,0.107626,355.000000,318.000000,37.000000,14.000000,0.000000,0.000000,0.000000,0.000000,0.000000,0.389870,0.565613,0.284440,0.107626,0.107626,355.000000,318.000000,37.000000,14.000000,0.000000,0.000000,0.000000,0.000000,0.000000;
#CREDIT:;
#NOTES:
0000
0000
0000
0000
,
0000
0000
0000
0000
,
0000
0000
0000
0000
,
0000
0000
0000
0000
,
1000
0001
0100
0001
,
0010
0000
0000
0001
0000
0000
0010
0000
0000
0000
0001
0000
1000
0000
0010
0000
,
0100
0000
0000
0001
0000
0000
1000
0000
1100
0000
0000
0000
0000
0000
0000
0000
,
1000
0000
0000
0001
0000
0000
0200
0000
0000
0000
0000
0000
0300
0000
0000
0000
,
0110
1000
1001
0001
,
0011
0010
1100
0100
,
1001
0001
0011
0100
,
0101
1010
1100
0011
,
1001
0000
0000
0000
,
0000
0001
0010
0001
,
1000
0100
1000
0010
,
0100
0010
1000
0000
0010
0000
0100
0000
,
0001
1000
0202
0000
,
0303
0000
0100
0010
1000
0000
0001
0000
,
0010
0000
0001
0000
0100
0000
0010
1000
,
0010
0100
0010
0000
1000
0001
0000
1000
,
0000
0000
0001
0000
0010
0000
0000
0100
0000
0000
0020
0000
0000
0000
0000
0000
,
0000
0030
0000
0000
,
0000
0000
0000
0000
0000
0000
0001
0010
,
0100
1000
0001
0000
1000
0000
0001
0100
,
0001
0100
0000
0001
0010
0000
0100
0000
,
1001
0000
0010
0000
0100
0000
0010
1000
,
0001
0100
0000
0001
1000
0000
0001
0010
,
0001
0000
0010
0000
0001
0000
0100
0010
,
1000
0000
0100
0000
0000
0000
1000
0000
0010
0000
0100
0000
0010
0000
0000
1000
,
0000
0000
0001
0000
0000
0010
0000
0000
0001
0000
0000
0000
1000
0000
0000
0001
,
0000
0200
0000
0000
0000
0000
0310
0000
,
0000
0000
0000
0101
,
1010
0101
1010
1002
,
0003
1000
0020
0000
0030
1000
0002
0000
,
0000
0000
0000
0003
0000
1000
0100
0000
,
1000
0010
0000
0100
,
0010
1000
0000
0100
,
0010
0001
0010
0001
,
0100
0010
0000
0100
,
0001
0000
0000
0000
0010
0000
0000
0000
0001
0000
0000
0000
1000
0000
0000
0001
,
0000
0200
0000
0000
0300
0000
1001
0000
,
0001
0001
0001
1000
,
0001
0100
0010
1001
,
0001
0001
0001
0100
,
0010
0000
1000
0010
0100
0000
1001
0001
,
1000
0000
0001
0000
0100
0000
1001
0001
,
1000
0000
0001
0000
0100
0000
1001
0001
,
1000
0000
1001
1000
0001
0000
1001
0000
,
0110
1001
0110
1010
,
0101
1010
0101
0000
,
1000
0000
0000
0010
0000
0000
1000
0000
0100
0000
0000
1000
0000
0000
0010
0000
,
0100
0000
0000
0001
0000
0000
0020
0000
0000
0000
0000
0000
0030
0000
0100
0000
,
0010
0000
0000
0001
0000
0000
0010
0000
0200
0000
0000
0000
0300
0000
0010
0000
,
0001
0000
0000
1000
0000
0000
0010
0000
2000
0000
0000
0000
3000
0000
0000
0000
,
0010
0000
0000
0100
0000
0000
0010
0000
1000
0000
0000
0001
0000
0000
0010
0000
,
0100
0000
0000
0010
0000
0000
0001
0000
0000
0000
0000
0000
0000
0000
0010
0000
,
0001
0000
0100
0000
0010
0000
0100
0000
0010
0000
1000
0000
0001
0000
0000
1000
,
0000
0020
0000
0000
0030
0000
1000
0010
,
1000
0000
0000
0000
0010
0000
0000
0000
0100
0000
0000
0000
0001
0000
0000
1000
,
0000
0000
0010
0000
0000
0000
1000
0000
0010
0000
0100
0000
0001
0000
0000
0010
,
0000
0000
0100
0000
1000
0000
0000
0000
0001
0000
0000
0000
1000
0000
0000
0010
,
0000
0000
0100
0000
0001
0000
0000
0000
0010
0000
0000
0000
0100
0000
0000
1000
,
0000
0000
0010
0000
1000
0000
0000
0001
0000
0000
0010
0000
0100
0000
0000
0010
,
0000
0000
0002
0000
0000
0000
0000
0000
0003
0000
1000
0000
0010
0000
0000
0100
,
0000
0000
0001
0000
0100
0000
0000
0010
0000
0000
1000
0000
1001
0000
0000
0110
,
0000
1001
0000
0000
0000
0000
1000
0000
,
0010
0100
0001
0010
,
0001
1000
0010
1000
,
0001
0010
0100
1000
,
1000
1000
0000
0100
,
1000
0100
1000
0010
,
0100
0001
0010
0100
,
0010
0001
1000
0010
,
0100
0001
0000
1000
,
0001
0100
0000
0010
,
1000
0100
0000
0010
,
0001
0100
0000
0010
,
1000
0001
0000
1000
,
0001
0100
0010
0100
,
0001
0010
0001
1000
,
0001
0000
0000
0100
0000
0000
0000
0000
0000
0010
0000
1000
,
0000
0001
0000
1000
0000
0000
0000
0000
0000
0110
0000
0000
;

//---------------dance-single - ----------------
#NOTEDATA:;
#CHARTNAME:;
#STEPSTYPE:dance-single;
#DESCRIPTION:;
#CHARTSTYLE:;
#DIFFICULTY:Easy;
#METER:5;
#RADARVALUES:0.305307,0.534190,0.246002,0.069188,0.019219,278.000000,246.000000,32.000000,9.000000,0.000000,0.000000,0.000000,0.000000,0.000000,0.305307,0.534190,0.246002,0.069188,0.019219,278.000000,246.000000,32.000000,9.000000,0.000000,0.000000,0.000000,0.000000,0.000000;
#CREDIT:;
#NOTES:
0000
0000
0000
0000
,
0000
0000
0000
0000
,
0000
0000
0000
0000
,
0000
0000
0000
0000
,
1000
0000
0001
0000
,
0100
0000
0000
0010
,
0110
1001
0110
0000
,
0100
0000
0000
0000
,
0001
0000
1000
0000
,
0010
0000
0100
0000
,
0001
0000
1000
0000
,
0010
0100
0001
1000
,
0000
0000
0000
0000
,
0000
0001
1000
0001
,
1000
0010
0100
0010
,
0100
0010
0100
0000
0010
0000
1000
0000
,
0010
1000
0202
0000
,
0303
0000
0001
0010
0001
0000
0010
0000
,
0001
0000
1000
0000
0100
0000
1000
0001
,
0000
0001
1000
0000
0010
0000
0100
0000
,
0010
2000
0000
0000
,
0000
3001
0000
0000
,
0000
0000
0000
0000
0000
0000
1000
0100
,
0010
0001
0010
0000
0010
0000
0001
0000
,
0001
0000
1000
0001
,
1000
0010
0010
1000
,
1000
0000
0000
0000
0100
0000
1000
0001
,
1000
0001
0100
0001
,
0001
0000
0100
0010
,
0000
0100
0000
0000
0010
0000
1000
0000
,
0000
0002
0000
0000
0003
0000
1001
0000
,
0000
0000
0000
0110
,
1001
0110
1001
0010
,
0000
1000
0000
0200
,
0000
0300
0000
1000
,
0001
0100
0000
0010
,
0100
0010
0000
1000
,
0000
0010
0000
1000
,
0001
2000
3000
0001
,
0000
0010
0000
0200
,
0000
0000
0300
1001
,
0001
1000
0001
0000
,
0000
0000
0000
1001
,
1000
0001
1000
0000
,
0000
0000
0000
0001
1000
0000
1001
0000
,
0001
1000
0001
1001
,
1000
0001
1000
1001
,
0001
1001
1000
1001
,
0110
1001
0110
0101
,
1010
1100
0011
0000
,
0001
0100
0001
0000
0100
0000
0010
0000
,
1000
0000
1000
0000
0001
0000
1000
0100
,
1000
0100
1000
0010
,
0100
0000
0001
0000
1000
0001
1000
0001
,
1000
0001
0010
0001
,
1000
0100
1000
0010
,
0100
0000
0000
0000
0010
0000
1000
0000
0000
0000
0001
0000
0010
0000
0000
0100
,
0000
1000
0000
0000
0000
0000
0100
0010
,
0100
0000
0010
0000
0001
0000
1000
0001
,
1000
0001
0000
0100
0001
0010
0001
0000
,
0010
0001
0000
1000
,
0001
0000
0010
0001
0010
0001
1000
0001
,
0010
0000
0000
0000
0100
0000
0000
0000
0010
0000
0000
0000
0001
0000
0000
0100
,
0000
0000
0010
0000
1000
0000
0001
0000
1000
0000
0000
0000
0001
0000
0000
0100
,
0000
0000
0010
0000
1000
0000
0000
0100
0000
0000
0010
0000
0001
0000
0000
0010
,
0000
0200
0000
0000
0300
0000
1000
0000
,
0000
0010
0000
0100
,
0000
0010
0000
1000
,
0001
1000
0001
0100
,
0001
0100
0000
0001
,
0100
0010
0000
0100
,
0000
0010
0000
1000
,
0010
0100
0001
1000
,
0010
0100
0000
1001
,
0000
0010
0000
1001
,
0000
0100
0000
1001
,
0000
0010
0000
1001
,
0000
0100
0000
1001
,
0000
0110
0000
1001
,
0000
0110
0000
0001
,
0100
1000
0000
0200
,
0000
0300
0000
1001
;

//---------------dance-single - ----------------
#NOTEDATA:;
#CHARTNAME:;
#STEPSTYPE:dance-single;
#DESCRIPTION:;
#CHARTSTYLE:;
#DIFFICULTY:Beginner;
#METER:3;
#RADARVALUES:0.161439,0.377076,0.130689,0.000000,0.000000,147.000000,130.000000,17.000000,0.000000,0.000000,0.000000,0.000000,0.000000,0.000000,0.161439,0.377076,0.130689,0.000000,0.000000,147.000000,130.000000,17.000000,0.000000,0.000000,0.000000,0.000000,0.000000,0.000000;
#CREDIT:;
#NOTES:
0000
0000
0000
0000
,
0000
0000
0000
0000
,
0000
0000
0000
0000
,
0000
0000
0000
0000
,
0000
0000
0000
0000
,
0000
0000
0000
0000
,
0000
0000
0000
0000
,
0000
0000
0000
0000
,
1000
0000
1000
0000
,
0001
0000
0001
0000
,
0100
0000
0100
0000
,
0010
0010
0010
0010
,
0000
0000
0000
0000
,
0000
1000
0000
0000
,
0000
0001
0000
0000
,
0000
0100
0000
0000
,
0000
0010
1001
0000
,
0000
0110
0000
0000
,
0000
0010
0000
0000
,
0000
1000
0000
0000
,
0000
0001
0000
0000
,
0000
1000
0000
0000
,
0000
0000
0000
0010
,
0100
0001
0000
1000
,
0000
0000
0000
1000
,
0001
1000
0000
0010
,
0000
0000
0100
0000
,
0000
0010
0000
1000
,
0000
0000
0000
0001
,
0000
0000
0000
0100
,
0000
0000
0000
1001
,
0000
0000
0000
0010
,
0010
0010
0010
1000
,
0000
0001
0000
1000
,
0000
0000
0000
0010
,
0000
0000
0000
0100
,
0000
0000
0000
0001
,
0000
1000
0000
0100
,
0000
0000
0000
1000
,
0000
0001
0000
0010
,
0000
0000
0000
1001
,
0001
0001
0001
0000
,
0000
0000
0000
0110
,
0100
0100
0100
0000
,
0000
0000
0000
1001
,
0000
0000
0000
0110
,
0000
0000
0000
1001
,
0000
0110
0000
1000
,
1000
0001
0001
0110
,
0110
0110
0110
0000
,
1000
0000
0001
0000
,
0100
0100
0100
0000
,
0010
0000
1000
0000
,
0001
0001
0001
0000
,
1000
0000
0010
0000
,
1000
1000
1000
0000
,
0001
0000
0000
1000
0000
0000
0001
0000
,
0000
0000
0000
0100
,
0000
0010
0000
1000
,
0010
1000
0000
0010
,
0000
0100
0000
0001
,
1000
0001
0000
0010
,
0000
0001
0000
1000
,
1000
1000
0000
1001
,
0000
0110
0000
1001
,
0000
0000
0000
1000
,
0000
0000
0000
0001
,
0000
0000
0000
0100
,
0000
0100
0000
0100
,
0000
0000
0000
0010
,
0000
0000
0000
1000
,
0000
0000
0000
0001
,
0000
0001
0000
1000
,
0000
1000
0000
0010
,
0000
0000
0000
0100
,
0000
0000
0000
0001
,
0000
0000
0000
1000
,
0000
0000
0000
0010
,
0000
0100
0000
0001
,
0000
1000
0000
0010
,
0000
0100
0000
0001
,
1000
0001
0000
0110
;

//---------------dance-single - ----------------
#NOTEDATA:;
#CHARTNAME:;
#STEPSTYPE:dance-single;
#DESCRIPTION:;
#CHARTSTYLE:;
#DIFFICULTY:Challenge;
#METER:10;
#RADARVALUES:0.643560,1.005535,0.415129,0.292128,0.484317,586.000000,532.000000,54.000000,38.000000,0.000000,0.000000,1.000000,0.000000,0.000000,0.643560,1.005535,0.415129,0.292128,0.484317,586.000000,532.000000,54.000000,38.000000,0.000000,0.000000,1.000000,0.000000,0.000000;
#CREDIT:;
#NOTES:
// measure 0
0000
0000
0000
0000
,  // measure 1
0000
0000
0000
0000
,  // measure 2
0000
0000
0000
0000
,  // measure 3
0000
0000
0000
0000
,  // measure 4
1001
0000
0000
1000
0000
0000
0010
0000
1000
0000
0000
0100
0000
0000
1000
0000
,  // measure 5
0001
0000
0000
0010
0000
0000
0002
0000
0000
0000
0013
0000
0100
0000
1000
0000
,  // measure 6
1010
0000
0000
0101
0000
0000
0011
0000
1001
0000
0000
0000
0000
0000
0000
0000
,  // measure 7
0001
0000
1000
0001
0000
1000
0020
0000
0100
0000
0000
0100
0030
0100
0010
0000
,  // measure 8
1001
0010
1001
0100
,  // measure 9
0001
0100
0010
1000
0001
0100
0010
1000
,  // measure 10
0001
0010
0001
0010
0001
0010
0001
0010
0100
1000
0100
1000
0100
1000
0100
1000
,  // measure 11
0001
0000
0000
0100
0000
0000
0010
0000
0000
1000
0000
0000
0001
0000
0000
0010
0000
0000
0100
0000
0000
0010
0000
0000
0001
0000
0000
0000
0001
0000
0000
0000
0100
0000
0000
0000
0010
0000
0000
0000
0010
0000
0000
0000
1000
0000
0000
0000
,  // measure 12
0000
0000
0001
0000
0000
1000
0010
0000
0000
0000
1000
0000
0000
0000
0001
0000
,  // measure 13
0000
0000
0000
0000
0110
0000
0100
0001
0000
0001
0010
0000
0100
0000
0010
0000
,  // measure 14
0001
0000
1000
0000
0010
0000
0100
0010
0000
0010
1000
0000
0001
0000
1000
0000
,  // measure 15
0010
0000
1000
0000
0001
0000
0010
0100
0000
0100
1000
0000
0001
0000
0100
0000
,  // measure 16
0010
1000
0200
0040
0000
0000
0000
0000
,  // measure 17
0000
0000
0330
0000
0100
0010
0000
0010
0001
0000
1000
0000
0001
0000
0010
0000
,  // measure 18
0001
0000
1000
0000
0100
0000
0010
0001
0000
0001
0100
0000
0010
0000
1000
0100
,  // measure 19
1000
0000
0001
0000
0100
0000
0010
0100
0010
0000
1000
0000
0000
0000
0001
0000
,  // measure 20
0000
0000
1000
0000
0101
0000
0000
1010
0000
0000
2100
0000
0000
0000
0000
0000
,  // measure 21
0000
3000
0000
0000
,  // measure 22
0000
0000
0000
0000
0000
0000
0001
0010
,  // measure 23
0100
1000
0001
0001
0001
0001
0100
0100
,  // measure 24
0001
1000
0000
0100
0010
0010
0100
0010
,  // measure 25
0001
1000
0000
0000
0000
0000
0000
0000
0000
0000
0000
0000
0001
0000
0000
0000
0000
0000
0001
0000
0000
0000
0000
0000
0001
0000
0000
0000
0000
0000
0001
0000
0000
0000
0000
0000
0100
0000
0000
0000
0000
0000
0100
0000
0000
0000
0000
0000
,  // measure 26
0001
0000
1000
0000
0000
0000
0001
0000
0001
0000
0001
0000
0200
0300
0200
0300
,  // measure 27
0200
0300
0010
0010
0010
0010
0100
0100
,  // measure 28
0010
0000
1000
0000
0000
0000
0001
0000
1000
0000
0001
0000
1000
0000
0000
0001
,  // measure 29
0100
0001
0010
0000
0000
0100
0000
0000
1000
0000
0000
0000
0001
0000
1000
0010
,  // measure 30
0000
0100
0002
0000
0000
0000
0000
0000
0000
0000
0000
0000
0013
0000
0000
0000
,  // measure 31
0000
0000
0000
1100
,  // measure 32
0011
0101
1010
1002
,  // measure 33
0000
0000
1003
0001
0020
0000
0000
0000
0000
0000
0130
0010
0002
0000
0000
0000
,  // measure 34
0000
0000
0000
0000
0000
0000
0003
0000
0000
0000
0010
0100
2000
0000
0000
0100
,  // measure 35
0000
0000
3001
1000
0002
0000
0000
0000
0003
0000
0100
0000
0020
0000
0000
1000
,  // measure 36
0000
0000
0130
0001
0200
0000
0000
0000
0300
0000
0000
0000
0020
0000
0000
1030
,  // measure 37
0000
0000
0100
0000
0020
0000
0000
0031
0000
0000
0100
0000
0020
0000
0000
2030
,  // measure 38
0000
0000
0002
0000
0000
0000
0000
0000
3003
0000
1000
0001
0020
0000
0000
0130
,  // measure 39
0000
0000
0010
0000
0002
0000
0000
1003
0000
0000
0010
0000
0100
0000
0010
0100
,  // measure 40
0000
0001
2000
0000
0000
0000
0000
0000
3000
0000
0000
0000
1001
0000
0000
0000
,  // measure 41
0110
1001
0110
1000
,  // measure 42
0010
0100
0001
1001
,  // measure 43
0110
1001
0110
0001
,  // measure 44
0100
0000
0000
0010
1001
0000
1000
0010
,  // measure 45
0100
0001
1000
0010
0100
0001
1000
0100
,  // measure 46
0010
0000
0001
0000
1000
0000
0100
0000
0010
0000
0001
0000
1000
0001
1000
0001
,  // measure 47
1000
0001
1000
0001
0100
0010
0100
0010
0100
0010
0100
0010
1000
0001
1000
0001
,  // measure 48
0100
0000
0000
0010
0000
0000
0100
0000
0000
0010
0000
0000
1000
0000
0000
0000
0001
0000
0000
0000
0100
0000
0000
0000
0010
0000
0000
0000
1000
0000
0000
0000
0001
0000
0000
0000
0101
0000
0000
0000
0000
0000
0000
0000
0000
0000
0000
0000
,  // measure 49
1010
1100
0011
0000
,  // measure 50
1000
0000
0001
0100
0000
0010
1000
0001
0010
0000
0100
0010
0000
0100
0010
0001
,  // measure 51
1000
0000
0001
0100
0000
0001
0020
0000
0000
0000
0130
0000
0010
0001
0100
0010
,  // measure 52
1000
0000
0001
1000
0000
0100
1000
0010
0200
0000
0000
0000
0001
0000
0000
0000
,  // measure 53
0310
0000
1000
0010
0000
0100
0001
1000
0100
1000
0100
1000
0100
0000
1000
0100
,  // measure 54
1000
0000
0001
0100
0000
0010
1000
0000
0001
0000
1000
0100
0000
0001
0100
0000
,  // measure 55
0010
0000
0000
0110
0000
0000
1002
0000
0100
0000
0100
0000
0103
0000
0010
1000
,  // measure 56
0001
0000
0010
0000
2200
3300
0110
0000
0011
0000
0202
0303
0101
0000
0000
1010
,  // measure 57
0000
2002
0000
0000
3003
0000
0001
1000
,  // measure 58
1010
0000
0000
0000
0101
0000
0000
0000
0011
0000
0001
0100
0010
0000
1000
0010
,  // measure 59
0000
0100
0002
0000
0000
0000
1003
0000
0001
0010
0001
0010
0001
0000
1000
0001
,  // measure 60
0000
0100
0001
0010
0200
0000
0000
0000
0310
0000
0000
0000
1000
0000
0010
0100
,  // measure 61
0000
0001
1000
0100
0010
0100
0010
0100
0010
0000
0100
0010
0100
0000
1000
0001
,  // measure 62
0000
0100
0010
0000
0100
0000
0001
1000
0000
0010
0100
0000
0101
0000
0000
1010
,  // measure 63
0000
0000
2002
0000
0000
0000
0000
0000
3003
0000
0100
0010
1000
0000
0000
1010
,  // measure 64
0000
0000
0010
0000
0110
0000
0000
0101
0000
0000
0001
0000
0011
0000
0000
0110
,  // measure 65
0000
2200
0000
0000
0000
3300
1000
0000
,  // measure 66
0001
0100
0010
0100
0000
0010
1000
0000
,  // measure 67
0001
0000
1000
0010
1000
0000
0001
0100
,  // measure 68
0010
0100
0001
1000
0100
0010
0011
0000
,  // measure 69
0011
0000
0011
0000
0000
0001
0100
1000
,  // measure 70
0100
0010
0000
0100
0010
0000
1000
0000
,  // measure 71
0001
1000
0001
0000
0001
0000
0001
1000
,  // measure 72
0100
1000
0001
0100
0001
1000
0100
0010
,  // measure 73
0001
1000
0001
0000
0000
0000
1000
0010
,  // measure 74
1000
0010
1000
0010
1000
0000
0001
0100
,  // measure 75
0001
0100
0001
0100
0001
0000
0010
0001
,  // measure 76
0010
0001
0010
0001
0010
0000
1000
0100
,  // measure 77
1000
0100
1000
0100
1000
0000
0001
1000
,  // measure 78
0001
1000
0010
0100
0010
0100
0001
1000
,  // measure 79
0001
1000
0010
0100
0010
0100
0001
0000
,  // measure 80
1000
0000
0000
0010
0000
0000
0000
0000
0000
0100
0000
0000
0001
0000
0000
0000
0000
0000
0010
0000
0000
0000
0100
0000
,  // measure 81
0000
1000
0000
0001
0000
0000
0000
0000
0000
0110
0000
0000
;
