#TITLE:Gravigazer;
#SUBTITLE:;
#ARTIST:DJ TOTTO;
#TITLETRANSLIT:;
#SUBTITLETRANSLIT:;
#ARTISTTRANSLIT:;
#GENRE:;
#CREDIT:;
#BANNER:Gravigazer.png;
#BACKGROUND:Gravigazer-bg.png;
#LYRICSPATH:;
#CDTITLE:;
#MUSIC:Gravigazer.mp3;
#OFFSET:1.307997;
#SAMPLESTART:72.915634;
#SAMPLELENGTH:12.375000;
#LASTBEATHINT:0.767993;
#SELECTABLE:YES;
#BPMS:0.000000=160.000000
,5.000000=320.000000
,7.000000=160.000000
,22.000000=320.000000
,24.000000=160.000000
,36.000000=80.000000
,38.000000=160.000000
,52.000000=80.000000
,53.000000=160.000000
,61.000000=320.000000
,69.000000=80.000000
,71.000000=160.000000
,114.000000=80.000000
,114.750000=320.000000
,115.500000=160.000000
,128.000000=320.000000
,134.000000=160.000000
,183.000000=80.000000
,183.500000=320.000000
,185.500000=80.000000
,186.000000=320.000000
,188.000000=80.000000
,188.500000=320.000000
,190.500000=80.000000
,191.000000=320.000000
,201.000000=160.000000
,201.500000=80.000000
,201.750000=40.000000
,202.000000=160.000000
,233.000000=80.000000
,234.000000=160.000000
,289.000000=320.000000
,297.000000=160.000000
;
#STOPS:100.000000=0.188000,
101.500000=0.188000,
114.750000=0.516000,
115.000000=0.094000,
202.000000=0.375000,
249.000000=0.094000,
249.250000=0.094000,
261.500000=0.938000,
276.750000=0.750000
;
#BGCHANGES:;
#KEYSOUNDS:;
#ATTACKS:;

//---------------dance-single - ----------------
#NOTES:
     dance-single:
     :
     Hard:
     10:
     0.784286,1.000000,0.185056,0.440610,0.912063,552.000000,21.000000,50.000000,0.000000,0.000000,0.000000,0.784286,1.000000,0.185056,0.440610,0.912063,552.000000,21.000000,50.000000,0.000000,0.000000,0.000000:
// measure 0
0000
0000
0000
0000
,  // measure 1
0000
0000
0000
2002
,  // measure 2
0000
3003
0000
0000
,  // measure 3
0000
0000
0000
0000
,  // measure 4
0000
0000
0000
0000
,  // measure 5
0000
0000
0200
0300
,  // measure 6
1001
0001
0010
0000
0100
1000
0001
0000
,  // measure 7
0010
0001
1000
0010
0001
0010
0100
0001
,  // measure 8
1000
0000
0000
0000
0100
0000
0000
0000
0010
0000
0000
0000
0001
0000
1000
0001
,  // measure 9
0100
0000
0010
0000
1000
0001
1000
0001
0200
0000
0000
0000
0320
0000
0000
0000
0130
0000
0000
0000
0001
0000
0000
0000
0100
0000
0000
0000
0001
0000
0000
0000
,  // measure 10
0100
0010
0100
0010
1000
0010
1000
0010
,  // measure 11
1000
0100
0010
0001
1000
0010
1000
0001
,  // measure 12
0010
0001
1000
0010
1000
0001
0100
0001
,  // measure 13
1010
0201
0301
1000
0010
1000
0001
0010
,  // measure 14
0100
1000
0100
1000
0010
0100
0001
0010
,  // measure 15
0100
1000
0001
1000
0001
0000
1000
0000
,  // measure 16
1000
0000
0001
0100
0010
1000
0001
1000
,  // measure 17
0200
0000
0000
0000
0000
0000
0000
0000
0310
0000
0001
0100
0000
1000
0000
0100
0010
1000
0010
1000
0002
0000
0000
0000
0013
0000
0000
0000
0100
0000
0010
0000
,  // measure 18
0000
0000
0010
0001
0000
0000
0001
0100
0000
0000
0100
0010
0000
0000
0010
1000
,  // measure 19
0000
0000
1000
0001
0000
0000
1000
0001
1000
0010
0100
0001
1000
0000
0010
1000
,  // measure 20
0000
0000
1000
0001
0000
0000
0001
1000
0000
0000
0001
0010
0001
1000
0000
0001
,  // measure 21
0000
0001
0000
1000
0010
0000
0100
0001
0010
0100
1000
0000
0001
0000
1000
0001
,  // measure 22
0000
0000
0001
0010
0000
0000
0010
0100
0000
0000
0100
1000
0000
0000
1000
0010
,  // measure 23
0000
0000
0010
0100
0000
0000
0100
0001
1000
0000
0001
0000
0010
0000
0100
1000
,  // measure 24
0000
0000
1000
0010
0000
0000
0010
0100
0000
0000
0100
0001
1000
0000
0001
0000
,  // measure 25
0020
0000
0031
0000
1000
0000
0020
0000
0130
0000
0001
0100
0001
0000
0100
0010
,  // measure 26
0100
0000
0010
1000
0010
0000
1000
0001
1000
0000
0001
0100
0001
0000
0100
0010
,  // measure 27
0100
0000
0010
1000
0010
0000
0100
0000
0001
0000
0010
0100
0010
0000
0100
1000
,  // measure 28
0100
0000
1000
0001
1000
0000
0001
0100
0001
0000
1001
0101
1010
0000
0101
0000
,  // measure 29
1001
0000
1000
0001
0010
0000
0100
1000
0001
0100
0001
0100
0020
0000
0000
0000
,  // measure 30
0130
0000
0010
1000
0010
0000
1000
0100
1000
0100
0010
0001
1000
0100
0010
0001
,  // measure 31
2000
0000
0000
3200
0000
0000
0302
0000
0000
0203
0000
0000
0310
0000
0001
0000
,  // measure 32
1000
0001
0010
0001
1000
0010
1000
0001
,  // measure 33
0100
0000
0001
0000
0010
0000
0100
0000
0010
0100
1000
0001
1001
0000
0000
0000
,  // measure 34
0000
0000
0000
1000
,  // measure 35
0000
0000
0000
0100
,  // measure 36
0000
0000
0000
0010
,  // measure 37
0000
0000
0000
0002
,  // measure 38
0000
0000
0000
2003
,  // measure 39
0000
0000
0000
3200
,  // measure 40
0000
0000
0000
0000
0000
0000
0000
0000
0000
0000
0000
0000
0310
0000
0001
1000
,  // measure 41
0001
0000
1000
0001
1000
0001
0010
0000
0200
0000
0000
0300
1001
0000
0000
0000
,  // measure 42
0001
0010
0001
1000
,  // measure 43
0010
1000
0001
0100
,  // measure 44
0001
1000
0100
1000
,  // measure 45
0100
0000
0000
0000
0000
0000
0000
0000
0010
0000
0000
0000
0000
0000
0000
0000
0001
0000
0000
0000
0000
0000
0000
0000
1000
0100
0010
0001
2000
0000
0000
0000
,  // measure 46
0000
0000
0000
0000
0000
0000
0000
0000
0000
0000
0000
0000
3001
0010
0100
1000
0002
0000
0000
0000
0000
0000
0000
0000
0000
0000
0000
0000
0000
0000
0000
0000
,  // measure 47
0103
0010
1000
0001
0020
0000
0000
0000
0000
0000
0000
0000
0000
0000
0000
0000
0000
0000
0000
0000
0130
0010
0001
1000
0200
0000
0000
0000
0000
0000
0000
0000
,  // measure 48
0000
0000
1300
0001
0100
0001
0100
0010
,  // measure 49
0100
0010
1000
0010
1000
0010
1000
0100
,  // measure 50
0010
0000
0000
0000
0000
0000
0002
0000
0000
0000
0000
0000
2000
0000
0000
0000
0000
0000
0000
0000
0000
0000
0000
0000
0000
0003
0000
0000
0000
0000
3000
0000
0000
0000
0000
0000
0001
0000
0000
0000
0000
0000
1000
0000
0000
0010
0000
0000
,  // measure 51
0000
0100
0000
0001
0000
0010
0000
0100
0000
1000
0100
0000
1000
0000
0001
0100
,  // measure 52
0000
0001
0000
0010
0000
0001
0000
1000
0000
0100
0010
0001
1000
0000
0001
0100
,  // measure 53
0000
0010
0000
1000
0000
0100
0000
0010
0000
0001
1000
0000
0001
0000
0010
0000
,  // measure 54
0001
0100
0000
0010
0000
1000
0000
0100
0000
0100
1000
0001
1000
0000
0010
0100
,  // measure 55
0000
0001
0000
1000
0000
1000
0000
0100
0000
0010
0001
0000
0010
0000
0001
0100
,  // measure 56
0000
0010
0000
1000
0000
1000
0000
0100
0000
0010
0001
0000
0010
0000
0001
0100
,  // measure 57
0000
0010
0000
0100
0000
0100
0000
0010
0000
1000
0001
0000
1000
0000
0010
0100
,  // measure 58
0000
0001
0000
1000
0200
0000
0320
0000
0031
0000
1000
0001
0100
0001
0000
0100
,  // measure 59
0000
0010
0000
1000
0000
0001
0010
0001
1000
0000
0100
0010
0000
0001
0000
0100
,  // measure 60
0000
0010
0000
1000
0000
0001
0100
0001
0010
0000
0100
1000
0000
0100
0000
0010
,  // measure 61
0000
0001
0000
1000
0000
0010
1000
0010
0100
0000
0010
1000
0000
0100
0000
0010
,  // measure 62
0001
0000
0010
0100
1000
1000
0001
0000
0100
0010
1000
0001
0000
1000
0000
0100
,  // measure 63
0000
0001
0000
0100
0010
0001
2000
0000
0000
0000
3020
0000
0000
0000
0032
0000
,  // measure 64
0000
0000
0203
0000
0000
0000
2300
0000
0000
0000
3001
0000
0010
0000
0100
1000
,  // measure 65
0100
0010
0100
1000
0010
0100
0002
0000
0003
0000
0000
0000
1010
0000
0010
0100
,  // measure 66
0000
0010
0000
0010
0000
0100
0001
0000
1000
0100
0010
0001
0000
0000
1000
0000
,  // measure 67
0001
0100
0000
0010
0000
0010
0000
0010
1000
0010
0100
0001
1000
1000
0000
0000
,  // measure 68
0000
0001
0000
0010
0000
1000
0000
0010
0100
1000
0100
0010
0000
0000
0001
0100
,  // measure 69
0000
1010
0000
1100
1001
0000
1000
0010
0000
0101
0000
1010
0000
1001
0000
0001
,  // measure 70
0010
0100
0010
0001
0000
0000
1001
0000
0001
0100
0000
0110
0000
1010
0000
1000
,  // measure 71
0100
1000
0001
1000
0001
0000
1000
0010
0000
0100
0000
0001
0010
0000
0100
1000
,  // measure 72
0010
0100
0001
1000
0002
0000
0023
0000
0230
0000
2300
0000
3200
0000
0320
0000
,  // measure 73
0032
0023
0230
2300
3200
0302
0203
2300
,  // measure 74
3020
0032
0023
1030
0000
0000
0000
0000
;

//---------------dance-single - ----------------
#NOTES:
     dance-single:
     :
     Medium:
     9:
     0.587900,0.720948,0.484671,0.281990,0.383331,380.000000,55.000000,32.000000,0.000000,0.000000,0.000000,0.587900,0.720948,0.484671,0.281990,0.383331,380.000000,55.000000,32.000000,0.000000,0.000000,0.000000:
// measure 0
0000
0000
0000
0000
,  // measure 1
0000
0000
0000
1001
,  // measure 2
0000
0000
0000
0000
,  // measure 3
0000
0000
0000
0000
,  // measure 4
0000
0000
0000
0000
,  // measure 5
0000
0000
0010
0000
,  // measure 6
1001
0000
0000
0000
,  // measure 7
0000
0000
0000
0000
,  // measure 8
1000
0001
0100
0010
,  // measure 9
0100
0001
0010
0010
0200
0000
1300
0000
1001
0000
0000
0000
0101
0000
0000
0000
,  // measure 10
1001
1100
1001
0101
,  // measure 11
1001
0000
0001
0010
0110
0000
0110
0000
,  // measure 12
0011
0011
0110
1100
,  // measure 13
1100
0100
0011
0000
1100
0000
0101
0000
,  // measure 14
1010
1001
0101
1001
,  // measure 15
0001
0010
0200
0000
0000
0000
0310
0000
,  // measure 16
0001
1000
0010
1000
,  // measure 17
0001
0000
0200
0000
0000
0000
0310
1010
,  // measure 18
0000
1010
0000
0101
0000
0101
0000
1010
,  // measure 19
0000
1010
0000
0010
1000
0001
0000
1001
,  // measure 20
0000
1001
0000
1100
0000
1100
0000
1000
,  // measure 21
0100
0010
0000
0010
0001
0100
0010
1010
,  // measure 22
0000
1010
0000
0110
0000
0101
0000
0110
,  // measure 23
0000
1001
0000
0001
0010
0100
0000
1100
,  // measure 24
0000
0011
0000
0110
0000
0100
0010
0001
,  // measure 25
1000
0001
0100
0010
0100
0001
0100
0001
,  // measure 26
0100
0010
0100
0010
1000
0010
1000
0010
,  // measure 27
1000
0001
0010
0100
1000
0100
1000
0100
,  // measure 28
0010
0000
0100
0000
0010
0000
0001
0000
0010
0000
1001
1001
1001
0000
1001
0000
,  // measure 29
0101
0000
0000
0001
1000
0000
0010
0000
0100
0000
0001
0000
0020
0000
0000
0000
,  // measure 30
0130
0000
0000
1000
0010
0000
0100
0000
0001
2000
0000
3000
0001
2000
0000
3000
,  // measure 31
0010
0000
0000
0100
0000
0000
0001
0000
0000
0010
0000
0000
0100
0000
1000
0000
,  // measure 32
0002
0203
0320
2030
,  // measure 33
3002
0000
0023
0000
0230
2300
3002
0000
,  // measure 34
0000
0000
0000
2003
,  // measure 35
0000
0000
0000
3200
,  // measure 36
0000
0000
0000
2300
,  // measure 37
0000
0000
0000
3020
,  // measure 38
0000
0000
0000
0230
,  // measure 39
0000
0000
0000
0302
,  // measure 40
0000
0000
0000
0000
0000
0000
1003
0100
,  // measure 41
0001
0100
1000
0010
0100
0000
1001
0000
,  // measure 42
0001
1000
0010
0100
,  // measure 43
0001
0010
0100
0010
,  // measure 44
0001
1000
0010
0100
,  // measure 45
0001
0000
0000
0000
0010
0000
0000
0000
0100
0000
0000
0000
1000
0010
0101
0000
,  // measure 46
0000
0000
0000
0000
0000
0000
0001
0010
1100
0000
0000
0000
0000
0000
0000
0000
,  // measure 47
1000
0100
0011
0000
0000
0000
0000
0000
0000
0000
0001
0100
1010
0000
0000
0000
,  // measure 48
0000
1000
0100
0010
,  // measure 49
0001
0010
0100
1000
,  // measure 50
0010
0000
0000
0000
2002
0000
0000
0000
3003
0000
0000
0000
1000
0000
0000
0001
,  // measure 51
0100
0000
0000
0100
0010
0000
1000
0000
0100
0000
0010
0000
0100
0000
0000
1000
,  // measure 52
0010
0000
0000
0010
0100
0000
0001
0000
0010
0000
0001
0000
1000
0000
0000
0001
,  // measure 53
0100
0000
0000
0100
0010
0000
1000
0000
0100
0000
0010
0000
0100
0000
0000
1000
,  // measure 54
0100
0000
0000
0010
0001
0000
1000
0000
0100
0000
0001
0000
0100
0000
0000
0010
,  // measure 55
0001
0000
0000
0001
0100
0000
0010
0000
1000
0000
0001
0000
0010
0000
0000
0100
,  // measure 56
1000
0000
0000
1000
0001
0000
0100
0000
0001
0000
0010
0000
0100
0000
0000
0010
,  // measure 57
0100
0000
0000
0100
1000
0000
0010
0000
0100
0000
0001
0000
0010
0000
0000
0100
,  // measure 58
0000
0000
1000
0000
0001
1000
0002
0000
1003
0000
0000
0001
0000
0100
0000
0010
,  // measure 59
0000
1000
0000
0001
0000
0010
0100
0000
1000
0000
0000
0010
0000
0100
0000
0001
,  // measure 60
0000
0001
0000
0010
0000
0100
1000
0000
0001
0000
0000
1000
0000
0010
0000
0001
,  // measure 61
0000
0010
0000
0100
0000
0001
0010
0000
0100
0000
0000
1000
0000
0010
0000
0100
,  // measure 62
0000
0001
0000
0000
0010
0010
0100
0000
1000
0001
0000
0100
0000
0010
0000
0010
,  // measure 63
0000
1000
0000
0010
0100
0000
0001
0000
0010
0001
0000
0010
0000
0100
0000
0100
,  // measure 64
0000
0010
0000
0100
1000
0000
0001
0000
0100
0000
1000
0000
0100
0000
0010
0000
,  // measure 65
1000
0000
0001
0000
0010
0000
0001
0000
0000
0000
0000
0000
1000
0000
0001
0100
,  // measure 66
0000
0010
0000
0010
0000
0000
0100
0000
0001
0000
1000
0000
0000
0000
0100
0000
,  // measure 67
0010
0001
0000
1000
0001
0000
0000
0000
2000
0000
3200
0000
0310
0100
0000
0010
,  // measure 68
0000
0001
0000
1000
0000
1000
0000
0000
0001
0200
0000
0000
0300
0000
0010
1000
,  // measure 69
0000
0001
0000
1001
1010
0000
0010
0100
0000
0001
0000
1000
0000
0001
0010
0000
,  // measure 70
0200
0000
0000
0000
0300
0000
1000
0000
0001
1000
0000
0010
0200
0000
0000
0000
,  // measure 71
0302
0000
0000
0000
0013
0000
0100
1000
0000
0010
0000
0100
0001
0000
0010
0000
,  // measure 72
0100
1000
0001
1000
0001
0000
0100
0001
,  // measure 73
0100
0000
0010
0100
0010
0000
0100
0010
,  // measure 74
1000
0002
2000
3003
0000
0000
0000
0000
;

//---------------dance-single - ----------------
#NOTES:
     dance-single:
     :
     Easy:
     6:
     0.360041,0.458785,0.193868,0.193868,0.000000,242.000000,22.000000,22.000000,0.000000,0.000000,0.000000,0.360041,0.458785,0.193868,0.193868,0.000000,242.000000,22.000000,22.000000,0.000000,0.000000,0.000000:
// measure 0
0000
0000
0000
0000
,  // measure 1
0000
0000
0000
1001
,  // measure 2
0000
0000
0000
0000
,  // measure 3
0000
0000
0000
0000
,  // measure 4
0000
0000
0000
0000
,  // measure 5
0000
0000
0010
0000
,  // measure 6
1001
0000
0000
0000
,  // measure 7
0000
0000
0000
0000
,  // measure 8
0000
0000
0000
0000
,  // measure 9
2002
0000
0000
3003
0001
0000
0001
0000
,  // measure 10
1000
1000
0010
0010
,  // measure 11
1000
0100
0010
0010
,  // measure 12
0001
0001
0010
0010
,  // measure 13
0100
0100
0010
0000
0010
0000
0001
0000
,  // measure 14
0001
1000
1000
0010
,  // measure 15
0010
0200
0000
0000
,  // measure 16
0000
0000
0000
0000
,  // measure 17
0000
0300
0010
2000
0002
3003
0001
0000
,  // measure 18
1000
0010
0100
0001
,  // measure 19
0010
0000
0100
0000
1000
0100
0010
0000
,  // measure 20
0100
1000
0010
0100
,  // measure 21
0001
0010
0001
1000
,  // measure 22
0100
1000
0001
0100
,  // measure 23
0001
0010
0100
0010
,  // measure 24
0001
1000
0010
0100
,  // measure 25
1001
0000
0000
0110
0010
0000
0010
0000
,  // measure 26
0100
0100
0001
1000
,  // measure 27
0010
0000
0100
0001
0100
0000
0001
0000
,  // measure 28
0010
0000
0100
0000
0000
1100
0011
0000
,  // measure 29
0001
0000
0100
0000
0010
1000
0001
0000
,  // measure 30
0100
0000
1000
0000
0100
0010
1000
0001
,  // measure 31
1000
0001
0100
0010
,  // measure 32
2000
0000
3001
0000
,  // measure 33
0200
0000
0310
1001
,  // measure 34
0000
0000
0000
0000
,  // measure 35
0000
0000
0000
0000
,  // measure 36
0000
0000
0000
0000
,  // measure 37
0000
0000
0000
0010
,  // measure 38
0000
0000
0000
0100
,  // measure 39
0000
0000
0000
0001
,  // measure 40
0000
0000
0000
2000
,  // measure 41
0000
0000
3000
1001
,  // measure 42
0001
1000
0010
1000
,  // measure 43
0001
0100
0001
1000
,  // measure 44
0100
1000
0001
0100
,  // measure 45
0001
0000
0010
0000
0100
0000
2002
3003
,  // measure 46
0000
0000
0000
0220
0330
0000
0000
0000
,  // measure 47
2020
3030
0000
0000
0000
0202
0303
0000
,  // measure 48
0000
0001
0000
0010
,  // measure 49
0000
0100
0000
1000
,  // measure 50
0000
2002
3003
0001
,  // measure 51
1000
0000
0010
1000
0010
0000
0100
0000
,  // measure 52
0001
0000
0010
0100
0010
0000
0100
0000
,  // measure 53
1000
0000
0001
0100
0001
0000
0100
0000
,  // measure 54
0010
1000
0001
0010
,  // measure 55
0100
0000
0010
0001
0010
0000
0100
0000
,  // measure 56
1000
0000
0001
0100
0001
0000
0100
0000
,  // measure 57
0010
0000
1000
0001
1000
0000
0010
0000
,  // measure 58
0100
0000
0002
0203
0310
0000
1000
0000
,  // measure 59
0010
0100
0001
0000
1000
0000
0100
0000
,  // measure 60
0010
0001
0100
0000
0010
0000
1000
0000
,  // measure 61
0100
0001
1000
0000
0100
0000
0010
0000
,  // measure 62
0001
0010
1000
0100
0000
0010
0000
0100
,  // measure 63
1000
0001
0000
0010
0000
0100
0000
0010
,  // measure 64
0001
1000
0000
1001
0000
1001
0000
0110
,  // measure 65
0000
0110
0000
1001
0000
0000
0101
0000
,  // measure 66
0001
0000
0100
0000
0010
1000
0000
0010
,  // measure 67
0100
0000
0001
0000
1000
0100
0010
0000
,  // measure 68
0100
0000
1000
0000
0010
0010
0000
0100
,  // measure 69
0001
1000
1001
0000
0001
0000
0100
0000
,  // measure 70
0010
0010
0000
0100
0001
0000
1000
0000
,  // measure 71
0100
0000
0010
0100
1000
0000
0010
0000
,  // measure 72
0100
0001
0100
0010
,  // measure 73
1000
0001
0010
0100
,  // measure 74
1000
0000
2002
3003
0000
0000
0000
0000
;

//---------------dance-single - ----------------
#NOTES:
     dance-single:
     :
     Beginner:
     3:
     0.193868,0.261722,0.185056,0.008812,0.000000,132.000000,21.000000,1.000000,0.000000,0.000000,0.000000,0.193868,0.261722,0.185056,0.008812,0.000000,132.000000,21.000000,1.000000,0.000000,0.000000,0.000000:
// measure 0
0000
0000
0000
0000
,  // measure 1
0000
0000
0000
0000
,  // measure 2
0000
0000
0000
0000
,  // measure 3
0000
0000
0000
0000
,  // measure 4
0000
0000
0000
0000
,  // measure 5
0000
0000
0000
0000
,  // measure 6
0010
0000
0000
0000
,  // measure 7
0100
0000
0000
0000
,  // measure 8
0001
0000
1000
0000
,  // measure 9
0110
0000
1001
0000
,  // measure 10
1000
0000
0001
0000
,  // measure 11
0100
0100
0100
0000
,  // measure 12
0001
0000
1000
0000
,  // measure 13
0100
0100
0100
0000
0000
0000
1000
0000
,  // measure 14
0000
0001
0000
0100
,  // measure 15
0100
0100
0000
0000
,  // measure 16
0000
0010
0000
0000
,  // measure 17
0000
1001
0000
0001
,  // measure 18
0000
0001
0000
0001
,  // measure 19
0000
0001
1000
0010
,  // measure 20
0000
0010
0000
0100
,  // measure 21
0000
0010
0000
1001
,  // measure 22
0000
1000
0000
0001
,  // measure 23
0000
1000
1000
1000
,  // measure 24
0000
0001
0000
1000
,  // measure 25
0000
0010
0000
0000
0100
0000
0000
0000
,  // measure 26
0100
0000
0100
0000
,  // measure 27
0100
0010
1000
0000
,  // measure 28
1000
0000
0000
0000
1000
1001
0000
0000
,  // measure 29
1001
0001
0001
0000
,  // measure 30
1001
1000
0010
0010
,  // measure 31
0100
0000
0010
0000
,  // measure 32
1000
0000
0010
0000
,  // measure 33
0100
0000
0001
1001
,  // measure 34
0000
0000
0000
0000
,  // measure 35
0000
0000
0000
0000
,  // measure 36
0000
0000
0000
0000
,  // measure 37
0000
0000
0000
1000
,  // measure 38
0000
0000
0000
0001
,  // measure 39
0000
0000
0000
0100
,  // measure 40
0000
0000
0000
0010
,  // measure 41
0000
0000
0000
1001
,  // measure 42
0000
0000
0000
0001
,  // measure 43
0000
0000
0000
1000
,  // measure 44
0000
0000
0000
0100
,  // measure 45
0000
0000
0000
0000
0000
0000
0000
1001
,  // measure 46
0000
0000
1001
0000
,  // measure 47
0000
1001
0000
0000
0000
0000
1001
0000
,  // measure 48
0000
1001
0000
0110
,  // measure 49
0000
1001
0000
0110
,  // measure 50
0000
1001
0000
1000
,  // measure 51
0000
0001
0000
0100
,  // measure 52
0000
0001
1000
0100
,  // measure 53
0000
1000
0000
0010
,  // measure 54
0000
0100
0010
1000
,  // measure 55
0000
0010
0000
0100
,  // measure 56
0000
0001
0000
1000
,  // measure 57
0000
0001
0000
1000
,  // measure 58
1000
1000
1001
0000
,  // measure 59
0001
0000
0100
0000
,  // measure 60
0001
0000
0010
0000
,  // measure 61
0001
0000
1000
0000
,  // measure 62
0001
0000
0001
1000
0000
0000
0000
0010
,  // measure 63
0000
0000
0000
0200
0000
0000
0000
0000
,  // measure 64
0000
0000
0000
0000
,  // measure 65
0000
0000
0000
0300
0000
0000
1001
0000
,  // measure 66
0000
0000
0001
0000
,  // measure 67
1000
0000
0001
0100
,  // measure 68
0000
0010
0000
0000
,  // measure 69
0100
0100
0000
0010
,  // measure 70
1000
0000
0001
1000
,  // measure 71
0001
0100
0000
0010
,  // measure 72
0000
1000
0000
0001
,  // measure 73
0000
0100
0000
0010
,  // measure 74
0000
1001
0000
0000
;
