#TITLE:Giant Strength;
#SUBTITLE:;
#ARTIST:RoughSketch;
#TITLETRANSLIT:;
#SUBTITLETRANSLIT:;
#ARTISTTRANSLIT:;
#GENRE:;
#CREDIT:;
#BANNER:Giant Strength.png;
#BACKGROUND:Giant Strength-bg.png;
#LYRICSPATH:;
#CDTITLE:;
#MUSIC:Giant Strength.mp3;
#OFFSET:-7.262000;
#SAMPLESTART:27.765844;
#SAMPLELENGTH:12.236841;
#SELECTABLE:YES;
#BPMS:0.000000=152.000000
;
#STOPS:48.000000=0.099000,
48.250000=0.099000,
48.500000=0.099000,
48.750000=0.099000,
49.000000=0.099000,
49.250000=0.049000,
49.375000=0.049000,
49.500000=0.197000,
150.000000=1.184000,
215.000000=0.099000,
215.250000=0.099000,
215.500000=0.099000,
215.750000=0.099000,
216.000000=0.099000,
216.250000=0.049000,
216.375000=0.049000,
216.500000=0.197000
;
#BGCHANGES:;
#KEYSOUNDS:;
#ATTACKS:;

//---------------dance-single - ----------------
#NOTES:
     dance-single:
     :
     Hard:
     9:
     0.584186,0.779831,0.814281,0.241600,0.286341,457.000000,366.000000,91.000000,27.000000,0.000000,0.000000,0.584186,0.779831,0.814281,0.241600,0.286341,457.000000,366.000000,91.000000,27.000000,0.000000,0.000000:
// measure 0
1000
0000
0010
0000
0100
0000
0001
0000
1000
0001
1000
0001
1000
0000
0001
0000
,  // measure 1
1001
1001
0101
0101
,  // measure 2
1100
0000
1100
0000
1010
0000
0101
0001
,  // measure 3
1001
1100
0011
1001
,  // measure 4
0101
0000
0100
0000
0110
0000
0010
0000
1000
0010
0000
0100
0001
0000
0010
0000
,  // measure 5
0110
0110
0110
0000
1100
0000
1100
1000
,  // measure 6
1001
0000
0000
0101
0000
0000
0011
0000
1001
0000
0000
0000
0101
0000
0100
0000
,  // measure 7
0110
0000
0010
1000
0001
0000
0000
0000
1001
0000
0000
0000
0101
0000
0100
0000
,  // measure 8
2020
0000
0030
3000
,  // measure 9
0010
0100
0001
1000
0020
0000
0000
0000
,  // measure 10
0000
0000
0000
0030
,  // measure 11
0100
0100
0010
0010
1000
1000
0001
0001
,  // measure 12
1000
0000
0100
0000
0001
0000
0100
0000
1000
0000
1000
0001
0100
0000
0000
0000
1001
0000
0000
0000
0000
0000
0000
0000
0001
0000
0000
0000
0100
0000
0000
0000
,  // measure 13
0010
1000
0100
0100
1001
0000
0001
0010
,  // measure 14
0001
0010
0100
0100
1001
0000
0001
0010
,  // measure 15
0001
0000
1000
0000
0100
0000
0100
0000
1100
0000
0000
0101
0000
0000
1001
0000
,  // measure 16
0001
0000
0010
0000
1000
0000
0010
0000
0110
0000
0000
1100
0000
0000
0010
0000
,  // measure 17
1002
0000
0000
0000
0000
0000
1003
0000
1010
0000
0000
0101
0000
0000
0100
0000
,  // measure 18
2001
0000
0000
0000
3001
0000
1000
0000
1001
0000
0000
0110
0000
0000
1001
0000
,  // measure 19
0110
0000
1010
0101
2002
0000
0000
0000
,  // measure 20
0000
0000
0000
0000
,  // measure 21
0000
0000
0000
3003
0000
0000
0001
0000
0000
0100
0000
0010
,  // measure 22
1000
0000
0000
0100
0000
0010
0001
0000
1000
0000
0010
0000
,  // measure 23
0100
0000
0000
0000
0000
0000
0010
0000
0000
1000
0000
0100
,  // measure 24
0010
0000
0000
0001
0000
0010
0100
0000
1000
0000
0100
0000
,  // measure 25
0010
0000
0000
0000
0000
0000
1100
0000
0000
0100
0010
0001
,  // measure 26
1000
0000
0000
0001
0100
0010
1000
0000
1000
0000
0001
1000
,  // measure 27
0001
0000
0000
0000
0000
0000
0100
0000
0000
0001
1000
0100
,  // measure 28
0010
0000
0000
0100
1000
0010
0100
0000
0100
0000
0010
0100
,  // measure 29
0001
0000
0000
0000
1001
0001
1000
0001
,  // measure 30
0020
0000
0030
0000
,  // measure 31
0000
0000
0000
0000
1001
1000
0001
1000
,  // measure 32
0020
0000
0000
0000
0130
0000
0100
0000
0101
0000
0000
0101
0000
0000
0011
0000
,  // measure 33
0000
0000
0100
0000
1001
1000
0001
1000
,  // measure 34
0020
0000
0030
0000
1001
0001
1000
0001
,  // measure 35
0020
0000
0030
0000
1001
0001
1000
0000
,  // measure 36
1001
1000
0001
0000
1001
1001
1001
1001
,  // measure 37
0001
0100
0010
1000
0001
0100
0010
1000
0000
0000
0000
0000
0101
0000
0100
0000
,  // measure 38
0001
1000
0020
0000
1000
0000
0130
0001
,  // measure 39
1000
0100
2000
0000
0001
0000
3100
0100
,  // measure 40
0010
0000
0000
0000
0001
0000
0000
0100
0000
0000
1000
0000
0100
0000
0010
0000
,  // measure 41
1000
0000
0001
0000
0010
0000
0000
0100
0000
0000
1000
0000
0001
0000
0100
0000
,  // measure 42
0001
1000
0020
0000
1000
0000
0130
1000
,  // measure 43
0100
0001
0020
0000
0230
0000
1300
0001
,  // measure 44
0010
0000
0000
0000
0101
0000
0000
0100
0000
0000
0010
0000
1010
0000
0000
1000
,  // measure 45
0000
0000
0001
0000
0100
0000
0000
0010
0000
0000
0100
0000
1000
0000
0100
0000
,  // measure 46
0001
0000
0100
0020
0200
0000
0000
0000
0000
0000
0330
0000
1001
0000
1000
0000
,  // measure 47
0100
0000
1000
0020
2000
0000
0000
0000
0000
0000
3030
0000
0010
0000
1000
0000
,  // measure 48
1100
0000
0000
0000
1001
0000
0000
1010
0000
0000
0101
0000
0001
0000
1000
0000
,  // measure 49
0001
0000
1000
0000
1001
0000
0000
1100
0000
0000
0110
0000
0100
0000
1000
0000
,  // measure 50
0001
0000
0100
0020
0200
0000
0000
0000
0000
0000
0330
0000
1001
0000
0001
0000
,  // measure 51
0100
0000
0001
0100
0020
0000
0000
0000
0230
0000
0000
0000
0310
0000
0000
0000
,  // measure 52
1001
0000
0000
0000
0101
0000
0000
0011
0000
0000
0110
0000
1100
0000
0000
1010
,  // measure 53
0000
0000
0101
0000
1010
0000
0000
1100
0000
0000
1001
0000
0001
0100
1000
0100
,  // measure 54
0010
0000
0100
0001
1000
0000
0000
0000
1001
0000
0000
0000
0000
0000
0000
0000
0210
0000
0000
0000
0000
0000
0000
0000
1000
0000
0000
0000
0000
0000
0000
0000
,  // measure 55
0010
0000
0000
0000
0301
0000
0100
0000
0010
0000
1000
0000
0001
0000
0000
0010
,  // measure 56
0000
0100
1000
0000
0120
0000
0001
0000
,  // measure 57
0100
0000
0000
0000
0031
0000
0000
1010
0000
0000
0001
0000
1000
0000
0100
0000
,  // measure 58
0010
0001
1000
0000
2010
0000
0100
0000
,  // measure 59
0010
0000
3001
0010
0100
1000
0001
0010
,  // measure 60
0100
0010
0001
1000
0010
0010
0100
0100
,  // measure 61
0001
1000
0001
1000
0001
0000
0000
0110
0000
0000
1001
0000
0001
0000
1000
0000
,  // measure 62
0010
1001
0000
0000
;

//---------------dance-single - ----------------
#NOTES:
     dance-single:
     :
     Medium:
     6:
     0.393718,0.473469,0.098430,0.250548,0.107378,308.000000,297.000000,11.000000,28.000000,0.000000,0.000000,0.393718,0.473469,0.098430,0.250548,0.107378,308.000000,297.000000,11.000000,28.000000,0.000000,0.000000:
2000
0000
3200
0000
0310
0001
0100
0010
,
1010
0010
0100
0001
,
1001
0000
1000
0000
0100
0000
0010
0001
,
0011
0010
0100
1000
,
1000
1000
0001
0001
0200
0000
0320
0000
,
1030
0010
0100
0000
0010
0000
1000
0000
,
0001
0000
0000
0010
0000
0000
0100
0000
1000
0000
0000
0000
0100
0000
0010
0000
,
0001
0100
1000
0000
0100
0000
0010
1000
,
0200
0000
0000
0000
,
0310
0010
0100
0100
,
1000
1000
0001
0001
,
1000
0010
1000
0010
0100
0001
0100
0001
,
0200
0320
2030
3002
1003
0000
0001
0100
,
0001
0100
0001
0100
0101
0000
1000
0100
,
1000
0100
1000
0100
1100
0000
1000
0010
,
1000
0000
0010
0000
1000
0000
0010
0000
1000
0000
0000
0010
0000
0000
0100
0000
,
0010
0000
1000
0000
0010
0000
0000
0000
0100
0000
0000
0010
0000
0000
1000
0000
,
1001
0000
0000
0000
0000
0000
0000
0000
0001
0000
0000
0010
0000
0000
0100
0000
,
1100
0000
0000
0000
0000
0000
0000
0000
0100
0000
0000
0010
0000
0000
0001
0000
,
1000
0000
0001
0100
0020
0000
0000
0000
,
0000
0000
0000
0000
,
0000
0000
0130
0000
,
0001
0000
0000
0000
0000
0000
1000
0000
0001
0000
1000
0000
,
0001
0000
0100
0000
,
0010
0000
0000
0000
0000
0000
1000
0000
0010
0000
0100
0000
,
0001
0000
1000
0100
,
0001
0100
0010
0000
,
0100
0000
2000
0000
,
0020
0000
0000
3030
,
0020
0000
0000
0000
0130
0010
1000
0001
,
0200
0000
0300
0000
,
0000
0000
0000
0000
0010
0100
0001
1000
,
0020
0000
0000
0000
0100
0000
0130
0000
0010
0000
0000
1000
0000
0000
0001
0000
,
0000
0000
1000
0000
0100
0010
0001
0010
,
0200
0000
0000
0000
1300
0010
0100
0001
,
2000
0000
0000
0000
3001
0100
0001
0000
,
1000
0100
1000
0000
0001
0100
0010
1000
,
0001
0100
0010
1000
0000
0000
0001
0100
,
1000
0100
0020
0000
0000
0000
0130
1000
,
0100
0001
0020
0000
0000
0000
0130
0010
,
0001
0000
0000
0000
1000
0000
0000
0010
0000
0000
0100
0000
0010
0000
1000
0000
,
0010
0000
0000
0000
0100
0000
0000
0010
0000
0000
1000
0000
0001
0000
0010
0000
,
0100
0010
0200
0000
0000
0000
0310
0100
,
1000
0010
0100
0000
0010
0000
1000
0010
,
0100
0000
0000
0000
0001
0000
0000
0010
0000
0000
1000
0000
0010
0000
0000
0100
,
0000
0000
0010
0000
0001
0000
0000
0100
0000
0000
0010
0000
0100
0000
0001
0000
,
1000
0010
0200
0000
0000
0000
0310
0100
,
0010
0100
0002
0000
0000
0000
0103
0010
,
1000
0000
0000
0000
0001
0000
0000
1000
0000
0000
0100
0000
1000
0000
0010
0000
,
0100
0000
0001
0000
1000
0000
0000
0001
0000
0000
0100
0000
0010
0000
1000
0000
,
0100
0010
0002
0000
0000
0000
0013
0100
,
1000
0100
0020
0000
0230
0000
1300
0100
,
1000
0000
0000
0000
0010
0000
0000
0100
0000
0000
0001
0000
1000
0000
0000
0010
,
0000
0000
1000
0000
0001
0000
0000
0010
0000
0000
0100
0000
1000
0000
0100
0000
,
0010
0001
1000
0000
0102
0000
0100
0000
,
0100
0000
0000
0000
0100
0000
0000
0000
0100
0000
0000
0000
0103
0000
0000
0010
,
0000
1000
0010
0000
2001
0000
0001
0000
,
0001
0000
0000
0000
3001
0000
0000
0100
0000
0000
0010
0000
0000
0000
0000
0000
,
0000
0100
2001
0001
,
0001
0000
0000
0000
0001
0000
0000
0000
0001
0000
0000
0000
3001
0000
0000
0100
,
0000
0010
0000
0000
1000
0010
0100
0001
,
1000
0000
0010
0000
0100
0000
0000
0010
0000
0000
1000
0000
0000
0000
0000
0000
,
0010
1001
0000
0000
;

//---------------dance-single - ----------------
#NOTES:
     dance-single:
     :
     Easy:
     4:
     0.237765,0.334213,0.161067,0.268444,0.000000,186.000000,168.000000,18.000000,30.000000,0.000000,0.000000,0.237765,0.334213,0.161067,0.268444,0.000000,186.000000,168.000000,18.000000,30.000000,0.000000,0.000000:
0000
0000
0000
0000
,
1000
0000
0100
0000
,
1000
0000
0010
0000
,
0100
0000
0001
0000
,
1000
0000
0001
1000
,
0010
0100
0010
0000
1000
0000
0001
0000
,
0100
0001
1000
0100
,
1000
0001
1000
0000
0001
0000
0100
0000
,
2002
0000
0003
3000
,
0001
0100
0020
0000
,
0000
0000
0000
0030
,
1000
0100
0010
0001
,
0200
0000
0000
0300
0010
0000
0100
0000
,
0001
0010
0011
0001
,
0100
0010
1010
0010
,
1000
0001
1000
0000
,
0100
1000
0010
0100
,
0110
0000
0001
1000
,
1001
0000
1000
0100
,
1100
0100
0120
0000
,
0000
0000
0000
0000
,
0000
0000
0031
0000
,
0100
0000
0001
0000
,
1000
0000
0100
0000
,
1000
0000
0100
0000
,
1000
0000
0001
0000
,
0100
0000
0010
0000
,
1000
0000
0200
0000
,
0320
0000
0000
0000
,
0130
0000
1000
0001
,
0200
0000
0300
0000
,
0000
0000
0001
1000
,
0020
0000
0130
0000
,
0000
0010
1000
0001
,
2000
3000
0001
1000
,
0002
0003
1001
0000
,
0110
0000
1001
0110
,
1001
0110
0000
0001
,
0100
0020
0030
1000
,
0001
2000
3000
0100
,
1000
0010
0100
0001
,
0010
0001
1000
0100
,
1000
0020
0030
0100
,
0001
2000
3200
1300
,
0100
1000
1000
0001
,
0001
0100
0100
0010
,
1000
0002
0000
1003
,
0100
0020
0000
0130
,
1000
0001
0100
0001
,
1000
0010
1000
0001
,
1000
0200
0000
1300
,
0010
0200
0320
1030
,
0001
0010
0010
0001
,
0001
1000
0100
2000
,
0000
3000
0202
0000
,
0000
0000
0303
0001
,
0100
0000
2002
0000
,
3003
0001
1000
0100
,
0000
1000
2002
0000
,
0000
0000
0000
0000
,
0000
3003
0220
0000
,
0330
0000
0010
0000
0100
0000
0001
1000
,
0001
0110
0000
0000
;

//---------------dance-single - ----------------
#NOTES:
     dance-single:
     :
     Beginner:
     1:
     0.112491,0.222809,0.107378,0.008948,0.000000,88.000000,76.000000,12.000000,1.000000,0.000000,0.000000,0.112491,0.222809,0.107378,0.008948,0.000000,88.000000,76.000000,12.000000,1.000000,0.000000,0.000000:
0000
0000
0000
0000
,
0001
0000
0000
0000
,
1000
0000
0000
0000
,
0100
0000
0000
0000
,
1000
0000
0000
0000
,
1001
0000
0000
0000
,
0010
0000
0000
0000
,
0100
0000
0000
0000
,
0001
0000
0000
0000
,
1000
0000
0001
0000
,
0000
0000
0000
0000
,
0100
0000
0000
0000
,
0000
0000
1001
0000
,
0000
0000
1001
0000
,
0000
0000
1001
0000
,
0000
0000
0010
0000
,
0100
0000
0001
0000
,
0110
0000
1000
0000
,
0110
0000
0100
0000
,
1001
0000
0020
0000
,
0000
0000
0000
0000
,
0000
0000
0130
0000
,
0100
0000
0100
0000
,
0000
0000
0001
0000
,
0001
0000
0001
0000
,
0000
0000
1000
0000
,
0001
0000
0100
0000
,
0001
0000
1000
0000
,
0000
0000
0000
0000
,
0001
0000
1000
0000
,
0000
0000
0000
0000
,
0000
0000
0010
0000
,
0000
0000
0000
0000
,
0000
0000
0100
0000
,
0000
0000
0100
0000
,
0000
0000
0100
0000
,
0100
0000
0100
0100
,
0100
0100
0000
0001
,
0000
0000
0000
1000
,
0000
0000
0000
0010
,
0000
0100
0000
0001
,
0000
0000
0000
1000
,
0000
0000
0000
0010
,
0000
0000
0000
1000
,
0000
0001
0000
0100
,
0000
0001
0000
0010
,
0000
0000
0000
0001
,
0000
0000
0000
1000
,
0000
0000
0000
0010
,
0000
0100
0000
0010
,
0000
0000
0000
1000
,
0000
0000
0000
0001
,
0000
1000
0000
0010
,
0000
1000
0000
0000
,
0000
0000
1001
0000
,
0000
0000
0000
0001
,
0000
0000
0110
0000
,
0000
0100
0000
0000
,
0000
0010
1001
0000
,
0000
0000
0000
0000
,
0000
0000
1001
0000
,
0000
0010
0000
0000
,
0000
1001
0000
0000
;
