#TITLE:Genesis;
#SUBTITLE:;
#ARTIST:Lookas;
#TITLETRANSLIT:;
#SUBTITLETRANSLIT:;
#ARTISTTRANSLIT:;
#GENRE:;
#CREDIT:;
#BANNER:Genesis.png;
#BACKGROUND:Genesis-bg.png;
#LYRICSPATH:;
#CDTITLE:CDtitle.png;
#MUSIC:Genesis.ogg;
#OFFSET:-0.139000;
#SAMPLESTART:71.333405;
#SAMPLELENGTH:14.896561;
#SELECTABLE:YES;
#BPMS:0.000000=145.000000
;
#STOPS:172.000000=0.207000,
172.500000=0.207000,
173.000000=0.207000,
173.500000=0.207000
;
#BGCHANGES:;
#KEYSOUNDS:;
#ATTACKS:;

//---------------dance-single - ----------------
#NOTES:
     dance-single:
     :
     Hard:
     7:
     0.425112,0.548339,0.213778,0.034204,0.051307,348.000000,323.000000,25.000000,4.000000,0.000000,0.000000,0.425112,0.548339,0.213778,0.034204,0.051307,348.000000,323.000000,25.000000,4.000000,0.000000,0.000000:
0000
0000
0000
0000
,
0000
0000
0000
0000
,
0000
0000
0000
0000
,
0000
0000
0000
0000
,
1000
1000
1000
1000
,
0001
0001
0001
0001
,
1000
0010
0100
0001
1000
0010
0100
0001
,
1000
0000
0001
0100
1000
1000
1001
0000
,
0220
0000
0000
0000
,
0000
0000
0000
0000
,
0330
0000
0000
0000
,
0000
0000
0000
0000
,
0001
1000
0100
0100
,
1000
0001
1000
0001
,
0100
0010
1000
1000
,
0001
0100
0001
0011
,
1001
0000
0000
0000
0001
0000
1000
0000
0010
0000
0000
0010
0000
0000
0010
0000
,
1000
0000
0100
0000
0010
0000
0100
0000
1000
0000
0000
0010
0000
0000
0100
0000
,
0001
0000
0000
0000
0010
0000
0001
0000
1000
0000
0000
1000
0000
0000
1000
0000
,
0001
0000
0010
0000
0001
0000
1000
0000
0100
0000
0000
1000
0000
0000
0010
0000
,
0100
0000
0000
0000
0001
0000
1000
0000
0100
0000
0000
1000
0000
0000
0010
0000
,
0100
0000
0001
0000
0010
0000
1000
0000
0010
0000
0000
0100
0000
0000
1000
0000
,
0001
0000
0000
0000
1000
0000
0010
0000
0001
0000
0000
0010
0000
0000
0100
0000
,
0001
0000
0010
0000
0001
0000
1000
0000
0100
0000
0000
0010
0200
0000
0000
0000
,
1300
1000
1000
1000
,
0001
0001
0001
0001
,
0100
0100
0100
0100
,
0010
0010
0010
0010
,
1001
0000
0001
1000
0010
0000
1000
0001
,
0100
0000
0001
1000
0001
1000
0100
0000
,
1000
0000
0001
0100
0010
0000
0100
0001
,
1000
0000
0001
1000
0100
1000
0010
0100
,
0001
0000
1000
0001
0100
0000
0001
1000
,
0010
0000
1000
0001
1000
0001
0010
0000
,
0001
0000
1000
0010
0100
0000
0010
1000
,
0100
0000
0010
0001
1000
0100
0010
0000
,
0100
0000
0000
0000
0100
0000
0000
0000
0100
0000
0000
0000
0100
0000
0000
0010
,
0001
0000
0000
0000
0001
0000
0000
0000
0001
0000
0000
0000
0001
0000
0000
0001
,
1000
0000
0000
0000
1000
0000
0000
0000
1000
0000
0000
0000
1000
0000
0000
1000
,
0010
0010
0010
0010
,
1000
0001
0010
0010
0001
1000
0010
0010
,
1000
0001
0100
0100
0001
1000
0100
0100
,
4000
0004
0000
0000
0000
0000
0000
0000
0000
0000
0000
0000
0000
0000
0000
0000
,
3003
0000
0000
0000
0110
0000
1000
0001
,
0010
0000
0001
1000
0100
0000
1000
0001
,
0010
0100
0010
0000
1001
0000
1000
0001
,
0100
0000
0001
1000
0010
0000
1000
0001
,
0010
1000
0010
0100
1100
0000
0100
0010
,
0001
0000
0010
0001
1000
0000
0100
1000
,
0010
0100
0010
0000
1001
0000
1000
0010
,
0100
0000
0010
1000
0001
0000
0010
1000
,
0010
0001
0100
0000
0000
0000
0000
0000
,
1001
0000
0011
0010
0100
0000
1100
1000
,
0010
0100
0001
0000
1001
0000
0101
0001
,
0010
0000
0110
0010
0001
0000
0011
0001
,
1000
0100
1000
0001
0100
0000
1010
1000
,
0100
0000
0011
0010
0100
0000
1100
1000
,
0001
0100
0001
0000
0101
0000
1001
1000
,
0010
0000
0101
0001
0010
0000
0110
0010
,
0001
1000
1010
0000
0101
0000
0001
0000
,
0010
0001
1000
0001
,
0100
0010
0010
1000
,
0001
1000
0010
1000
,
0100
0000
1000
0001
1000
0000
0001
0000
,
0100
0001
1000
0001
,
0010
0001
0001
1000
,
0001
0000
1000
0000
0010
0000
1000
0100
,
0010
0001
2000
0000
3000
0000
0000
0000
;

//---------------dance-single - ----------------
#NOTES:
     dance-single:
     :
     Easy:
     3:
     0.200340,0.287531,0.051307,0.008551,0.000000,164.000000,158.000000,6.000000,1.000000,0.000000,0.000000,0.200340,0.287531,0.051307,0.008551,0.000000,164.000000,158.000000,6.000000,1.000000,0.000000,0.000000:
0000
0000
0000
0000
,
0000
0000
0000
0000
,
0000
0000
0000
0000
,
0000
0000
0000
0000
,
1000
0000
1000
0000
,
1000
0000
1000
0000
,
0001
0001
0001
0001
,
0100
0010
1000
0001
,
0110
0000
0000
0000
,
0000
0000
0000
0000
,
0000
0000
0000
0000
,
0000
0000
0000
0000
,
1000
0000
1000
0000
,
0001
0000
0001
0000
,
0100
0000
0100
0000
,
0010
0000
0010
0000
,
1001
0000
0001
0000
,
1000
1000
0100
0000
,
1000
0000
0010
0000
,
0100
0100
0001
0000
,
0010
0000
0001
0000
,
1000
1000
0001
0000
,
0100
0000
0001
0000
,
0010
0010
0100
0010
,
0001
0000
1000
0000
,
0010
0000
0100
0000
,
0020
0000
0000
0000
,
0000
0000
0000
0030
,
1001
0000
0000
0000
,
0000
0000
0000
0000
,
1000
0000
0000
0000
,
0000
0000
0000
0000
,
0001
0000
0001
0000
,
1000
0000
1000
0000
,
0010
0000
0010
0000
,
0100
0000
0100
0000
,
0010
0000
1000
0000
,
0001
0000
0100
0000
,
0001
0000
0010
0000
,
0001
0000
1000
0000
,
0001
0100
0001
0100
,
0010
1000
0010
1000
,
0001
0010
0100
1000
,
0000
0000
0110
0010
,
1000
0010
0100
0010
,
0001
0010
0100
0001
,
0010
0001
1000
0001
,
0100
0100
0010
1000
,
0100
1000
0001
1000
,
0010
1000
0001
1000
,
0010
1000
0100
0010
,
0001
1000
0000
0000
,
0001
0100
0010
0100
,
0001
0100
0010
1000
,
0010
0100
0010
1000
,
0010
0100
0001
0010
,
0001
1000
0100
1000
,
0001
0100
0001
0010
,
0001
1000
0010
1000
,
0100
0010
1001
0000
,
0001
0000
0100
0000
,
0010
0000
1000
0000
,
0001
0000
0100
0000
,
0010
1000
0010
0000
,
1000
0000
0100
0000
,
0010
0000
0001
0000
,
1000
0000
0001
1000
,
0010
1001
0000
0000
;

//---------------dance-single - ----------------
#NOTES:
     dance-single:
     :
     Medium:
     5:
     0.335936,0.431296,0.188124,0.025653,0.000000,275.000000,253.000000,22.000000,3.000000,0.000000,0.000000,0.335936,0.431296,0.188124,0.025653,0.000000,275.000000,253.000000,22.000000,3.000000,0.000000,0.000000:
0000
0000
0000
0000
,
0000
0000
0000
0000
,
0000
0000
0000
0000
,
0000
0000
0000
0000
,
1000
0001
1000
0001
,
1000
0001
1000
0001
,
0100
0100
0100
0100
,
0010
0000
1000
0010
0100
0001
0010
0000
,
1100
0000
0000
0000
,
0000
0000
0000
0000
,
0000
0000
0000
0000
,
0000
0000
0000
0000
,
0100
0000
1000
0000
,
0010
1000
0010
0100
,
0001
0000
1000
0000
,
0010
1000
0001
0101
,
0011
0001
0010
0010
,
0001
1000
0100
1000
,
0010
0100
0001
0001
,
1000
0010
1000
0100
,
1000
0010
0001
0001
,
0010
0100
0001
1000
,
0001
0100
1000
1000
,
0100
0010
1000
1001
,
1010
1000
1000
1000
,
0001
0001
0001
0001
,
0200
0000
0000
0000
,
0000
0000
0000
0000
,
0310
1000
0010
1000
,
0001
1000
0100
1000
,
0010
0100
0001
0100
,
0010
0100
1000
0100
,
0010
1000
0010
0100
,
0010
1000
0010
0100
,
0001
0010
0001
1000
,
0100
1000
0010
0100
,
1001
0001
0001
0001
,
1001
1000
1000
1000
,
0110
0010
0010
0010
,
0110
0100
0100
0100
,
1010
1000
1001
0001
,
0011
0010
0110
0100
,
2200
0000
0000
0000
,
3300
0000
0000
0000
1001
0000
0010
0100
,
0010
0000
0100
0010
0100
0000
0010
0100
,
0010
1000
0001
0000
1001
0000
0001
1000
,
0001
0000
1000
0001
1000
0000
0001
1000
,
0010
0000
1000
0000
1100
0000
1000
0100
,
0010
0000
0100
0010
0001
0000
0001
0010
,
0100
0000
1000
0000
1001
0000
0001
0100
,
0010
0000
0100
0010
1000
0000
0010
0100
,
0001
1000
0100
0000
0000
0000
0000
0000
,
1001
0000
0001
1000
0010
0000
1000
0001
,
0100
0001
1000
0000
1100
0000
0100
1000
,
0010
0000
0100
0001
1000
0000
0001
0010
,
0100
1000
0100
0010
0100
0000
0010
0001
,
0100
0000
0010
1000
0100
0000
0100
0010
,
0001
0100
0010
0000
1000
0000
0010
0100
,
0001
0000
1000
0001
0100
0000
1000
0100
,
0001
0010
1000
0000
1010
0000
0010
0000
,
0001
0100
0010
1000
,
0001
1000
0100
1000
,
0010
1000
0001
0100
,
0001
0000
0010
0100
1000
0000
0100
0000
,
1000
0000
0010
0100
,
0001
0000
1000
0001
,
0100
0000
0000
0000
0010
0000
0100
0010
,
1000
0001
1001
0000
0000
0000
0000
0000
;

//---------------dance-single - ----------------
#NOTES:
     dance-single:
     :
     Beginner:
     1:
     0.078181,0.144300,0.042756,0.000000,0.000000,64.000000,59.000000,5.000000,0.000000,0.000000,0.000000,0.078181,0.144300,0.042756,0.000000,0.000000,64.000000,59.000000,5.000000,0.000000,0.000000,0.000000:
0000
0000
0000
0000
,
0000
0000
0000
0000
,
0000
0000
0000
0000
,
0000
0000
0000
0000
,
0000
0000
0000
0000
,
0000
0000
0000
0000
,
0000
0000
0000
0000
,
0010
0000
0100
0000
,
1001
0000
0000
0000
,
0000
0000
0000
0000
,
0000
0000
0000
0000
,
0000
0000
0000
0000
,
1000
0000
0000
0000
,
0000
0000
0000
0000
,
1000
0000
0000
0000
,
0000
0000
0000
0000
,
0001
0000
0000
0000
,
0001
0000
0000
0000
,
0100
0000
0000
0000
,
0100
0000
0000
0000
,
0010
0000
0000
0000
,
0010
0000
0000
0000
,
1000
0000
0000
0000
,
1000
0000
0000
0000
,
1001
0000
0000
0000
,
0000
0000
0000
0000
,
0010
0000
0000
0000
,
0000
0000
0000
0000
,
0100
0000
0000
0000
,
0000
0000
0000
0000
,
0100
0000
0000
0000
,
0000
0000
0000
0000
,
0010
0000
0000
0000
,
0000
0000
0000
0000
,
0010
0000
0000
0000
,
0000
0000
0000
0000
,
1000
0000
0000
0000
,
1000
0000
0000
0000
,
0001
0000
0000
0000
,
0001
0000
0000
0000
,
0100
0000
0000
0000
,
0010
0000
0000
0000
,
1000
0000
0001
0000
,
0000
0000
1001
0000
,
0000
0001
0000
0000
,
0001
0000
1000
0000
,
0000
1000
0000
0000
,
1000
0000
1000
0000
,
0001
0000
0000
0100
,
0000
0000
0010
0000
,
1000
0000
0010
0000
,
0100
0000
0000
0000
,
1001
0000
0001
0000
,
0001
0000
0000
0000
,
1000
0000
1000
0000
,
1000
0000
0000
0000
,
0010
0000
0010
0000
,
0010
0000
0000
0000
,
0100
0000
0100
0000
,
0010
0000
1000
0000
,
0000
0000
0000
0000
,
0000
0000
0001
0000
,
0000
0000
0000
0000
,
0000
0000
0100
0000
,
0000
0000
0000
0000
,
0000
0000
0010
0000
,
0000
0000
1000
0000
,
0001
0000
0110
0000
;

//---------------dance-single - ----------------
#NOTES:
     dance-single:
     :
     Challenge:
     9:
     0.569259,0.843139,0.247982,0.111164,0.295013,466.000000,437.000000,29.000000,13.000000,0.000000,0.000000,0.569259,0.843139,0.247982,0.111164,0.295013,466.000000,437.000000,29.000000,13.000000,0.000000,0.000000:
// measure 0
0000
0000
0000
0000
,  // measure 1
0000
0000
0000
0000
,  // measure 2
0000
0000
0000
0000
,  // measure 3
0000
0000
0000
0000
,  // measure 4
1000
0000
0001
0100
0001
0000
0100
0010
0100
0000
0010
1000
0010
0000
1000
0001
,  // measure 5
1000
0000
0010
0100
0010
0000
1000
0010
1000
0000
0100
0001
0100
0000
0001
0010
,  // measure 6
0001
1000
0010
1000
0010
1000
0010
1000
0010
1000
0010
1000
0010
1000
0010
1000
,  // measure 7
0010
0000
1000
0100
0040
0000
0034
0000
0403
0000
0340
0000
0130
0000
0000
0000
,  // measure 8
2002
0000
0000
0000
,  // measure 9
0000
0000
0000
0000
,  // measure 10
3003
0000
0000
0000
,  // measure 11
0000
0000
0000
0000
,  // measure 12
1001
0000
0000
0000
0001
0000
0010
0000
0001
0000
0000
0001
0000
0000
0001
0000
,  // measure 13
1000
0000
0010
0000
0100
0000
0001
0000
0010
0000
0100
0010
0000
0000
0001
0000
,  // measure 14
1000
0000
0000
0000
0001
0000
0100
0000
0010
0000
0000
0010
0000
0000
0100
0000
,  // measure 15
0010
0000
1000
0000
0001
0000
0100
0000
0001
0000
0010
0100
2000
0000
0000
0000
,  // measure 16
3010
0000
0000
0000
0100
0000
0100
0000
0001
0000
0000
1000
0000
0000
0100
0000
,  // measure 17
1000
0000
0010
0000
0001
0000
0010
0000
0100
0000
0001
0010
0000
0010
0100
0000
,  // measure 18
1100
0000
0000
0000
0100
0000
0100
0000
1000
0000
0000
0010
0000
0000
1000
0000
,  // measure 19
0001
0000
0010
0000
0001
0000
1000
0000
0100
0000
0010
0001
0000
0001
0100
0000
,  // measure 20
0110
0000
0000
0000
0100
0000
0001
0000
0010
0000
0000
1000
0000
0000
0010
0000
,  // measure 21
0001
0000
0010
0000
0001
0000
1000
0000
0001
0000
0100
0010
0000
0010
1000
0000
,  // measure 22
1010
0000
0000
0000
1000
0000
0001
0000
0010
0000
0000
0100
0000
0000
0010
0000
,  // measure 23
0001
0000
1000
0000
0010
0000
0100
0000
0001
0000
1000
0001
0010
0000
0000
0000
,  // measure 24
0100
0100
0100
0100
,  // measure 25
0100
0100
0100
0100
,  // measure 26
2004
0000
0000
0000
,  // measure 27
0000
0000
0000
3003
,  // measure 28
0110
0000
0001
0100
1000
0000
1000
0100
,  // measure 29
0001
0000
0001
0100
1000
0100
0010
0000
,  // measure 30
1010
0000
1000
0010
0001
0000
0001
0010
,  // measure 31
1000
0000
1000
0010
0001
0010
0100
0001
,  // measure 32
1000
0000
0001
1000
0010
0000
1000
0001
,  // measure 33
0010
0000
0001
1000
0010
0100
0010
0000
,  // measure 34
1001
0000
0001
1000
0100
0000
1000
0001
,  // measure 35
0100
0000
0001
1000
0010
0100
0001
0000
,  // measure 36
1000
0000
0001
0100
0001
0000
0100
0010
0100
0000
0000
0100
0000
0000
0100
0000
,  // measure 37
0010
0000
1000
0010
1000
0000
0001
0100
0001
0000
0000
0001
0000
0000
0001
0000
,  // measure 38
1000
0000
0100
1000
0100
0000
0100
0010
0100
0000
0000
0010
0000
0000
0010
0000
,  // measure 39
0001
0000
0100
0001
0100
0000
0010
0100
0010
0000
0000
0010
0000
0000
0010
0000
,  // measure 40
1000
0000
0001
1000
0010
0000
0100
0001
0010
0000
0100
1000
0010
0000
0100
0001
,  // measure 41
1000
0000
0001
1000
0100
0000
1000
0001
0100
0000
0010
1000
0001
0000
0010
0100
,  // measure 42
1000
0010
0100
0001
0010
0100
0010
0001
0100
0010
1000
0001
0010
0100
1000
0001
,  // measure 43
2000
0000
3020
0000
0230
0000
0010
0300
1001
0000
0000
0000
0011
0000
0001
0000
,  // measure 44
0100
0000
0000
0000
1010
0000
1000
0000
0100
0000
0010
0001
0010
0000
0001
0000
,  // measure 45
1000
0100
1000
0000
0101
0000
0101
0100
,  // measure 46
0010
0000
0110
0010
1000
0000
1001
0001
,  // measure 47
0010
0000
0100
0000
2000
0000
3100
1000
0100
0000
0000
0000
1100
0000
1000
0000
,  // measure 48
0010
0000
0000
0000
0110
0000
0100
0000
0001
0000
0010
0001
0010
0000
0001
0000
,  // measure 49
1000
0010
1000
0000
1001
0000
0011
0010
,  // measure 50
0100
0000
0000
0000
1100
0000
1000
0000
0001
0000
0400
0340
4030
0000
3004
0000
,  // measure 51
0043
0000
0430
0300
2002
0000
0000
0000
0000
0000
0000
0000
3003
0000
0000
0000
,  // measure 52
0110
0000
0000
0000
0010
0000
1000
0000
0100
0000
0010
0100
1000
0000
0001
0000
,  // measure 53
0100
0001
1000
0000
1001
0000
1000
0001
,  // measure 54
0100
0001
0010
0100
0010
0001
1000
0010
,  // measure 55
0100
0001
2100
0000
3010
0000
0001
1000
,  // measure 56
0010
0000
0100
0000
0001
0000
0010
0000
0001
0000
1000
0010
1000
0000
0001
0000
,  // measure 57
0100
0010
1000
0000
0011
0000
0001
1000
,  // measure 58
0100
0000
1000
0000
0001
0000
0100
0000
0040
0000
0030
0000
0001
1000
0100
0000
,  // measure 59
0040
0034
0103
0000
0110
0000
0010
1000
,  // measure 60
0100
0000
0000
0000
0010
0000
0001
0000
0100
0000
0010
0100
0010
0000
1000
0000
,  // measure 61
0100
0010
0001
0000
0011
0000
0001
0010
,  // measure 62
1000
0000
1000
0010
0001
0000
0001
0010
,  // measure 63
1000
0000
0010
0000
0400
0300
0400
0300
1000
0000
0000
0000
1000
0000
0100
0000
,  // measure 64
0010
0000
0010
0001
0100
0000
0010
0100
,  // measure 65
0010
1000
0001
0000
1000
0000
0100
1000
,  // measure 66
0010
0000
0000
0000
0100
0000
0010
0000
4000
0000
3000
0000
0001
0100
0001
0000
,  // measure 67
0004
0043
0130
0000
2002
0000
0000
0000
,  // measure 68
3003
0000
0000
0000
;
