#VERSION:0.83;
#TITLE:Gabber Mafia;
#SUBTITLE:;
#ARTIST:Neophyte;
#TITLETRANSLIT:;
#SUBTITLETRANSLIT:;
#ARTISTTRANSLIT:;
#GENRE:;
#ORIGIN:;
#CREDIT:;
#BANNER:Gabber Mafia.png;
#BACKGROUND:Gabber Mafia-bg.png;
#PREVIEWVID:;
#JACKET:Gabber Mafia-jacket.png;
#CDIMAGE:;
#DISCIMAGE:;
#LYRICSPATH:;
#CDTITLE:;
#MUSIC:Gabber Mafia.ogg;
#OFFSET:-4.669000;
#SAMPLESTART:46.590961;
#SAMPLELENGTH:9.320385;
#SELECTABLE:YES;
#BPMS:0.000=206.000;
#STOPS:76.000=0.854,
201.000=0.874,
294.000=0.874;
#DELAYS:;
#WARPS:;
#TIMESIGNATURES:0.000=4=4;
#TICKCOUNTS:0.000=4;
#COMBOS:0.000=1;
#SPEEDS:0.000=1.000=0.000=0;
#SCROLLS:0.000=1.000;
#FAKES:;
#LABELS:0.000=Song Start;
#BGCHANGES:;
#KEYSOUNDS:;
#ATTACKS:
;

//---------------dance-single - ----------------
#NOTEDATA:;
#CHARTNAME:;
#STEPSTYPE:dance-single;
#DESCRIPTION:;
#CHARTSTYLE:;
#DIFFICULTY:Hard;
#METER:8;
#RADARVALUES:0.465098,0.559062,0.211620,0.138367,0.000000,400.000000,374.000000,26.000000,17.000000,0.000000,0.000000,0.000000,0.000000,0.000000,0.465098,0.559062,0.211620,0.138367,0.000000,400.000000,374.000000,26.000000,17.000000,0.000000,0.000000,0.000000,0.000000,0.000000;
#CREDIT:;
#NOTES:
0000
0000
0000
0000
,
0000
0000
0000
0000
,
0000
0000
0000
0000
,
0000
0000
0000
0000
,
0001
0100
0001
0000
0100
0000
0010
0000
,
1000
0100
1000
0000
0100
0000
0010
0000
,
0001
0010
0001
0000
0010
0000
0100
0000
,
1000
0100
1000
0000
0001
0100
0010
0000
,
1000
0100
1000
0000
0010
0000
0100
0000
,
0001
0100
0001
0000
0010
0000
0100
0000
,
1000
0010
1000
0000
0010
0000
0100
0000
,
0001
0100
0010
0000
1001
0000
0000
0000
,
1000
0001
0010
0000
0100
0000
1000
0000
,
0001
1000
0010
0000
1010
0000
1010
0000
,
1000
0001
0010
0000
0100
0000
0010
0000
,
0001
1000
0010
0000
0101
0000
0101
0000
,
0001
1000
0100
0000
0010
0000
0100
0000
,
0010
0001
0100
0000
1001
0000
1001
0000
,
0010
0000
0100
0000
,
2002
3003
0000
0000
,
0000
0000
0000
0000
,
0000
0000
0000
0000
,
0000
0000
0000
1001
,
0000
0000
0000
0000
,
0000
0000
0000
0000
,
0000
0000
0000
0000
,
0000
0000
0000
0000
0000
1001
1001
0000
,
0000
0001
0001
0001
,
0001
1000
0010
0000
0010
0000
0010
0000
,
0000
0100
0010
1000
,
0001
0010
0100
1100
,
1000
0001
0100
0000
0010
0200
0000
0300
,
0000
0200
0000
0300
0000
0000
0000
0000
,
0010
1000
0001
0000
0000
0000
0001
0100
,
0010
0000
1000
0000
0001
1000
0000
0000
,
0000
0001
0001
0001
,
0001
1000
0100
0000
0100
0000
0100
0000
,
0000
0100
0010
0000
0010
0000
0010
0000
,
0010
0001
1000
0000
1000
0000
1000
1000
,
1000
0001
0001
0001
,
0001
1000
0010
0000
0010
0000
0010
0000
,
0000
0010
0100
0000
0100
0000
0100
0000
,
0100
0010
1000
0000
1000
0001
1000
0000
,
0001
1000
0001
0000
1000
0000
0100
0000
,
1000
0010
0100
0000
0001
0000
0010
0000
,
0000
0100
0010
0000
0001
0000
0010
0000
,
0100
1000
0010
0000
0100
0000
0001
0000
,
0000
1000
0100
1000
,
0010
0001
0010
0000
0100
0000
0010
0000
,
0000
0100
0001
0000
0100
0000
0010
0000
,
1000
0001
0100
0000
0001
0000
0000
0000
,
0000
0000
0000
0000
0000
0100
0100
0000
,
0100
0000
0000
0001
0001
0000
0000
0000
,
0000
0000
0000
0000
0000
0010
0010
0000
,
0010
0000
0001
0000
,
0000
0000
0000
0000
0000
0010
0010
0000
,
0010
0000
0000
0001
1000
0000
0000
0000
,
0000
0000
0001
0100
0010
0000
0100
0010
,
1000
0000
1001
0000
,
1000
0000
0000
0000
1000
0010
0010
0000
,
0010
0100
0000
0100
0100
0000
0000
0000
,
0001
0000
0000
0000
1000
0001
0001
0000
,
0001
0100
0100
0000
,
0010
0000
0000
0000
1000
0100
0100
0000
,
0110
0010
0010
0000
0010
0000
0000
0000
,
0001
0000
1000
0001
0010
0000
0001
1000
,
0100
0000
0000
0000
1000
0001
1000
0000
,
0001
0000
1000
0000
0010
1000
0010
0000
,
1000
0000
0010
0000
0100
0001
0100
0000
,
0001
0000
0100
0000
0010
1000
0010
0000
,
1000
0000
0001
0000
0010
0001
0010
0000
,
0100
0000
1000
0000
0100
1000
0100
0000
,
1000
0010
0200
0000
,
0320
0000
0030
0100
,
0100
0001
0100
0000
0100
0010
0100
0000
,
0100
0001
0100
0010
1000
0000
0010
0000
,
0100
0010
1000
0001
0010
0100
0010
0000
,
0001
1000
0100
0000
0000
0000
0010
0000
,
0010
0001
0010
0000
0010
0100
0010
0000
,
0010
0100
0010
0001
1000
0000
0001
0000
,
1000
0010
1000
0010
0100
0001
0010
0000
,
0100
1000
0001
0000
0000
0000
1001
0000
,
0001
1000
0010
0000
1000
0001
0010
0000
,
0001
0010
0100
0010
0001
0000
1000
0000
,
0001
0100
0001
1000
0100
1000
0001
0000
,
1000
0001
1000
0000
0000
0000
1001
0000
,
1000
0001
0100
0000
0001
1000
0100
0000
,
1000
0100
0010
0100
1000
0000
0001
0000
,
1000
0010
1000
0001
0010
0001
1000
0000
,
0001
0001
1000
0000
0000
0000
0200
0000
,
0000
0000
2300
3020
,
0000
0030
0110
0000
0110
0000
0200
0000
,
0000
0302
0000
2000
,
0000
3003
1001
0000
1001
0000
0002
0000
,
0000
0000
2003
3020
,
0000
0030
0110
0000
0110
0000
1001
0000
,
0000
0110
0000
1001
,
0000
0000
0000
1000
0000
1000
2002
0000
,
3000
0003
0000
0000
0000
0000
0000
0000
;

//---------------dance-single - ----------------
#NOTEDATA:;
#CHARTNAME:;
#STEPSTYPE:dance-single;
#DESCRIPTION:;
#CHARTSTYLE:;
#DIFFICULTY:Medium;
#METER:7;
#RADARVALUES:0.406961,0.559062,0.219759,0.122088,0.000000,350.000000,323.000000,27.000000,15.000000,0.000000,0.000000,0.000000,0.000000,0.000000,0.406961,0.559062,0.219759,0.122088,0.000000,350.000000,323.000000,27.000000,15.000000,0.000000,0.000000,0.000000,0.000000,0.000000;
#CREDIT:;
#NOTES:
0000
0000
0000
0000
,
0000
0000
0000
0000
,
0000
0000
0000
0000
,
0000
0000
0000
0000
,
0001
1000
0010
0010
,
1000
0001
0100
0100
,
0001
0010
0100
0100
,
0010
0000
0001
0000
1000
0001
1000
0000
,
0001
1000
0010
0010
,
1000
0010
1000
1000
,
0010
0100
0001
0001
,
1000
0001
0100
0000
1001
0000
0000
0000
,
0001
0100
0001
0000
0100
0000
0010
0000
,
1000
0010
1000
0000
1001
0000
1001
0000
,
0001
0100
0001
0000
1000
0000
0001
0000
,
0010
0001
0010
0000
0011
0000
1100
0000
,
0100
1000
0100
0000
1000
0000
0010
0000
,
0100
0010
0100
0000
0110
0000
1001
0000
,
0101
0000
1010
0000
,
1001
0000
0000
0000
,
0000
0000
0000
0000
,
0000
0000
0000
0000
,
0000
0000
0000
0010
,
0000
0000
0000
0000
,
0000
0000
0000
0000
,
0000
0000
0000
0000
,
0000
0000
0000
0000
0000
0010
0010
0000
,
0000
0100
0100
0100
,
0001
0100
0010
0000
0010
0000
0010
0000
,
0000
1000
0001
0100
,
0001
1000
0001
0000
,
1000
0000
0001
0000
0000
0200
0000
0000
,
0000
0020
0000
0000
0000
0000
0000
0000
,
0300
0000
0000
0030
,
0000
0000
0000
0000
,
0000
1000
0001
0100
,
0001
1000
0010
0000
1000
0000
0001
0000
,
0000
1000
0100
0000
1000
0000
0010
0000
,
0100
0001
0010
0000
0100
0000
0010
0000
,
0000
0100
0010
1000
,
0001
0100
0001
0000
0100
0000
0010
0000
,
0000
1000
0010
0000
0100
0000
0001
0000
,
1000
0001
0100
0000
0001
0000
1000
0000
,
0000
0100
1000
0010
,
0100
0001
0010
0000
0100
0000
1000
0000
,
0000
0100
1000
0000
0010
0000
0100
0000
,
0001
1000
0010
0000
1000
0000
0001
0000
,
0000
0100
0001
0010
,
0100
1000
0010
0000
0100
0000
0001
0000
,
0000
1000
0001
0000
0100
0000
0001
0000
,
0010
0100
1000
0000
1001
0000
0000
0000
,
0000
0000
0000
0000
,
0000
0000
0000
0001
1000
0000
0000
0000
,
0000
0000
0000
0000
,
0000
0000
0001
0000
,
0000
0000
0000
0000
,
0000
0000
0000
1000
0001
0000
0000
0000
,
0000
1000
0001
0100
,
0001
0000
1001
0000
,
0001
0000
0100
0000
,
0010
1000
0000
0001
0101
0000
0000
0000
,
0100
0000
0001
0000
,
0010
0110
1100
0000
,
1000
0000
0010
0000
,
0010
1000
0001
0000
1001
0000
0000
0000
,
0001
1000
0010
0100
,
0001
0000
1001
0001
,
0001
0001
1001
1000
,
1000
1000
1001
0001
,
0001
0001
1001
1000
,
1000
1001
0110
0010
,
0010
0010
0110
0100
,
0100
0100
0020
0000
,
2030
0000
3000
0001
,
0100
0001
0100
0000
0001
0100
0001
0000
,
0100
0001
0100
0001
0100
0000
0001
0000
,
0100
0001
0100
0001
0100
0001
0100
0000
,
0001
0100
0001
0000
0000
0000
1000
0000
,
0010
1000
0010
0000
1000
0010
1000
0000
,
0010
1000
0010
1000
0010
0000
1000
0000
,
0010
1000
0010
1000
0010
1000
0010
0000
,
1000
0010
1000
0000
0000
0000
0001
0000
,
0001
1000
0001
0000
1000
0001
1000
0000
,
0001
1000
0001
1000
0001
0000
1000
0000
,
0001
1000
0001
1000
0001
1000
0001
0000
,
1000
0001
1000
0000
0000
0000
0010
0000
,
0100
0010
0100
0000
0010
0100
0010
0000
,
0100
0010
0100
0010
0100
0000
0010
0000
,
0100
0010
0100
0010
0100
0010
0100
0000
,
0010
0100
0010
0000
0000
0000
0200
0000
,
0000
0000
0302
2003
,
0000
3001
0001
2000
,
0000
3002
0000
0023
,
0000
0130
0100
0020
,
0000
0000
0230
2300
,
0000
0100
3100
1100
,
0000
0011
0000
1010
,
0000
0000
0000
2002
,
0000
3003
0000
0000
0000
0000
0000
0000
;

//---------------dance-single - ----------------
#NOTEDATA:;
#CHARTNAME:;
#STEPSTYPE:dance-single;
#DESCRIPTION:;
#CHARTSTYLE:;
#DIFFICULTY:Easy;
#METER:5;
#RADARVALUES:0.293012,0.439263,0.089531,0.056974,0.000000,252.000000,241.000000,11.000000,7.000000,0.000000,0.000000,0.000000,0.000000,0.000000,0.293012,0.439263,0.089531,0.056974,0.000000,252.000000,241.000000,11.000000,7.000000,0.000000,0.000000,0.000000,0.000000,0.000000;
#CREDIT:;
#NOTES:
0000
0000
0000
0000
,
0000
0000
0000
0000
,
0000
0000
0000
0000
,
0000
0000
0000
0000
,
0001
1000
0001
1000
,
0001
1000
0001
1000
,
0001
1000
0001
1000
,
0001
1000
0010
0010
,
1000
0001
1000
0001
,
1000
0001
1000
0001
,
1000
0001
1000
0001
,
1000
0001
0110
0000
,
0100
0010
0100
0001
,
0100
0010
1000
1000
,
0010
0100
0001
1000
,
0100
0010
0110
0110
,
0010
0001
0010
0100
,
1000
0001
1000
1000
,
1001
0000
0110
0000
,
1001
0000
0000
0000
,
0000
0000
0000
0000
,
0000
0000
0000
0000
,
0000
0000
0000
0001
,
0000
0000
0000
0000
,
0000
0000
0000
0000
,
0000
0000
0000
0000
,
0000
0000
0000
0000
0000
1000
0001
0000
,
0000
1000
0001
1000
,
0001
0010
0010
0010
,
0000
0001
0000
1000
,
0000
0010
0000
0100
,
0000
0010
0000
1000
,
0000
0001
0000
0000
,
0000
0000
0000
0000
,
0000
0000
0000
0000
,
0000
0100
0010
1000
,
0001
0010
0010
0010
,
0000
0001
0010
0100
,
1000
0001
0001
0001
,
0000
1000
0001
0100
,
0001
1000
1000
1000
,
0000
0010
0100
0010
,
1000
0001
0001
0001
,
0000
1000
0100
0001
,
0100
0010
0010
0010
,
0000
0010
0100
1000
,
0001
0100
0100
0100
,
0000
0001
0001
0001
,
1000
0010
0100
0010
,
0000
0100
0100
0001
,
0100
0010
1000
0000
,
0000
0000
0000
0000
,
0000
0000
0000
0001
1000
0000
0000
0000
,
0000
0000
0000
0000
,
0000
0000
0001
0000
,
0000
0000
0000
0000
,
0000
0000
0000
1000
0001
0000
0000
0000
,
0000
0000
0000
0000
,
0000
0000
1000
0000
,
1000
0000
1000
0000
,
1000
0001
0010
0000
,
0010
0000
0010
0100
,
0100
0000
0010
0000
,
0001
0000
0100
0010
,
0010
0000
0100
0000
,
0010
0000
1000
0000
,
0001
0000
1001
0000
,
0001
0000
1000
0000
,
0001
0000
1001
0000
,
1000
0000
0010
0000
,
0100
0000
1001
0000
,
0001
0000
1001
0000
,
1000
0000
0002
0000
,
0203
0000
0300
0010
,
1000
0010
0100
0001
,
0010
0100
0100
0010
,
0001
1000
0010
0100
,
0100
0100
0000
0010
,
1000
0001
0010
0001
,
1000
0001
0001
1000
,
0100
1000
0001
0100
,
0100
0100
0000
0001
,
0010
1000
0010
0100
,
1000
0100
0100
1000
,
0100
0001
0100
0010
,
0010
0010
0000
0100
,
0001
0100
1000
0010
,
0001
0010
1000
0010
,
0100
0001
1000
0010
,
0010
0010
0000
1000
,
0000
0000
0001
0200
,
0000
0300
0000
0010
,
0000
1000
0000
0002
,
0000
0003
0000
1000
,
0000
0000
0100
0020
,
0000
0030
0000
0100
,
0000
1000
0000
0001
,
0000
0000
0000
2002
,
0000
3003
0000
0000
0000
0000
0000
0000
;

//---------------dance-single - ----------------
#NOTEDATA:;
#CHARTNAME:;
#STEPSTYPE:dance-single;
#DESCRIPTION:;
#CHARTSTYLE:;
#DIFFICULTY:Beginner;
#METER:3;
#RADARVALUES:0.193016,0.358024,0.056974,0.000000,0.000000,166.000000,159.000000,7.000000,0.000000,0.000000,0.000000,0.000000,0.000000,0.000000,0.193016,0.358024,0.056974,0.000000,0.000000,166.000000,159.000000,7.000000,0.000000,0.000000,0.000000,0.000000,0.000000,0.000000;
#CREDIT:;
#NOTES:
// measure 0
0000
0000
0000
0000
,  // measure 1
0000
0000
0000
0000
,  // measure 2
0000
0000
0000
0000
,  // measure 3
0000
0000
0000
0000
,  // measure 4
1000
0000
0000
0000
,  // measure 5
0001
0000
0000
0000
,  // measure 6
0100
0000
0000
0000
,  // measure 7
0010
0000
0100
0000
,  // measure 8
0010
0000
0000
0000
,  // measure 9
1000
0000
0000
0000
,  // measure 10
0100
0000
0000
0000
,  // measure 11
1000
0000
0001
0000
,  // measure 12
0100
0000
0000
0000
,  // measure 13
0010
0000
0100
0100
,  // measure 14
0010
0000
0000
0000
,  // measure 15
1000
0000
1001
1001
,  // measure 16
0001
0000
0000
0000
,  // measure 17
1000
0000
0010
0010
,  // measure 18
0100
0000
0100
0000
,  // measure 19
0100
0000
0000
0000
,  // measure 20
0000
0000
0000
0000
,  // measure 21
0000
0000
0000
0000
,  // measure 22
0000
0000
0000
0010
,  // measure 23
0000
0000
0000
0000
,  // measure 24
0000
0000
0000
0000
,  // measure 25
0000
0000
0000
0000
,  // measure 26
0000
0000
0000
0010
,  // measure 27
0000
1000
1000
1000
,  // measure 28
1000
1000
1000
1000
,  // measure 29
0000
0000
0000
0000
,  // measure 30
0000
0000
0000
0100
,  // measure 31
0000
1000
0000
0000
,  // measure 32
0000
0001
0000
0000
,  // measure 33
0000
0000
0000
0000
,  // measure 34
0000
0000
0000
0000
,  // measure 35
0000
0001
0001
0001
,  // measure 36
0000
1000
1000
1000
,  // measure 37
0000
0010
0010
0010
,  // measure 38
0100
0010
0010
0010
,  // measure 39
0000
1000
1000
1000
,  // measure 40
0000
0001
0001
0001
,  // measure 41
0000
0100
0100
0100
,  // measure 42
0010
0100
0100
0100
,  // measure 43
0000
0001
0001
0001
,  // measure 44
0000
1000
1000
1000
,  // measure 45
0000
0010
0010
0010
,  // measure 46
0100
0010
0010
0010
,  // measure 47
0000
1000
1000
1000
,  // measure 48
0000
0010
0010
0010
,  // measure 49
0000
0100
0100
0100
,  // measure 50
0010
0100
1001
0000
,  // measure 51
0000
0000
0000
0000
,  // measure 52
0000
0000
1000
0000
,  // measure 53
0000
0000
0000
0000
,  // measure 54
0000
0000
0001
0000
,  // measure 55
0000
0000
0000
0000
,  // measure 56
0000
0000
1000
0000
,  // measure 57
0000
0000
0000
0000
,  // measure 58
0000
0000
0010
0000
,  // measure 59
0000
0000
0000
0000
,  // measure 60
0000
0100
0100
0000
,  // measure 61
0000
0000
0000
0000
,  // measure 62
0000
0010
0010
0000
,  // measure 63
0000
0000
0000
0000
,  // measure 64
1000
1000
1000
0000
,  // measure 65
0000
0000
0000
0000
,  // measure 66
0000
0000
0001
0000
,  // measure 67
0000
0000
1000
0000
,  // measure 68
0000
0000
0010
0000
,  // measure 69
0000
0000
0100
0000
,  // measure 70
0000
0000
0010
0000
,  // measure 71
0000
0000
1000
0000
,  // measure 72
0000
0000
0001
0000
,  // measure 73
1000
0000
0000
1000
,  // measure 74
0000
1000
0000
1000
,  // measure 75
0000
0001
1000
0001
,  // measure 76
0000
0001
0000
0100
,  // measure 77
0100
0100
0000
0010
,  // measure 78
0000
0100
0000
0010
,  // measure 79
0000
0100
0100
0010
,  // measure 80
0000
1000
0000
0001
,  // measure 81
0001
0001
0000
0010
,  // measure 82
0000
0001
0000
1000
,  // measure 83
0000
0100
0100
1000
,  // measure 84
0000
0010
0010
0100
,  // measure 85
0000
0010
0000
0100
,  // measure 86
0000
0001
0000
1000
,  // measure 87
0000
0001
0001
1000
,  // measure 88
0000
0010
0010
0100
,  // measure 89
0000
0000
0000
0010
,  // measure 90
0000
0000
1000
1000
,  // measure 91
0000
0000
0000
0001
,  // measure 92
0000
1000
0000
0100
,  // measure 93
0000
0000
0000
1000
,  // measure 94
0000
0000
0010
1000
,  // measure 95
0000
0000
0000
1001
,  // measure 96
0000
0110
0000
1001
,  // measure 97
0000
0000
0000
1001
;
