#TITLE:GOODRAGE;
#SUBTITLE:;
#ARTIST:EBIMAYO;
#TITLETRANSLIT:;
#SUBTITLETRANSLIT:;
#ARTISTTRANSLIT:;
#GENRE:;
#CREDIT:;
#BANNER:GOODRAGE.png;
#BACKGROUND:GOODRAGE-bg.png;
#LYRICSPATH:;
#CDTITLE:CDtitle.png;
#MUSIC:GOODRAGE.ogg;
#OFFSET:-0.223000;
#SAMPLESTART:91.033806;
#SAMPLELENGTH:12.972977;
#SELECTABLE:YES;
#BPMS:0.000000=222.000000
;
#STOPS:
;
#BGCHANGES:;
#KEYSOUNDS:;
#ATTACKS:;

//---------------dance-single - ----------------
#NOTES:
     dance-single:
     :
     Hard:
     11:
     0.788970,1.124550,0.208250,0.308210,0.158270,663.000000,638.000000,25.000000,37.000000,0.000000,0.000000,0.788970,1.124550,0.208250,0.308210,0.158270,663.000000,638.000000,25.000000,37.000000,0.000000,0.000000:
// measure 0
0000
0000
0000
0000
,  // measure 1
0000
0000
0000
0000
,  // measure 2
0000
0000
0000
0000
,  // measure 3
0000
0000
0000
0000
,  // measure 4
0000
0000
0000
0000
,  // measure 5
0000
0000
0000
0000
,  // measure 6
0000
0000
0000
0000
,  // measure 7
0000
0000
0000
0000
,  // measure 8
0001
0100
0020
0000
,  // measure 9
1030
0000
0000
1001
0000
0000
0000
0000
,  // measure 10
1000
0100
0020
0000
,  // measure 11
0130
0000
0000
1100
0000
0101
0000
0000
,  // measure 12
0001
0100
0020
0000
,  // measure 13
0130
0000
0000
1010
0000
0000
0000
0000
,  // measure 14
2000
3100
0002
0013
,  // measure 15
0001
0010
0100
1000
0001
0010
0100
0000
,  // measure 16
0010
0001
0100
0010
,  // measure 17
1000
0000
0001
0000
0010
0000
0001
0100
,  // measure 18
0001
0100
0010
1000
,  // measure 19
0100
0010
0100
1000
,  // measure 20
0010
1000
0010
1000
0001
0100
0001
0100
,  // measure 21
0001
0010
0001
0010
0100
1000
0100
1000
,  // measure 22
0001
1000
0001
1000
0001
1000
0001
1000
0001
1000
0001
1000
0001
1000
0001
1000
,  // measure 23
0001
0000
0100
0001
0000
0001
0020
0000
0000
0030
0000
0000
,  // measure 24
1100
0000
1000
0001
0100
0100
0001
1000
,  // measure 25
0200
0000
1300
0020
0000
0130
0001
0010
,  // measure 26
0100
0000
0010
0001
1000
0001
1000
0000
,  // measure 27
0001
0000
0100
0001
0100
0000
0010
0000
1000
0000
0100
0000
1000
0000
0000
0000
,  // measure 28
0010
0000
0100
0001
0010
1000
0010
0100
,  // measure 29
0020
0000
0031
1000
0001
1000
0002
0000
,  // measure 30
1003
0010
1000
0010
0100
0001
0100
0001
,  // measure 31
0010
0001
0010
0001
0010
0100
1000
0001
,  // measure 32
1000
0000
0010
0010
0100
0100
0001
1000
,  // measure 33
0200
0000
1300
0020
0000
0130
0001
1000
,  // measure 34
0001
0000
1000
0100
0010
0010
0010
0000
,  // measure 35
0100
0000
0010
0100
0010
0000
0100
0000
1000
0000
0001
0000
0100
0000
0000
0000
,  // measure 36
1001
0000
1000
0001
0100
0100
0010
0010
,  // measure 37
2000
0000
3010
0100
0001
0010
0001
0000
,  // measure 38
1000
0100
0010
0100
1000
0001
0010
0100
,  // measure 39
1000
0100
0010
0001
2000
0200
3000
0300
,  // measure 40
0011
0000
0001
0100
0010
1000
0100
0001
,  // measure 41
0200
0000
0310
0002
0000
1003
0001
0100
,  // measure 42
0001
0000
1000
1000
0001
0010
0001
0000
,  // measure 43
1000
0000
0010
1000
0010
0000
0100
0000
0001
0000
0010
0000
0001
0000
0000
0000
,  // measure 44
1100
0000
0100
0010
0001
0001
1000
0010
,  // measure 45
0200
0000
0310
1000
0010
1000
0100
0000
,  // measure 46
0010
0001
0100
0010
1000
0001
0010
0001
,  // measure 47
1000
0100
1000
0001
0100
0010
1000
0001
,  // measure 48
1000
1000
0001
0001
,  // measure 49
0200
0000
0310
0200
0000
0310
1000
0001
,  // measure 50
0100
0010
1000
0001
,  // measure 51
0001
1000
0100
0010
0001
0010
0100
0010
,  // measure 52
0001
0010
0001
0010
0100
1000
0100
1000
,  // measure 53
0001
1000
0001
1000
0010
0100
0010
0100
,  // measure 54
0001
0100
0010
1000
0001
0100
0010
1000
,  // measure 55
0100
0001
0100
1000
0010
0001
0010
1000
,  // measure 56
0200
0000
0320
0000
0031
0100
0010
0000
,  // measure 57
2000
0000
3002
0000
0013
0001
0100
0000
,  // measure 58
0020
0000
2030
0000
3100
0010
0001
0000
,  // measure 59
2000
0000
3002
0000
0103
0001
0010
0000
,  // measure 60
0200
0000
0320
0000
0031
0010
0100
0000
,  // measure 61
0020
0000
0230
0000
1300
0010
0100
0000
,  // measure 62
0010
1000
0100
1000
0010
0100
0010
1000
,  // measure 63
0100
0000
0010
0001
0010
0001
0010
0001
,  // measure 64
1000
0000
0101
0000
0001
0100
0010
0000
,  // measure 65
1000
0000
1010
0000
1000
0010
0100
0000
,  // measure 66
0010
0000
0110
0000
0010
0100
0001
0000
,  // measure 67
1000
0000
1100
0000
0100
0010
0001
0000
,  // measure 68
0010
0000
0110
0000
0100
1000
0010
0000
,  // measure 69
0100
0000
0101
0000
0001
1000
0010
0000
,  // measure 70
0100
0000
1001
0000
0001
0010
0100
0000
,  // measure 71
0010
0000
0001
0100
0001
0100
0001
0000
,  // measure 72
1001
0000
0000
0000
1000
0000
0010
0000
0100
0010
1000
0000
1000
0000
0001
0000
,  // measure 73
0020
0000
0130
0020
0000
0031
1000
1000
,  // measure 74
0001
0000
0100
0010
1000
0001
1000
0000
,  // measure 75
0001
0000
1000
0010
0100
0000
0001
0000
1000
0000
0100
0000
0010
0000
0000
0000
,  // measure 76
1001
0000
0000
0000
0001
0000
1000
0000
0010
1000
0100
0000
0010
0000
0100
0000
,  // measure 77
0002
0000
1003
0200
0000
1300
0010
0100
,  // measure 78
0001
0000
0001
0100
0010
1000
0010
0000
,  // measure 79
1000
0000
0001
0100
0010
0000
1000
0000
0100
0000
1000
0000
0001
0000
0000
0000
,  // measure 80
1000
0010
1000
0010
0100
0001
0100
0001
,  // measure 81
0010
0001
0010
0001
1000
0100
1000
0100
,  // measure 82
0010
0001
0010
0001
0010
0001
0010
0001
0010
0001
0010
0001
0010
0001
0010
0001
,  // measure 83
4000
0004
0000
0000
0000
0000
0000
0000
0000
0000
0000
0000
0000
0000
3003
0000
,  // measure 84
1000
0000
0001
0100
0010
1000
0001
0010
,  // measure 85
0000
0100
1000
0100
0001
0100
1000
0100
,  // measure 86
0010
0001
0000
0100
0000
0010
1000
0100
,  // measure 87
0000
0010
0001
0100
0000
0010
1000
0000
,  // measure 88
0001
0000
0000
1000
0001
0100
0001
0010
,  // measure 89
0000
1000
0100
0001
0100
1000
0100
0001
,  // measure 90
0100
0010
0001
0100
0010
1000
0001
0010
,  // measure 91
0100
0000
0000
0000
0010
0000
0001
0000
0010
0000
0001
0000
0010
0001
0010
0001
,  // measure 92
1000
0000
0001
0100
0001
1000
0100
0010
,  // measure 93
0000
0001
0010
1000
0010
1000
0010
0100
,  // measure 94
0001
0010
0000
0100
0000
0010
0001
0100
,  // measure 95
0000
0010
1000
0001
0000
1000
0001
0000
,  // measure 96
1100
0000
1000
0010
0110
0000
0100
0001
,  // measure 97
0000
0011
0000
1100
0000
0010
0001
1000
,  // measure 98
1001
0000
0001
1000
1001
0000
1000
0001
,  // measure 99
1001
0001
1000
0001
1000
0001
0020
0030
,  // measure 100
0001
0100
0010
1000
,  // measure 101
0010
0000
0100
0000
0001
0000
1000
0100
,  // measure 102
1000
0100
0010
0100
,  // measure 103
1000
0000
0001
0000
0100
0000
0010
1000
,  // measure 104
0001
0100
0001
0100
0010
1000
0010
1000
,  // measure 105
0100
1000
0100
1000
0001
0010
0001
0010
,  // measure 106
0001
1000
0001
1000
0001
1000
0001
1000
0001
1000
0001
1000
0001
1000
0001
1000
,  // measure 107
0001
0000
0100
0001
0000
0001
0010
0000
0000
0100
0000
0000
,  // measure 108
1001
0000
0000
0000
;

//---------------dance-single - ----------------
#NOTES:
     dance-single:
     :
     Medium:
     8:
     0.554540,0.674730,0.249900,0.074970,0.012495,466.000000,436.000000,30.000000,9.000000,0.000000,0.000000,0.554540,0.674730,0.249900,0.074970,0.012495,466.000000,436.000000,30.000000,9.000000,0.000000,0.000000:
0000
0000
0000
0000
,
0000
0000
0000
0000
,
0000
0000
0000
0000
,
0000
0000
0000
0000
,
0000
0000
0000
0000
,
0000
0000
0000
0000
,
0000
0000
0000
0000
,
0000
0000
0000
0000
,
1000
0001
0200
0000
,
0301
0000
0000
0011
0000
0000
0000
0000
,
0001
1000
0200
0000
,
1300
0000
0000
1100
0000
0011
0000
0000
,
0001
0100
0020
0000
,
1030
0000
0000
0101
0000
0000
0000
0000
,
0001
1100
1000
0101
,
0001
1000
0100
1001
,
0001
0100
0010
1000
,
0010
0000
0100
0000
0001
0000
1000
0001
,
1000
0001
0010
0001
,
0100
0010
1000
0100
,
0011
1010
1002
0000
,
1003
0001
1000
0001
1000
0001
1000
0001
,
0400
0040
0000
0000
0000
0000
0000
0000
0000
0000
0000
0000
0000
0000
0330
0000
,
1000
1000
1000
0000
,
1001
0001
0100
0010
,
1000
0000
0001
0010
0000
0010
0001
0010
,
0001
1000
0010
0100
,
0001
0100
0010
1000
0001
0010
0100
0000
,
0010
0001
1000
1000
,
0001
0000
1000
0010
1000
0010
1000
0000
,
0001
0100
1000
0100
,
0001
0010
1000
0010
,
0100
0010
0001
0001
,
1000
0000
0001
0100
0000
0100
0010
1000
,
0010
0100
0001
0001
,
1000
0001
0010
0001
1000
0100
0010
0000
,
0100
0010
0001
1000
,
0010
0000
0100
0001
0100
0001
0100
0000
,
0020
1030
2000
3100
,
0200
0000
0310
0000
0020
0000
0031
0100
,
0010
0100
0001
1000
,
0001
0000
1000
0100
0000
0010
0001
0010
,
0001
1000
0010
0010
,
0100
0010
1000
0100
1000
0010
0100
0000
,
0001
1000
0100
0100
,
0010
0000
0100
1000
0100
1000
0100
0000
,
1000
0001
0100
0010
,
1000
0001
0010
0100
,
1000
1000
0001
0001
,
0100
0100
0010
0010
,
1000
1000
0010
0010
,
0100
0001
0100
0010
1000
0001
0010
0000
,
0100
0010
0001
1000
,
0010
0000
1000
0001
0010
0001
1000
0000
,
0001
0100
0010
1000
,
0001
0100
0010
1000
0001
0100
0010
1000
,
0001
1000
0100
1000
,
0001
0100
0001
0100
,
0010
1000
0010
1000
,
0100
1000
0100
1000
,
0100
0010
0100
0010
,
0001
0010
0001
0010
,
0001
1000
0010
0100
,
0001
1000
1000
1000
,
0001
1100
0000
0011
,
0000
0101
0000
1010
,
0000
1001
0000
1100
,
0000
1010
0000
0101
,
0000
0011
0000
0110
,
0000
1100
0000
0110
,
0000
0011
0000
0110
,
0100
1000
1000
0000
,
0001
0100
0010
0010
,
0100
0000
0001
0100
0000
0100
0010
1000
,
0010
0100
0010
1000
,
0001
1000
0010
1000
0001
1000
0010
0000
,
1000
0001
1000
1000
,
0100
0000
1000
0010
0000
0010
1000
0001
,
0100
0010
1000
0001
,
1000
0001
0100
0010
1000
0010
0100
0000
,
0001
0010
0100
1000
,
0001
0010
0100
1000
,
0001
1000
0001
1000
0001
1000
0001
1000
,
0004
4000
0000
0000
0000
0000
0000
0000
0000
0000
0000
0000
0000
0000
3003
0000
,
0001
0010
0001
1000
,
0100
1000
0010
0100
,
0001
1000
0010
1000
,
0100
1000
0001
0100
,
0001
1000
0010
1000
,
0001
0010
0010
0010
,
0100
0010
0001
0100
,
0010
0000
1000
0001
1000
0001
1000
0001
,
1000
0001
0100
0001
,
1000
0100
1000
0001
,
1000
0010
1000
0001
,
0010
0001
1000
0001
,
0100
0000
0001
0100
0001
0000
0100
0001
,
0000
0100
0000
0010
0000
0100
0010
0100
,
0001
0000
0100
0010
0100
0000
0010
0100
,
0010
0100
0010
0100
0010
0100
0000
0000
,
0010
1000
0001
0100
,
0010
0000
1000
0000
0100
0000
0010
0100
,
1000
0100
1000
0010
,
0100
0000
0001
0000
0010
0000
0100
0010
,
0011
0110
1002
0000
,
1003
0001
1000
0001
1000
0001
1000
0001
,
0400
0040
0000
0000
0000
0000
0000
0000
0000
0000
0000
0000
0000
0000
0330
0000
,
1000
1000
1000
1010
,
0101
0000
0000
0000
;

//---------------dance-single - ----------------
#NOTES:
     dance-single:
     :
     Easy:
     6:
     0.408170,0.629748,0.133280,0.158270,0.000000,343.000000,327.000000,16.000000,19.000000,0.000000,0.000000,0.408170,0.629748,0.133280,0.158270,0.000000,343.000000,327.000000,16.000000,19.000000,0.000000,0.000000:
0000
0000
0000
0000
,
0000
0000
0000
0000
,
0000
0000
0000
0000
,
0000
0000
0000
0000
,
0000
0000
0000
0000
,
0000
0000
0000
0000
,
0000
0000
0000
0000
,
0000
0000
0000
0000
,
1000
0001
0200
0000
,
0310
0000
0000
0010
0000
0000
0000
0000
,
0100
0010
2000
0000
,
3001
0000
0000
1000
0000
1000
0000
0000
,
0001
1000
0200
0000
,
0310
0000
0000
0010
0000
0000
0000
0000
,
0100
0010
0001
0010
,
0100
0100
0100
0000
,
0010
0001
0100
0010
,
1000
0001
0010
0001
,
1000
0100
1000
0010
,
0100
0001
0010
0001
,
1000
0020
0200
0000
,
0000
0000
0000
0000
,
0000
0000
0000
0330
,
1001
0110
1001
0000
,
0100
0010
1000
1000
,
0001
0010
0001
0010
,
0001
0100
0001
0001
,
1000
0100
0001
0100
,
1000
0010
0100
0100
,
0010
1000
0010
1000
,
0001
0010
1000
0010
,
0001
0010
1000
0010
,
0001
0100
0010
0010
,
0100
0001
1000
0100
,
1000
0001
1000
1000
,
0010
1000
0010
0100
,
0001
0010
0001
1000
,
0100
1000
1000
1000
,
0100
1000
0010
0100
,
0010
0001
0010
0000
,
1000
0010
0100
0100
,
0010
1000
0001
0010
,
0100
0010
0001
0001
,
0010
0100
1000
0100
,
1000
0010
0100
0100
,
0010
1000
0001
0010
,
0001
1000
0100
0001
,
0100
1000
0010
0001
,
0010
0100
0010
0100
,
0001
1000
0001
1000
,
0010
1000
0010
1000
,
0001
0001
0001
0001
,
0100
0010
1000
1000
,
0001
0010
0100
0010
,
0001
0010
1000
0010
,
0001
0100
1000
0100
,
0020
0000
0000
0000
,
0230
0000
0000
0000
,
0302
0000
0000
0000
,
2003
0000
3002
0000
,
2003
0000
0000
0000
,
3020
0000
0000
0000
,
0230
0000
0000
0000
,
0302
0000
0023
0000
,
0030
0100
0000
0010
,
0000
0001
0000
1000
,
0000
0010
0000
1000
,
0000
0100
0000
1000
,
0000
0001
0000
0100
,
0000
0010
0000
1000
,
0000
0010
0000
0100
,
0010
1000
1000
0000
,
0001
1000
0010
0010
,
1000
0001
0010
0001
,
1000
0100
0010
0010
,
0100
1000
0010
0001
,
0010
0100
0010
0010
,
0100
0001
0100
0001
,
0100
0010
1000
1000
,
0001
0010
1000
0010
,
0100
0010
0001
1000
,
0100
0010
0001
0010
,
0100
1000
0010
0100
,
2002
0000
0000
3003
,
0110
0000
0100
0010
,
1000
0010
0010
0010
,
1000
0001
0010
0100
,
0010
0001
0010
0100
,
1000
0000
0100
1000
,
0010
0100
0100
0100
,
0010
1000
0001
0100
,
0010
1000
1000
1000
,
0001
0000
0010
0001
,
0100
0010
0010
0010
,
1000
0001
0010
0001
,
1000
0100
1000
0001
,
1001
1000
1001
0001
,
0100
0010
1000
0010
,
0110
0100
0110
0010
,
0110
0110
0110
0000
,
0100
0010
1000
0010
,
0100
0001
0010
0100
,
0010
0001
0010
0100
,
1000
0100
1000
0010
,
0100
0002
2000
0000
,
0000
0000
0000
0000
,
0000
0000
0000
3003
,
1001
0110
1001
0000
,
0110
0000
0000
0000
;

//---------------dance-single - ----------------
#NOTES:
     dance-single:
     :
     Beginner:
     3:
     0.154700,0.314874,0.024990,0.000000,0.000000,130.000000,127.000000,3.000000,0.000000,0.000000,0.000000,0.154700,0.314874,0.024990,0.000000,0.000000,130.000000,127.000000,3.000000,0.000000,0.000000,0.000000:
0000
0000
0000
0000
,
0000
0000
0000
0000
,
0000
0000
0000
0000
,
0000
0000
0000
0000
,
0000
0000
0000
0000
,
0000
0000
0000
0000
,
0000
0000
0000
0000
,
0000
0000
0000
0000
,
1000
0000
0000
0000
,
0000
0000
0000
0000
,
0001
0000
0000
0000
,
0000
0000
0000
0000
,
1000
0000
0000
0000
,
0000
0000
0000
0000
,
0010
0000
0010
0000
,
0100
0100
0100
0000
,
0010
0000
0000
0000
,
1000
0000
0000
0000
,
0001
0000
0000
0000
,
0100
0000
0000
0000
,
0010
0010
0010
0000
,
0000
0000
0000
0000
,
0000
0000
0000
0000
,
1000
0001
1000
0000
,
0001
0000
0000
0000
,
0100
0000
0000
0000
,
0001
0000
0000
0000
,
1000
0000
0000
0000
,
0010
0000
0000
0000
,
1000
0000
0000
0000
,
0100
0000
0100
0000
,
0010
0000
0010
0000
,
0001
0000
0000
0000
,
1000
0000
0000
0000
,
0010
0000
0000
0000
,
0100
0000
0000
0000
,
0001
0000
0000
0000
,
0010
0000
0000
0000
,
0001
0000
0010
0000
,
0100
0000
1000
0000
,
0100
0000
0000
0000
,
1000
0000
0000
0000
,
0001
0000
0000
0000
,
0100
0000
0000
0000
,
0010
0000
0000
0000
,
0100
0000
0000
0000
,
0001
0000
0001
0000
,
1000
0000
1000
0000
,
0010
0000
0000
0000
,
1000
0000
0000
0000
,
0001
0000
0000
0000
,
0100
0000
0000
0000
,
0010
0000
0000
0000
,
1000
0000
0000
0000
,
0001
0000
1000
0000
,
0010
0000
0100
0000
,
0010
0000
0000
0000
,
1000
0000
0000
0000
,
0001
0000
0000
0000
,
0100
0000
0001
0000
,
1000
0000
0000
0000
,
0100
0000
0000
0000
,
1000
0000
0000
0000
,
0010
0000
0100
0000
,
0001
0000
0000
0000
,
1000
0000
0000
0000
,
0010
0000
0000
0000
,
1000
0000
0000
0000
,
0100
0000
0000
0000
,
1000
0000
0001
0000
,
1000
0000
0000
0000
,
0001
0000
0000
0000
,
0100
0000
0000
0000
,
0010
0000
0000
0000
,
1000
0000
0000
0000
,
0001
0000
0000
0000
,
0010
0000
0000
0000
,
0001
0000
0000
0000
,
1000
0000
0000
0000
,
0100
0000
0000
0000
,
1000
0000
0001
0000
,
0100
0000
0010
0000
,
1000
0001
0100
0010
,
0000
0000
0000
0000
,
1001
0000
0000
0000
,
0001
0000
0000
0000
,
1000
0000
0000
0000
,
0010
0000
0100
0000
,
0010
0000
0000
0000
,
1000
0000
0000
0000
,
0001
0000
1000
0000
,
0100
0000
0010
0000
,
0001
0000
0000
0000
,
0001
0000
0000
0000
,
1000
0000
0000
0000
,
0010
0000
0000
0000
,
0100
0000
0100
0000
,
0010
0000
0000
0000
,
1000
0000
1000
0000
,
1000
1000
1000
0000
,
1001
0000
0000
0000
,
0001
0000
0000
0000
,
0010
0000
0000
0000
,
0001
0000
0000
0000
,
1000
1000
1000
0000
,
0000
0000
0000
0000
,
0000
0000
0000
0000
,
0001
0100
0010
0000
,
1001
0000
0000
0000
;

//---------------dance-single - ----------------
#NOTES:
     dance-single:
     :
     Challenge:
     12:
     0.887740,1.484406,0.499800,0.208250,0.320705,746.000000,686.000000,60.000000,25.000000,0.000000,0.000000,0.887740,1.484406,0.499800,0.208250,0.320705,746.000000,686.000000,60.000000,25.000000,0.000000,0.000000:
// measure 0
0000
0000
0000
0000
,  // measure 1
0000
0000
0000
0000
,  // measure 2
0000
0000
0000
0000
,  // measure 3
0000
0000
0000
0000
,  // measure 4
0000
0000
0000
0000
,  // measure 5
0000
0000
0000
0000
,  // measure 6
0000
0000
0000
0000
,  // measure 7
0000
0000
0000
0000
,  // measure 8
1000
0001
0020
0000
,  // measure 9
0031
0000
0000
1010
0000
0000
0000
0000
,  // measure 10
1000
0001
0200
0000
,  // measure 11
0301
0000
0000
0011
0000
1010
0000
0000
,  // measure 12
1000
0010
0200
0000
,  // measure 13
0301
0000
0000
0011
0000
0000
0000
0000
,  // measure 14
0011
0001
1001
1000
,  // measure 15
0001
0100
0010
1000
0001
0100
0001
0000
,  // measure 16
1100
1100
0110
0110
,  // measure 17
0011
0000
0011
0000
1001
0000
0001
0100
,  // measure 18
0110
0110
1010
1010
,  // measure 19
1100
1100
0110
0110
,  // measure 20
0001
0010
0100
1000
0001
0010
0100
1000
,  // measure 21
0100
0010
0001
1000
0100
0010
0001
0010
,  // measure 22
0100
1000
0100
1000
0100
1000
0100
1000
0100
1000
0100
1000
0100
1000
0100
1000
,  // measure 23
0100
0000
1000
0010
0000
0010
0200
0000
0000
0300
0000
0000
,  // measure 24
1001
0000
0000
0000
0001
0000
1000
0000
0010
0100
0010
0000
1000
0000
0001
0000
,  // measure 25
0020
0000
0031
2000
0000
3010
0100
0001
,  // measure 26
0010
0000
0001
1000
0010
0100
0010
0000
,  // measure 27
1000
0000
0001
0100
0001
0000
0010
0000
0001
0000
1000
0000
0100
0000
1000
0000
,  // measure 28
0001
0000
0000
0000
1000
0000
0001
0000
0100
0010
0100
0000
0010
0000
0100
0000
,  // measure 29
0002
0000
1003
0010
1000
0010
1000
0000
,  // measure 30
0001
0100
0001
0010
0001
1000
0100
0010
,  // measure 31
0100
1000
0010
0100
0010
1000
0001
0010
,  // measure 32
1001
0000
0000
0000
1000
0000
0001
0000
0100
0010
0100
0000
0001
0000
1000
0000
,  // measure 33
0200
0000
1300
0002
0000
0103
0010
1000
,  // measure 34
0100
0000
1000
0001
0100
0010
0100
0000
,  // measure 35
0001
0000
1000
0010
1000
0000
0100
0000
1000
0000
0001
0000
0010
0000
0001
0000
,  // measure 36
1000
0000
0000
0000
0001
0000
1000
0000
0010
0100
0010
0000
0100
0000
0010
0000
,  // measure 37
2000
0000
3001
0100
0001
0100
0001
0000
,  // measure 38
1000
0010
1000
0100
1000
0001
0010
0100
,  // measure 39
0010
0001
0100
0010
0100
0001
2000
3020
,  // measure 40
0130
0000
0000
0000
0010
0000
1000
0000
0001
0010
0001
0000
0100
0000
0010
0000
,  // measure 41
2000
0000
3100
2000
0000
3100
1000
0010
,  // measure 42
0200
0000
0310
1000
0001
0010
0100
0000
,  // measure 43
0010
0000
0001
0100
0001
0000
0010
0000
0001
0000
1000
0000
0010
0000
0000
0000
,  // measure 44
1001
0000
0000
0000
1000
0000
0001
0000
0010
0100
0010
0000
0001
0000
0100
0000
,  // measure 45
0020
0000
1030
0010
1000
0010
1000
0000
,  // measure 46
0001
0010
1000
0010
0001
0010
1000
0010
,  // measure 47
0001
0100
1000
0100
0001
0100
1000
0100
,  // measure 48
0001
0001
1000
1000
,  // measure 49
0020
0000
0130
0020
0000
0130
0010
0100
,  // measure 50
0010
0010
1000
1000
,  // measure 51
0001
0000
0100
0001
0100
0000
0001
0000
0010
0000
0001
0000
1000
0000
0000
0000
,  // measure 52
0100
0100
1000
1000
,  // measure 53
0002
0000
0103
0010
0100
0010
0100
0000
,  // measure 54
0001
0100
0010
1000
0001
0100
0010
1000
,  // measure 55
0001
0010
0100
1000
0001
0010
0100
1000
,  // measure 56
0001
0000
1000
0000
0100
0000
1000
0010
0000
0010
1000
0000
0001
0000
0000
0000
,  // measure 57
1000
0000
0001
0000
0010
0000
0100
0010
0000
0010
0100
0000
1000
0000
0000
0000
,  // measure 58
0001
0000
1000
0000
0010
0000
0100
0001
0000
0001
0100
0000
0010
0000
0000
0000
,  // measure 59
1000
0000
0001
0000
0010
0000
0100
0010
0000
0010
0100
0000
1000
0000
0000
0000
,  // measure 60
0001
0000
1000
0000
0010
0000
0100
0001
0000
0001
0100
0000
0010
0000
0000
0000
,  // measure 61
1000
0000
0001
0000
0010
0000
0100
0010
0000
0010
0100
0000
1000
0000
0000
0000
,  // measure 62
0100
0010
0100
0000
0010
0000
0001
0010
0001
0000
1000
0000
0001
0000
0010
0000
,  // measure 63
0002
0000
0000
0000
0103
0000
0010
0000
0100
0000
0010
0000
0100
0010
0100
0010
,  // measure 64
0100
0000
0101
0000
0001
1000
1010
0000
,  // measure 65
1000
0000
1100
0000
0100
0010
0011
0000
,  // measure 66
0001
0000
0101
0000
0100
0010
1010
0000
,  // measure 67
1000
0000
1001
0000
0001
1000
1010
0000
,  // measure 68
1000
0000
1100
0000
0100
0010
0011
0000
,  // measure 69
0001
0000
0101
0000
0100
0010
0110
0000
,  // measure 70
0100
0000
0101
0000
0001
1000
1100
0000
,  // measure 71
1000
0000
0001
0100
0001
0100
0010
0000
,  // measure 72
1001
0000
0000
0000
1000
0000
0010
0000
0100
0001
0100
0000
0001
0000
0010
0000
,  // measure 73
0200
0000
0310
0200
0000
0310
0100
0010
,  // measure 74
0001
0000
1000
0010
0100
0001
0100
0000
,  // measure 75
0001
0000
1000
0010
1000
0000
0001
0000
0010
0000
0100
0000
0010
0000
0000
0000
,  // measure 76
1100
0000
0000
0000
0100
0000
0010
0000
0001
1000
0001
0000
0100
0000
0010
0000
,  // measure 77
2000
0000
3010
2000
0000
3010
1000
0010
,  // measure 78
0100
0000
0010
1000
0001
0010
0001
0000
,  // measure 79
1000
0000
0001
0100
0001
0000
0010
0000
0001
0000
1000
0000
0100
0000
0000
0000
,  // measure 80
1000
1000
0100
0100
0010
0010
0001
0001
,  // measure 81
1000
1000
0001
0001
0100
0100
0010
0010
,  // measure 82
1000
0001
1000
0001
1000
0001
1000
0001
1000
0001
1000
0001
1000
0001
1000
0001
,  // measure 83
1000
0001
0100
0010
1000
0001
0010
0001
0010
0100
0010
0100
1000
0100
1000
0001
,  // measure 84
0100
0000
0010
1000
0001
0010
0001
1000
,  // measure 85
0000
0000
0001
0000
1000
0000
0100
1000
0100
0000
0100
0010
0100
0000
0100
1000
,  // measure 86
0100
1000
0000
0001
0000
0100
0001
0010
,  // measure 87
0000
0100
0010
0001
0000
1000
0001
0000
,  // measure 88
0100
0000
0000
0010
0100
0001
0010
0001
,  // measure 89
0000
0000
1000
0000
0001
0000
0100
0001
0100
0000
0100
0010
0100
0000
0100
0001
,  // measure 90
0100
0001
0010
0001
0100
0010
0100
0001
,  // measure 91
1000
0000
0000
0000
0100
0000
0010
0000
0100
0000
0010
0000
0001
1000
0001
1000
,  // measure 92
0010
0000
0100
0001
1000
0100
1000
0001
,  // measure 93
0000
0000
1000
0000
0001
0000
0010
0001
0010
0000
0010
0100
0010
0000
0010
0001
,  // measure 94
0010
0001
0000
1000
0000
0010
1000
0100
,  // measure 95
0000
0010
0100
1000
0000
0001
1000
0000
,  // measure 96
1010
0000
1000
0001
0101
0000
0001
0010
,  // measure 97
0000
0110
0000
1100
0000
0100
0010
0001
,  // measure 98
1000
0000
0001
1000
0001
0000
1000
0001
,  // measure 99
1000
0001
1000
0001
1000
0001
0020
0030
,  // measure 100
0110
0110
1100
1100
,  // measure 101
1001
0000
1001
0000
0101
0000
0001
0010
,  // measure 102
0011
0011
1100
1100
,  // measure 103
0101
0101
1010
1010
,  // measure 104
1000
0010
0100
0001
1000
0010
0100
0001
,  // measure 105
1000
0100
0010
0001
1000
0100
0010
0001
,  // measure 106
1000
0001
1000
0001
1000
0001
1000
0001
1000
0001
1000
0001
1000
0001
1000
0001
,  // measure 107
1000
0000
0001
0010
0000
1000
0010
0000
0000
0100
0000
0000
,  // measure 108
1001
0000
0000
0000
;
