#VERSION:0.83;
#TITLE:GOODBOUNCE;
#SUBTITLE:;
#ARTIST:EBIMAYO;
#TITLETRANSLIT:;
#SUBTITLETRANSLIT:;
#ARTISTTRANSLIT:;
#GENRE:;
#ORIGIN:;
#CREDIT:;
#BANNER:GOODBOUNCE.png;
#BACKGROUND:GOODBOUNCE-bg.png;
#PREVIEWVID:;
#JACKET:GOODBOUNCE-jacket.png;
#CDIMAGE:;
#DISCIMAGE:;
#LYRICSPATH:;
#CDTITLE:;
#MUSIC:GOODBOUNCE.ogg;
#OFFSET:1.161999;
#SAMPLESTART:106.828003;
#SAMPLELENGTH:10.666664;
#SELECTABLE:YES;
#BPMS:0.000=180.000;
#STOPS:32.000=1.000,
188.750=1.333;
#DELAYS:;
#WARPS:;
#TIMESIGNATURES:0.000=4=4;
#TICKCOUNTS:0.000=4;
#COMBOS:0.000=1;
#SPEEDS:0.000=1.000=0.000=0;
#SCROLLS:0.000=1.000;
#FAKES:;
#LABELS:0.000=Song Start;
#BGCHANGES:;
#KEYSOUNDS:;
#ATTACKS:
;

//---------------dance-single - ----------------
#NOTEDATA:;
#CHARTNAME:;
#STEPSTYPE:dance-single;
#DESCRIPTION:;
#CHARTSTYLE:;
#DIFFICULTY:Hard;
#METER:11;
#RADARVALUES:0.725341,0.874014,0.145287,0.206460,0.562030,664.000000,645.000000,19.000000,27.000000,0.000000,0.000000,0.000000,0.000000,0.000000,0.725341,0.874014,0.145287,0.206460,0.562030,664.000000,645.000000,19.000000,27.000000,0.000000,0.000000,0.000000,0.000000,0.000000;
#CREDIT:;
#NOTES:
// measure 0
0000
0000
0000
0000
,  // measure 1
0000
0000
0000
0000
,  // measure 2
0000
0000
0000
0000
,  // measure 3
0000
0000
0000
0000
,  // measure 4
0000
0000
0000
0000
,  // measure 5
0000
0000
0000
0000
,  // measure 6
0000
0000
0000
0000
,  // measure 7
0000
0000
0000
0000
,  // measure 8
0000
0000
1000
0200
0300
0000
1000
0002
,  // measure 9
0003
0000
1000
0020
0030
0000
1000
0002
,  // measure 10
0103
0100
0010
2000
3000
0000
0010
0200
,  // measure 11
0300
0000
0010
0002
0003
0000
0010
0200
,  // measure 12
0301
0001
1000
0020
0030
0000
0100
0002
,  // measure 13
0003
0000
0010
0200
0300
0000
1000
0002
,  // measure 14
0013
0010
0100
2000
3000
0000
0010
0200
,  // measure 15
0300
0000
0001
2000
3000
0000
0100
0010
,  // measure 16
1001
0000
0001
0100
0010
0000
0100
0010
,  // measure 17
1000
0000
0100
0010
0001
0000
0010
0001
,  // measure 18
1000
1000
0001
0100
0010
0000
0100
0010
,  // measure 19
1000
0000
0100
1000
0001
0000
1000
0010
,  // measure 20
0100
0100
0010
1000
0100
0000
0010
0001
,  // measure 21
0100
0000
0001
1000
0010
0000
1000
0001
,  // measure 22
0100
0100
0001
0010
0100
0000
0010
0001
,  // measure 23
0100
0000
0000
0000
0010
0000
0010
1000
0100
0000
0010
0000
0001
0010
0001
0010
,  // measure 24
0200
0000
0000
0000
1300
0000
0000
1000
0000
0000
0001
0000
0000
0000
0100
0000
,  // measure 25
0000
0000
0100
0000
0010
0000
0000
0100
0000
0000
0001
0000
1000
0000
0000
0100
,  // measure 26
0000
0000
1000
0000
0001
0000
0000
0001
0000
0000
1000
0000
0000
0000
0100
0000
,  // measure 27
0000
0000
0100
0000
0010
0000
0000
0001
0000
0000
1000
0000
0010
0000
0000
0100
,  // measure 28
0000
0000
0001
0000
1000
0000
0000
1000
0000
0000
1000
0000
0000
0000
0100
0000
,  // measure 29
0000
0000
0100
0000
1000
0000
0000
0010
0000
0000
0100
0000
0001
0000
0000
0010
,  // measure 30
0000
0000
0001
0000
1000
0000
0000
1000
0000
0000
0100
0000
0000
0000
1000
0000
,  // measure 31
0000
0000
0001
0000
0010
0000
0000
1000
0000
0000
0010
0000
0100
0000
0000
1000
,  // measure 32
0000
0010
0100
0000
0101
0000
0001
1000
,  // measure 33
0010
1000
0200
0320
,  // measure 34
0032
0000
1003
0000
0101
0000
0001
1000
,  // measure 35
0010
2000
3200
0302
,  // measure 36
0203
0000
0310
0000
1100
0000
1000
0001
,  // measure 37
0100
0002
0013
2000
,  // measure 38
3200
0000
1300
0000
0011
0000
0010
0001
,  // measure 39
0100
0000
0000
0000
0010
0000
0000
0010
0000
0000
0010
0000
0100
0000
0000
0100
,  // measure 40
0000
0100
1001
0000
1000
0000
0001
0000
,  // measure 41
0010
0000
1001
0000
1000
0000
0001
0010
,  // measure 42
0000
0010
1001
0000
0010
0000
0001
0000
,  // measure 43
0100
0000
1001
0000
1000
0000
0010
1000
,  // measure 44
0100
0000
1000
0000
1001
0000
0000
0001
0010
0000
0000
0010
0100
0000
0000
0100
,  // measure 45
1000
0000
0000
1000
0010
0000
0000
0010
0100
0000
0000
0100
0001
0000
0000
0001
,  // measure 46
1000
0000
0000
1000
0100
0000
0010
0000
0100
0000
0010
0000
0001
1000
0001
1000
,  // measure 47
0001
1000
0001
1000
0001
0000
0100
0000
0001
0100
0000
0001
0100
0000
0001
0000
,  // measure 48
0100
0001
0100
0000
0001
0000
0100
0000
0001
0100
0000
0001
0100
0000
0001
0000
,  // measure 49
0100
0001
0100
0000
0001
0000
0100
0000
0001
0100
0000
0001
0100
0000
0001
0000
,  // measure 50
0100
0001
0100
0000
0001
0000
0100
0000
0001
0100
0000
0100
0001
0000
0001
0100
,  // measure 51
0000
0100
0001
0000
1000
0000
0010
0000
1000
0010
0000
1000
0010
0000
1000
0000
,  // measure 52
0010
1000
0010
0000
1000
0000
0010
0000
1000
0010
0000
1000
0010
0000
1000
0000
,  // measure 53
0010
1000
0010
0000
1000
0000
0010
0000
1000
0010
0000
1000
0010
0000
1000
0000
,  // measure 54
0010
1000
0010
0000
1000
0000
0010
0000
1000
0010
0000
0010
1000
0000
1000
0001
,  // measure 55
1000
0000
0001
0010
0001
1000
0010
1000
,  // measure 56
0100
0010
0100
0000
0010
0000
0001
0000
0100
0000
0010
0000
1000
0000
0100
0000
,  // measure 57
0010
0001
0010
0000
0001
0000
0100
0000
0001
0000
1000
0000
0010
0000
1000
0000
,  // measure 58
0100
0010
0100
0000
0001
0000
1000
0000
0001
0100
0000
0100
0010
0000
0010
1000
,  // measure 59
0000
1000
0100
0000
0010
0000
0001
0000
0100
0000
0010
0000
1000
0000
0100
0000
,  // measure 60
1000
0100
1000
0000
0100
0000
0010
0000
0001
0000
0100
0000
0001
0000
1000
0000
,  // measure 61
0001
0010
0001
0000
0010
0000
0100
0000
1000
0000
0010
0000
1000
0000
0001
0000
,  // measure 62
1000
0100
1000
0000
0100
0000
1000
0000
0100
0010
0000
0100
1000
0000
0100
0010
,  // measure 63
0001
0000
0000
0000
0001
0000
1000
0000
0010
1000
0000
1000
0001
0000
0010
0000
,  // measure 64
0100
1000
0100
0000
1000
0000
0001
0000
0100
0001
0000
0001
0010
0000
0100
0000
,  // measure 65
0010
0001
0010
0000
0001
0000
1000
0000
0010
1000
0000
1000
0100
0000
0010
0000
,  // measure 66
0100
1000
0100
0000
0001
0000
1000
0001
0000
1000
0001
0000
0100
0000
0001
0000
,  // measure 67
0100
0000
0010
0000
1000
0000
0001
0000
0010
0001
0000
0001
0010
0000
0100
0000
,  // measure 68
1000
0100
1000
0000
0100
0000
1000
0000
0010
0100
0000
0001
1000
0000
0100
0000
,  // measure 69
0010
0100
0010
0000
0100
0000
1000
0000
0001
0010
0000
0010
0001
0000
0100
0000
,  // measure 70
0010
1000
0010
0000
1000
0000
0001
1000
0000
1000
0010
0000
0100
0000
0100
0000
,  // measure 71
0100
0000
0100
0000
0010
0000
1000
0000
0100
0010
0000
0010
0001
0000
0100
0000
,  // measure 72
0010
1000
0010
0000
0100
0000
0001
0000
0010
0100
0000
0100
1000
0000
0001
0000
,  // measure 73
0010
0100
1000
0000
0001
0000
0100
0000
0010
0100
0000
0010
0100
0000
0001
0000
,  // measure 74
0010
0001
0010
0000
0001
0000
1000
0010
0000
0010
1000
0000
0010
0000
1000
0000
,  // measure 75
0010
0000
0100
0000
0001
0000
1000
0000
0100
1000
0000
1000
0100
0000
0010
0000
,  // measure 76
0001
0010
0001
0000
0010
0000
0001
0000
0100
0010
0000
1000
0001
0000
0010
0000
,  // measure 77
0100
0010
0100
0000
0010
0000
0001
0000
1000
0100
0000
0100
1000
0000
0010
0000
,  // measure 78
0100
0001
0100
0000
0001
0000
1000
0001
0000
0001
0100
0000
0010
0000
0010
0000
,  // measure 79
0200
0000
0000
0000
0301
0000
0000
0010
0000
0000
0001
0000
0000
0000
0000
0000
,  // measure 80
1000
0000
0100
0000
1000
0000
0010
0000
0100
0001
0000
0010
0000
0001
1000
0000
,  // measure 81
0000
0000
0000
0000
0100
0000
0000
1000
0000
0000
0010
0000
0000
0000
0100
0000
,  // measure 82
0001
0000
0010
0000
0001
0000
1000
0000
0100
0010
0000
0001
0000
0001
1000
0000
,  // measure 83
0010
0000
0100
0000
0001
0000
0000
0000
1000
0000
0001
1000
0000
0001
1000
0001
,  // measure 84
0000
0000
0100
0000
0010
1000
0010
0100
0000
0000
0010
0000
0100
0000
0000
0000
,  // measure 85
0001
0000
0000
0000
0011
0000
0000
0000
0001
0000
1000
0100
0000
0100
0010
0001
,  // measure 86
1000
0000
0010
0000
0100
0000
0000
0001
0000
0000
0010
0000
0001
0000
0000
1000
,  // measure 87
0000
0000
0100
0000
1000
0000
0000
0100
0000
0000
1000
0000
0000
0000
0000
0000
,  // measure 88
0001
0000
0010
0000
0001
0000
0100
0000
0010
1000
0000
0100
0000
1000
0001
0000
,  // measure 89
0000
0000
0000
0000
0010
0000
0000
0001
0000
0000
0100
0000
0000
0000
0010
0000
,  // measure 90
1000
0000
0100
0000
1000
0000
0001
0000
0010
0100
0000
1000
0000
1000
0001
0000
,  // measure 91
0100
0000
0010
0000
1000
0000
0000
0000
0001
0000
1000
0001
0000
1000
0001
1000
,  // measure 92
0000
0000
0010
0000
0100
0001
0100
0010
0000
0000
0100
0000
0010
0000
0000
0000
,  // measure 93
1000
0000
0000
0000
1100
0000
0000
0000
1000
0000
0001
0010
0000
0010
0100
1000
,  // measure 94
0001
0000
0100
0000
0110
0000
0000
1010
0000
0000
0101
0000
0011
0000
0000
1100
,  // measure 95
0000
0110
1001
0000
0000
0000
0000
0000
;

//---------------dance-single - ----------------
#NOTEDATA:;
#CHARTNAME:;
#STEPSTYPE:dance-single;
#DESCRIPTION:;
#CHARTSTYLE:;
#DIFFICULTY:Medium;
#METER:8;
#RADARVALUES:0.495941,0.582676,0.237047,0.022940,0.049703,454.000000,423.000000,31.000000,3.000000,0.000000,0.000000,0.000000,0.000000,0.000000,0.495941,0.582676,0.237047,0.022940,0.049703,454.000000,423.000000,31.000000,3.000000,0.000000,0.000000,0.000000,0.000000,0.000000;
#CREDIT:;
#NOTES:
0000
0000
0000
0000
,
0000
0000
0000
0000
,
0000
0000
0000
0000
,
0000
0000
0000
0000
,
0000
0000
0000
0000
,
0000
0000
0000
0000
,
0000
0000
0000
0000
,
0000
0000
0000
0000
,
0000
0000
1000
0001
0000
0000
1000
0001
,
0000
0000
1000
0001
0000
0000
1000
0001
,
0010
0001
1000
0010
0000
0000
1000
0010
,
0000
0000
1000
0010
0000
0000
1000
0010
,
0100
0001
0010
0100
0000
0000
0010
0100
,
0000
0000
0010
0100
0000
0000
0010
0100
,
1000
0001
0100
0001
0000
0000
0100
0001
,
0000
0000
0100
0001
0000
0000
0100
0001
,
1001
1000
0010
0100
,
0010
1000
0010
0000
0100
0000
0001
0010
,
0100
0010
0001
0000
1000
0000
0001
0100
,
0010
0000
1000
0000
0010
0000
0100
0010
,
1000
0100
0010
0000
0100
0000
0010
0001
,
0100
0000
0010
0000
1000
0000
0010
0100
,
0001
1000
0010
0000
0100
0000
0010
1000
,
0001
0000
2000
3001
0200
0301
2000
3001
,
1001
0001
0000
1000
,
0000
0010
0000
1000
,
0000
0100
0000
1000
,
0000
0001
0000
0100
,
0000
0010
0000
1000
,
0000
0010
0000
0100
,
0000
0001
0000
1000
,
0000
0001
0001
1000
,
1000
0000
0001
0000
0101
0000
0001
0100
,
0001
0100
0110
1000
,
1010
0000
1000
0000
1001
0000
1000
0001
,
1000
0010
1010
1000
,
1100
0000
0100
0000
0110
0000
0010
0001
,
0100
0001
1001
1000
,
1100
0000
0100
0000
0110
0000
0100
1000
,
0010
0100
0001
1000
,
0010
1001
0001
0100
,
0010
0000
1001
0000
1000
0000
0001
1000
,
0000
1000
1001
0000
0001
0000
0010
0000
,
0100
0000
1100
0000
0100
0000
0000
1000
,
0100
0010
0001
0000
0011
0000
0100
0000
,
0110
1000
1100
1000
,
1001
0101
1010
1100
,
0011
0001
0100
0001
,
0100
0001
0100
0000
0001
0000
0100
0000
,
0001
0100
0001
0000
0100
0000
0001
0000
,
0100
0000
0001
0000
0100
0000
0001
0000
0000
0100
0000
0000
0010
0000
0000
1000
,
0000
0001
1000
0000
0001
0000
0100
0000
,
0001
0100
0001
0000
0100
0000
0001
0000
,
0100
0001
0100
0000
0001
0000
0100
0000
,
0001
0000
0100
0000
0001
0000
1000
0000
0000
0100
0000
0000
1000
0000
0000
0000
,
1001
1000
0001
0100
,
0010
0100
0001
0000
0100
0000
0010
0000
,
1000
0100
0010
0000
0100
0000
1000
0000
,
0001
0000
0010
0000
0001
0000
1000
0000
0000
0001
0000
0000
0100
0000
0000
0010
,
0000
1000
0100
0000
0001
0000
0100
0000
,
0010
0100
1000
0000
0010
0000
0001
0000
,
0010
0001
1000
0000
0100
0000
0010
0000
,
0001
0000
0010
0000
0100
0000
1000
0000
0000
0001
0000
0000
0100
0000
0000
0001
,
0000
0000
1000
0010
1000
0000
0010
0100
,
0010
0000
0100
0001
0100
0000
0001
0010
,
0001
0000
0010
0100
0010
0000
0100
1000
,
0100
0000
0000
0000
1000
0000
0000
0001
0000
0000
0100
0000
0010
0000
1000
0000
,
0010
0100
0001
0010
0001
0000
0010
0100
,
0010
0000
0100
1000
0100
0000
1000
0001
,
1000
0000
0001
0100
0001
0000
0100
0010
,
0100
0000
0000
0000
0010
0000
0000
1000
0000
0000
0001
0000
0010
0000
0100
0000
,
0010
0100
0010
0001
0100
0000
0010
1000
,
0100
0000
0010
0001
0100
0000
0010
1000
,
0100
0000
0100
1000
0010
0000
0100
0001
,
0010
0000
0000
0000
0100
0000
0000
0100
0000
0000
0010
0000
0001
0000
1000
0000
,
0100
1000
0010
0100
0001
0000
0010
0100
,
1000
0000
0100
1000
0010
0000
0100
0010
,
1000
0000
0100
0001
0010
0000
0100
0010
,
0001
0000
0000
0000
1000
0000
0000
0001
0000
0000
1000
0000
0100
0000
0010
0000
,
0100
1000
1010
0010
,
0100
0001
0001
1000
,
1000
0001
0011
0001
,
0100
0010
1000
0010
,
0100
0010
1000
0000
0001
0000
0010
0000
,
0100
0000
0010
0010
0100
0000
1000
0000
,
0100
1100
0100
1000
,
0010
0110
0010
1001
,
0001
0000
1000
0001
0000
0100
0000
0010
,
0000
1000
0000
0010
0000
0100
0000
0001
,
0100
0010
0000
1000
0000
0010
0000
0100
,
0000
0010
0000
1000
0000
0001
0000
0010
,
0100
1000
0100
0000
1000
0000
0001
1000
,
0010
0000
0010
0100
0010
0000
0100
0000
,
0001
1000
0001
0100
,
0010
0000
0000
0000
1000
0000
0000
0010
0000
0000
0100
0000
0001
0000
0000
0010
,
0000
0100
1001
0000
0000
0000
0000
0000
;

//---------------dance-single - ----------------
#NOTEDATA:;
#CHARTNAME:;
#STEPSTYPE:dance-single;
#DESCRIPTION:;
#CHARTSTYLE:;
#DIFFICULTY:Easy;
#METER:5;
#RADARVALUES:0.326622,0.437007,0.267633,0.022940,0.000000,299.000000,264.000000,35.000000,3.000000,0.000000,0.000000,0.000000,0.000000,0.000000,0.326622,0.437007,0.267633,0.022940,0.000000,299.000000,264.000000,35.000000,3.000000,0.000000,0.000000,0.000000,0.000000,0.000000;
#CREDIT:;
#NOTES:
0000
0000
0000
0000
,
0000
0000
0000
0000
,
0000
0000
0000
0000
,
0000
0000
0000
0000
,
0000
0000
0000
0000
,
0000
0000
0000
0000
,
0000
0000
0000
0000
,
0000
0000
0000
0000
,
0000
1000
0000
1000
,
0000
1000
0000
1000
,
0001
1000
0000
1000
,
0000
1000
0000
1000
,
0010
1000
0000
1000
,
0000
1000
0000
1000
,
0001
1000
0000
1000
,
0000
1000
0000
1000
,
0110
0100
0000
0010
,
0000
1000
0000
0010
,
0100
0001
0000
0010
,
0000
0100
0000
0010
,
0001
1000
0000
0001
,
0000
0100
0000
0010
,
1000
0001
0000
1000
,
0000
0120
0000
0000
,
0030
0100
0000
0000
,
0000
0010
0000
1000
,
0000
0001
0000
0000
,
0000
1000
0000
0100
,
0000
1000
0000
0000
,
0000
0010
0000
0100
,
0000
0001
0000
0000
,
0000
1000
0000
0001
,
0000
0101
0000
0000
,
0000
0001
0100
0010
,
1000
0100
0000
0000
,
0000
1000
0100
0001
,
0100
1000
0000
0000
,
0000
0100
0010
0001
,
1000
0010
0000
0000
,
0000
0100
0100
0010
,
0010
1001
0000
0000
,
0000
1010
0000
0000
,
0000
0101
0000
0000
,
0000
0011
0000
0000
,
0000
1002
1000
1000
,
1000
1000
1000
1000
,
1000
1003
0100
0010
,
0001
0001
0100
0001
,
0101
0100
0001
0100
,
0101
0001
0100
0001
,
0101
0001
0001
0001
,
0001
1000
0100
1000
,
1100
0100
1000
0100
,
1100
1000
0100
1000
,
1100
0100
1000
1000
,
0000
0001
0100
0010
,
1010
1000
0010
0100
,
0101
0001
0100
0010
,
1010
1000
1000
1000
,
1000
0001
0010
0100
,
1100
1000
0100
0010
,
0011
0001
0010
0100
,
1100
1000
1000
1000
,
0000
0001
0100
0010
,
1001
0001
0010
0100
,
1001
1000
0100
0010
,
1001
0001
1000
0010
,
0010
1000
0001
0100
,
1001
0001
1000
0010
,
1001
1000
0001
0100
,
1001
0001
1000
0020
,
0000
1030
0010
0100
,
0101
0001
0010
0100
,
0110
0100
0010
0001
,
1001
0001
1000
0010
,
1000
0100
1000
0010
,
0110
0100
0001
0010
,
0110
0100
1000
0010
,
0110
0010
1000
0001
,
0000
1000
0000
0001
,
0000
0100
0001
0100
,
0000
0010
0000
1000
,
0000
0100
1000
0010
,
0100
0001
0000
1000
,
0000
0010
0010
0100
,
0010
1000
0000
0001
,
0000
1000
0100
0010
,
0001
1000
0001
0100
,
0001
1000
0100
1000
,
0001
1000
0010
1000
,
0001
0010
0001
1000
,
1000
0001
0100
0010
,
1000
0001
0100
0010
,
1000
0001
0010
0001
,
0100
0110
0000
1001
,
0000
0110
0000
0000
;

//---------------dance-single - ----------------
#NOTEDATA:;
#CHARTNAME:;
#STEPSTYPE:dance-single;
#DESCRIPTION:;
#CHARTSTYLE:;
#DIFFICULTY:Beginner;
#METER:2;
#RADARVALUES:0.150748,0.291338,0.053527,0.000000,0.000000,138.000000,131.000000,7.000000,0.000000,0.000000,0.000000,0.000000,0.000000,0.000000,0.150748,0.291338,0.053527,0.000000,0.000000,138.000000,131.000000,7.000000,0.000000,0.000000,0.000000,0.000000,0.000000,0.000000;
#CREDIT:;
#NOTES:
0000
0000
0000
0000
,
0000
0000
0000
0000
,
0000
0000
0000
0000
,
0000
0000
0000
0000
,
0000
0000
0000
0000
,
0000
0000
0000
0000
,
0000
0000
0000
0000
,
0000
0000
0000
0000
,
0000
1000
0000
1000
,
0000
1000
0000
0000
,
0000
0001
0000
0001
,
0000
0001
0000
0000
,
0000
0100
0000
0100
,
0000
0100
0000
0000
,
0000
0010
0000
0010
,
0000
0010
0000
0000
,
0000
1000
0000
0001
,
0000
1000
0000
0000
,
0000
0010
0000
0100
,
0000
0010
0000
0000
,
0000
1000
0000
0010
,
0000
1000
0000
0000
,
0000
0001
0000
0100
,
0000
0001
0000
0000
,
0000
1001
0000
0000
,
0000
1000
0000
0000
,
0000
0010
0000
0000
,
0000
1000
0000
0001
,
0000
1000
0000
0000
,
0000
0100
0000
0000
,
0000
1000
0000
0000
,
0000
0010
0000
0100
,
0000
1001
0000
0000
,
0000
0001
0000
1000
,
0000
0010
0000
0000
,
0000
1000
0000
1000
,
0000
0001
0000
0000
,
0000
0001
0000
0001
,
0000
0010
0000
0000
,
0000
0001
0000
1000
,
0000
1001
0000
0000
,
0000
0010
0000
0000
,
0000
0010
0000
0000
,
0000
0100
0000
0000
,
0000
0100
0000
0000
,
0000
0010
0000
0000
,
0000
1000
0000
0001
,
0000
1000
0000
0000
,
0000
1000
0000
0000
,
0000
1000
0000
0000
,
0000
1000
0000
0001
,
0000
0100
0000
0000
,
0000
0100
0000
0000
,
0000
0100
0000
0000
,
0000
0100
0000
0010
,
0000
0100
0000
0000
,
0000
0001
0000
0000
,
0000
0010
0000
0000
,
0000
0001
0000
1000
,
0000
0001
0000
0000
,
0000
1000
0000
0000
,
0000
0010
0000
0000
,
0000
1000
0000
1000
,
0000
0001
0000
0001
,
0000
1000
0000
1000
,
0000
0010
0000
0010
,
0000
0100
0000
0100
,
0100
0100
0000
0010
,
0000
0100
0000
0010
,
0000
0100
0000
0010
,
0000
1000
0000
1001
,
0000
0001
0000
1000
,
0000
0001
0000
1000
,
0000
0001
0000
1000
,
0000
0010
0000
1000
,
1000
0010
0000
0100
,
0000
0010
0000
0100
,
0000
0010
0000
0100
,
0000
0010
0000
0100
,
0000
0001
0000
0000
,
0000
1000
0000
0000
,
0000
0001
0000
0000
,
0000
0010
0000
0000
,
0000
0001
0000
0000
,
0000
0100
0000
0000
,
0000
0010
0000
0000
,
0000
1000
0000
0001
,
0000
1000
0000
0000
,
0000
0010
0000
0000
,
0000
1000
0000
0000
,
0000
0100
0000
1000
,
0000
0001
0000
1000
,
0000
0001
0000
0001
,
0000
0100
0000
0010
,
0000
1001
0000
0110
,
0000
1001
0000
0000
;
