#VERSION:0.82;
#TITLE:Funny shuffle;
#SUBTITLE:;
#ARTIST:猫叉Master+;
#TITLETRANSLIT:;
#SUBTITLETRANSLIT:;
#ARTISTTRANSLIT:Nekomata Master+;
#GENRE:;
#ORIGIN:;
#CREDIT:;
#BANNER:Funny shuffle.png;
#BACKGROUND:Funny shuffle-bg.png;
#PREVIEWVID:;
#JACKET:Funny shuffle-jacket.png;
#CDIMAGE:;
#DISCIMAGE:wallpaper-115261.jpg;
#LYRICSPATH:;
#CDTITLE:;
#MUSIC:Funny shuffle.ogg;
#OFFSET:-5.012000;
#SAMPLESTART:24.820000;
#SAMPLELENGTH:12.000000;
#SELECTABLE:YES;
#BPMS:0.000=115.000;
#STOPS:;
#DELAYS:;
#WARPS:;
#TIMESIGNATURES:0.000=4=4;
#TICKCOUNTS:0.000=4;
#COMBOS:0.000=1;
#SPEEDS:0.000=1.000=0.000=0;
#SCROLLS:0.000=1.000;
#FAKES:;
#LABELS:0.000=Song Start;
#BGCHANGES:;
#KEYSOUNDS:;
#ATTACKS:
;

//---------------dance-single - ----------------
#NOTEDATA:;
#CHARTNAME:;
#STEPSTYPE:dance-single;
#DESCRIPTION:;
#CHARTSTYLE:;
#DIFFICULTY:Hard;
#METER:9;
#RADARVALUES:0.641519,0.704228,0.407378,0.322113,0.483170,397.000000,43.000000,34.000000,0.000000,0.000000,0.000000,0.000000,0.000000,0.641519,0.704228,0.407378,0.322113,0.483170,397.000000,43.000000,34.000000,0.000000,0.000000,0.000000,0.000000,0.000000;
#CREDIT:;
#NOTES:
1000
0000
0000
0000
0000
0000
0001
0000
0000
0000
0000
0000
0100
0000
0000
0000
0000
0010
0000
0000
0010
0000
0000
0100
,
0001
0000
0010
0000
0100
0010
0001
0100
,
0010
0000
0000
1000
0000
0000
0010
0000
0000
0001
0000
0000
0010
0000
0000
0100
0000
0010
0000
0000
0010
0000
0000
0000
,
0100
0000
0000
0001
0000
0000
1000
0000
0000
0100
0000
0000
0001
0000
0000
0100
0000
0010
0000
0000
0010
0000
0000
0000
,
0011
1100
0101
1010
,
0001
0000
0000
0100
0000
0000
0001
0000
0000
0100
0000
0000
0001
0010
0100
1000
0001
0010
0002
0000
0000
0000
0000
0000
,
1003
0000
0000
0100
0000
0000
0001
0000
0000
0100
0000
0000
1000
0000
0000
0010
0000
0100
0000
0000
0100
0000
0000
0000
,
0010
0000
0000
1000
0000
0000
0001
0000
0000
0010
0000
0000
0100
0000
0000
0010
0000
0001
0000
0000
0100
0000
0000
0000
,
0200
0310
0200
0301
0200
1300
0200
0310
,
0100
0000
0000
0001
0000
0000
1000
0000
0000
0100
0000
0000
1001
0000
0001
1000
0000
1000
0001
0000
0001
1000
0000
1000
,
0010
0000
0000
0010
0000
0000
0010
0000
0000
0010
0000
0000
0010
0000
0000
0010
0000
0000
0010
0000
0100
0001
0000
0001
,
1000
0000
0000
1000
0000
0000
1000
0000
0000
1000
0000
0000
1000
0000
0000
1000
0000
0000
1000
0000
0001
0010
0000
0010
,
0100
0000
0000
0100
0000
0000
0100
0000
0000
0100
0000
0000
0100
0000
0000
0100
0000
0000
0100
0000
0100
1000
0000
1000
,
0001
0000
0000
0100
0000
0000
0010
0000
0100
0001
0000
0010
0100
0000
0000
1000
0000
0000
0100
0000
0010
0001
0000
0001
,
1000
0000
0000
1000
0000
0000
1000
0000
0000
1000
0000
0000
1000
0000
0000
1000
0000
0000
1000
0000
0001
0010
0000
0010
,
0100
0000
0000
0100
0000
0000
0100
0000
0000
0100
0000
0000
0100
0000
0000
0100
0000
0000
0100
0000
0010
0100
0000
0010
,
0001
0000
0000
0001
0000
0000
0001
0000
0000
0001
0000
0000
0001
0000
0000
0001
0000
0000
0001
0000
0001
0100
0000
0100
,
0010
0000
0000
1000
0000
0000
0100
0000
0000
0010
0000
0000
0001
0000
0010
0100
0000
1100
0000
0000
0011
0000
0000
0001
,
0100
0000
0010
1000
0000
1001
0000
0000
1010
0000
0000
1000
0100
0000
0010
0001
0000
2002
0000
0000
0000
0000
0000
0000
,
0000
0000
0000
0000
0000
0000
3003
0000
0000
0000
0000
0001
1000
0000
0000
0100
0000
0000
0010
0000
0000
0001
0000
0000
,
0101
0000
0001
1000
1010
0000
0010
0100
,
0110
0000
0100
0010
1000
0001
0010
1000
,
1010
0000
0010
0001
0101
0000
0001
0100
,
0110
0000
0100
0010
1000
0001
0010
0100
,
0011
0000
0001
0100
1010
0000
1000
0100
,
0011
0000
0001
0100
1000
0100
0010
1000
,
1100
0000
0100
1000
0101
0000
0001
0010
,
1100
0000
0100
0010
0001
1000
0010
0200
,
0301
2000
3200
2300
,
3020
0000
0000
0000
0000
0000
0000
0000
0000
0130
0001
1000
0002
0000
0000
0000
0000
0000
2003
0000
0000
0000
0000
0000
,
3000
0002
2003
3200
,
0320
0000
0000
0000
0000
0000
0000
0000
0000
0130
1000
0001
0200
0000
0000
0000
0000
0000
0302
0000
0000
0000
0000
0000
,
0013
0000
0000
0100
0010
0001
0100
0000
0000
0010
0100
0001
1000
0000
0000
0001
1000
0100
0010
0000
0000
0010
0001
0010
,
0100
0000
0000
0010
0001
1000
0010
0100
0010
0100
0000
0000
0020
0000
0000
0000
0000
0000
2030
0000
3002
0000
2003
0000
,
3200
1300
0200
0301
0200
0310
0020
0031
,
0002
0000
0000
0203
0000
0000
2300
0000
0000
3200
0000
0000
0310
0000
0100
0010
0000
0010
1000
0000
1000
0100
0000
0100
,
0010
0000
0000
0010
0000
0000
0010
0000
0000
0010
0000
0000
0010
0000
0000
0010
0000
0000
0010
0000
0100
1000
0000
1000
,
0010
0000
0000
0010
0000
0000
0010
0000
0000
0010
0000
0000
0010
0000
0000
0010
0000
0000
0010
0000
0100
0001
0000
0001
,
0010
0000
0000
0010
0000
0000
0010
0000
0000
0010
0000
0000
0010
0000
0000
0010
0000
0000
0010
0000
0100
1000
0000
1000
,
0001
0000
0000
1000
0000
0000
0100
0000
0010
0001
0000
0001
0100
0000
0000
0010
0000
0000
0100
0000
0001
1000
0000
1000
,
0010
0000
0000
1010
0000
0000
1010
0000
0000
1010
0000
0000
1010
0000
0000
1010
0000
0000
1010
0000
1000
0010
0000
0100
,
0001
0000
0000
0101
0000
0000
0101
0000
0000
0101
0000
0000
0101
0000
0000
0101
0000
0000
0001
0000
0010
0100
0000
0100
,
1000
0000
0000
1001
0000
0000
1001
0000
0000
1001
0000
0000
1001
0000
0000
1001
0000
0000
1001
0000
0001
0100
0000
0100
,
0010
0000
1000
0010
0000
0010
0100
0000
0100
0001
0000
0001
0010
0000
0100
0010
0000
0001
0000
0000
1010
0000
0000
1000
,
0010
0000
0100
0001
0000
1000
0000
0000
0011
0000
0000
0010
0100
0000
1000
0010
0000
0100
0000
0000
1010
0000
0000
1000
,
0001
0000
0001
0010
0000
2200
0000
0000
0000
0000
0000
0000
0000
0000
0000
0000
0000
0000
0000
0000
0000
0000
0000
0000
,
0000
0000
0000
0000
0000
0000
0000
0000
0000
0000
3000
0300
0000
0000
0000
0000
0000
0000
0000
0000
0000
0000
0000
0000
;

//---------------dance-single - ----------------
#NOTEDATA:;
#CHARTNAME:;
#STEPSTYPE:dance-single;
#DESCRIPTION:;
#CHARTSTYLE:;
#DIFFICULTY:Easy;
#METER:3;
#RADARVALUES:0.209780,0.191847,0.151583,0.018948,0.000000,137.000000,16.000000,2.000000,0.000000,0.000000,0.000000,0.000000,0.000000,0.209780,0.191847,0.151583,0.018948,0.000000,137.000000,16.000000,2.000000,0.000000,0.000000,0.000000,0.000000,0.000000;
#CREDIT:;
#NOTES:
0001
0000
0100
0000
,
0010
0000
1000
0000
,
0010
0010
0010
0000
,
0100
0100
0100
0000
,
0001
0010
0100
1000
,
0100
0100
2000
3000
,
0001
0100
0010
0000
,
0100
0001
1000
0000
,
0100
0010
0001
1000
,
0010
0010
0010
0000
,
0001
1000
0001
1000
,
0010
0100
0010
0100
,
0001
0100
0001
0100
,
0001
0010
0100
1000
,
0100
0010
0100
0010
,
0001
1000
0001
1000
,
0010
1000
0010
1000
,
0010
0100
0001
0000
,
1000
0000
0010
0000
,
0000
0000
0000
0000
,
1001
0000
1001
0000
,
1001
0000
0000
0000
,
0110
0000
0110
0000
,
0110
0000
0000
0000
,
0101
0000
1010
0000
,
1100
0000
0000
0000
,
0011
0000
1100
0000
,
1001
0000
0000
0000
,
0000
0001
0100
0001
,
1000
0000
0100
1000
,
0000
1000
0100
0010
,
0100
0000
0010
0001
,
1000
1000
0001
0001
,
0100
0100
0010
0200
,
0310
0010
1000
1000
,
0001
0010
0100
1000
,
0100
0100
0100
0100
,
0010
0010
0010
0001
,
0010
0010
0100
0100
,
1000
0001
0100
0001
,
1000
1000
1000
1000
,
0001
0001
0001
0001
,
1000
1000
1000
1000
,
0001
0100
0110
0000
,
1001
0000
0110
0000
,
1001
0000
0000
0000
;

//---------------dance-single - ----------------
#NOTEDATA:;
#CHARTNAME:;
#STEPSTYPE:dance-single;
#DESCRIPTION:;
#CHARTSTYLE:;
#DIFFICULTY:Challenge;
#METER:11;
#RADARVALUES:0.913556,0.881074,0.871600,0.331587,1.000000,548.000000,92.000000,35.000000,0.000000,0.000000,0.000000,0.000000,0.000000,0.913556,0.881074,0.871600,0.331587,1.000000,548.000000,92.000000,35.000000,0.000000,0.000000,0.000000,0.000000,0.000000;
#CREDIT:;
#NOTES:
// measure 0
1000
0000
0000
0100
0000
0000
0001
0000
0000
0100
0000
0000
1000
0000
0000
0010
0000
0100
0000
0000
0100
0000
0000
0000
,  // measure 1
0001
0010
1000
0010
0001
0010
0110
1100
,  // measure 2
1001
0000
0000
0201
0000
0000
0310
0000
0000
1000
0000
0000
0010
0000
0000
1000
0000
0001
0000
0000
1000
0000
0000
0000
,  // measure 3
0001
0000
0000
1000
0000
0000
0001
0000
0000
0010
0000
0000
0001
0000
0000
1000
0000
0010
0000
0000
1000
0000
0000
0000
,  // measure 4
0001
0000
0000
0001
0010
0100
1000
0000
0000
1000
0100
0010
0001
0000
0000
0001
0010
0100
1000
0000
0000
1000
0100
0010
,  // measure 5
0001
0000
0000
1100
0000
0000
0001
0000
0000
1010
0000
0000
0001
0100
1000
0100
0010
1000
0002
0000
0000
0000
0000
0000
,  // measure 6
1003
0000
0000
0100
0000
0000
0001
0000
0000
0100
0000
0000
1000
0000
0000
0010
0000
0110
0000
0000
0110
0000
0000
0000
,  // measure 7
0010
0000
0000
0100
0000
0000
0001
0000
0000
1000
0000
0000
0100
0000
0000
0010
0000
0000
0100
0000
1000
0100
0000
0100
,  // measure 8
0010
0000
0000
0010
0001
0100
0010
0000
0000
0100
0010
1000
0100
0000
0000
0010
0001
1000
0010
0000
0000
0100
0001
1000
,  // measure 9
0100
0000
0000
0011
0000
0000
0100
0000
0000
1010
0000
0000
0101
0000
0001
0100
0000
0100
0010
0000
0010
1000
0000
1000
,  // measure 10
1001
0000
0000
0000
0000
0000
1002
0000
0000
0003
0000
0000
1001
0000
0000
0000
0000
0000
1001
0000
0000
0000
0000
0000
2001
0000
0000
3000
0000
0000
2001
0000
0000
3000
0000
0000
1001
0000
0000
0000
0001
0000
0100
0000
0000
0000
0100
0000
,  // measure 11
0110
0000
0000
0000
0000
0000
0120
0000
0000
0030
0000
0000
0110
0000
0000
0000
0000
0000
0110
0000
0000
0000
0000
0000
0210
0000
0000
0300
0000
0000
0210
0000
0000
0300
0000
0000
0110
0000
0000
0000
0010
0000
0100
0000
0000
0000
0100
0000
,  // measure 12
0101
0000
0000
0000
0000
0000
0201
0000
0000
0300
0000
0000
0101
0000
0000
0000
0000
0000
0101
0000
0000
0000
0000
0000
0102
0000
0000
0003
0000
0000
0102
0000
0000
0003
0000
0000
0101
0000
0000
0000
0001
0000
0100
0000
0000
0000
0010
0000
,  // measure 13
1010
0000
0000
1010
0000
0000
1000
0000
0001
0010
0000
0010
0100
0000
0010
0001
0000
0001
0100
0000
0100
0010
0000
0010
,  // measure 14
1000
0000
1000
0100
0000
0001
0100
0000
1000
0100
0000
0001
0100
0000
1000
0100
0000
1000
0010
0000
0010
0100
0000
0100
,  // measure 15
0001
0000
0001
0010
0000
0010
0001
0000
0001
0010
0000
0010
0001
0000
0001
0010
0000
0010
0001
0000
0010
0100
0000
0100
,  // measure 16
1000
0000
1000
0010
0000
0010
1000
0000
1000
0010
0000
0010
1000
0000
1000
0010
0000
0010
1000
0000
1000
0001
0000
0001
,  // measure 17
0010
0000
0100
0000
0010
0000
0001
0010
0100
1000
0001
1000
0010
0000
0100
0001
0000
0010
0000
0000
1100
0000
0000
1000
,  // measure 18
0001
0000
0001
0100
0000
0010
0000
0000
1001
0000
0000
0001
0100
0000
0010
1000
0000
2002
0000
0000
0000
0000
0000
0000
,  // measure 19
0000
0000
0000
0000
0000
0000
0000
0000
0000
3003
0000
0001
0011
0000
0000
0110
0000
0000
1100
0000
0000
0110
0000
0000
,  // measure 20
0011
0000
0000
0001
0100
0010
0100
0000
0000
0100
0000
0000
0110
0000
0000
0010
1000
0001
0010
0000
0000
0010
0000
0000
,  // measure 21
0110
0000
0000
0100
1000
0010
0100
0000
0000
0100
0000
0000
0010
0000
1000
0010
0000
0010
0200
0000
0000
0001
0000
0000
,  // measure 22
0310
0000
0000
1000
0010
0100
0001
0000
0000
0010
0000
0000
0110
0000
0000
0100
1000
0010
0100
0000
0000
0001
0000
0000
,  // measure 23
1001
0000
0000
0001
0010
0001
0010
0000
0000
0100
0000
0000
1000
0001
0100
0001
1000
0100
0010
0000
0000
0200
0300
0000
,  // measure 24
0110
0000
0000
0000
0000
0000
0000
0000
0000
0000
0000
0000
0000
0000
0000
0000
0000
0000
0000
0000
0000
0000
0000
0000
0010
0000
0000
0000
0000
0000
0000
0000
0001
0000
0000
0000
0000
0000
0000
0000
0100
0000
0000
0000
0000
0000
0000
0000
0010
0000
0000
0000
0000
0000
0000
0000
0000
0000
0000
0000
0000
0000
0000
0000
0100
0000
0000
0000
0000
0000
0000
0000
0000
0000
0000
0000
0000
0000
0000
0000
0000
0000
0000
0000
0000
0000
0000
0000
0010
0000
0000
0000
0000
0000
0000
0000
1000
0000
0000
0000
0000
0000
0000
0000
0000
0000
0000
0000
0000
0000
0000
0000
0000
0000
0000
0000
0000
0000
0000
0000
0001
0000
0000
0000
0000
0000
0000
0000
0100
0000
0000
0000
0000
0000
0000
0000
0010
0000
0000
0000
0000
0000
0000
0000
0100
0000
0000
0000
0000
0000
0000
0000
0000
0000
0000
0000
0000
0000
0000
0000
0000
0000
0010
0000
0000
0000
0000
0000
0000
0000
0000
0000
0000
0000
0000
0000
0000
0000
0000
0000
0000
0000
0000
0000
0100
0000
0000
0000
0000
0000
0000
0000
,  // measure 25
0001
0000
0000
0001
0000
0000
0001
0000
0000
0001
0000
0000
1000
0100
0010
0001
1000
0100
0020
0000
0000
0000
0000
0000
,  // measure 26
0130
0000
0000
0100
1000
0100
0010
0000
0001
0000
0000
0001
1000
0000
0000
0001
0100
0001
1000
0000
0100
0000
0000
0100
,  // measure 27
0010
0000
0010
0001
1000
0010
0100
0001
0010
0100
1000
0001
1000
0000
0001
0010
0000
0000
0100
0000
0000
2002
0000
3003
,  // measure 28
0110
0010
2000
3010
0200
0310
2000
3001
,  // measure 29
0020
0000
0000
0001
0000
0000
0000
0000
0001
0130
0001
1000
0002
0000
0000
0000
0000
0000
0203
0000
0000
0000
0000
0000
,  // measure 30
0310
1000
0002
0013
0002
1003
0002
0103
,  // measure 31
0002
0000
0000
1000
0000
0000
0000
0000
0000
1003
0100
0010
0100
0000
0010
0100
0000
0100
1000
0000
0002
0000
0003
0000
,  // measure 32
1001
0000
0000
0001
0100
1000
0100
0000
0000
0010
1000
0001
0010
0000
0000
0100
1000
0100
0001
0000
0000
0001
0100
0010
,  // measure 33
0001
0000
0000
0001
0010
0100
1000
0010
1000
0001
0000
0000
1020
0000
0000
0000
0000
0030
0200
0300
0200
0300
0200
0300
,  // measure 34
0001
0100
0001
0100
0001
0100
0010
0100
0010
1000
0010
1000
0001
1000
0001
1000
0100
1000
0100
0010
0100
0010
0001
0010
,  // measure 35
0001
0000
0010
0000
0100
0000
1000
0000
0010
0000
0100
0000
0001
0000
1000
0001
0000
0001
0010
0000
0010
0100
0000
0100
,  // measure 36
0110
0000
0000
0011
0000
0000
0110
0000
0000
0011
0000
0000
0110
0000
0000
0011
0000
0000
0110
0000
0010
0001
0000
1000
,  // measure 37
1100
0000
0000
0110
0000
0000
1100
0000
0000
0110
0000
0000
1100
0000
0000
0110
0000
0000
1100
0000
1000
0010
0000
0010
,  // measure 38
0100
0000
0000
0100
0010
0001
1000
0000
0000
0001
0100
0010
0100
0000
0000
0010
1000
0001
0010
0000
0000
0010
0100
1000
,  // measure 39
0001
0000
0000
0011
0000
0000
0110
0000
0010
0100
0000
0100
1000
0000
0001
1000
0000
1000
0001
0000
0001
1000
0000
1000
,  // measure 40
1010
0000
0000
0101
0000
0000
0011
0000
0000
1100
0000
0000
0011
0000
0000
1001
0000
0000
1001
0000
0001
1000
0000
1000
,  // measure 41
1010
0000
0000
0101
0000
0000
0011
0000
0000
1100
0000
0000
0011
0000
0000
1001
0000
0000
0110
0000
0010
1000
0000
1000
,  // measure 42
1010
0000
0000
0101
0000
0000
0011
0000
0000
1100
0000
0000
0011
0000
0000
1100
0000
0000
1001
0000
0010
0100
0000
0100
,  // measure 43
0001
0000
0001
0010
0000
0010
0100
1000
0001
0100
0001
1000
0001
0000
0001
0100
0000
0010
0000
0000
1010
0000
0000
1000
,  // measure 44
0100
0000
0100
0010
0000
0001
0000
0000
0011
0000
0000
0001
0010
0000
0010
0100
0000
1000
0000
0000
1001
0000
0000
0001
,  // measure 45
0100
0000
0100
0010
0000
2002
0000
0000
0000
0000
0000
0000
0000
0000
0000
0000
0000
0000
0000
0000
0000
0000
0000
0000
,  // measure 46
0000
0000
0000
0000
0000
0000
0000
0000
0000
0000
3003
0000
0000
0000
0000
0000
0000
0000
0000
0000
0000
0001
0100
0000
0001
0000
0000
0000
0000
0000
0000
0000
0000
0000
0000
0000
0000
0000
0000
0000
0000
0000
0000
0000
0000
0000
0000
0000
;

//---------------dance-single - ----------------
#NOTEDATA:;
#CHARTNAME:;
#STEPSTYPE:dance-single;
#DESCRIPTION:;
#CHARTSTYLE:;
#DIFFICULTY:Medium;
#METER:5;
#RADARVALUES:0.393844,0.352114,0.369483,0.151583,0.023685,236.000000,39.000000,16.000000,0.000000,0.000000,0.000000,0.000000,0.000000,0.393844,0.352114,0.369483,0.151583,0.023685,236.000000,39.000000,16.000000,0.000000,0.000000,0.000000,0.000000,0.000000;
#CREDIT:;
#NOTES:
0001
1000
0001
0010
,
0001
0000
1000
0000
0010
0000
1000
0001
,
0100
0001
0010
0000
0100
1000
0010
0000
,
0100
0010
1000
0010
0100
0010
1000
0000
,
0001
0010
0100
1000
,
0001
0010
0100
1000
0020
0000
0030
0000
,
0100
0000
0010
0000
1000
0000
0001
1000
,
0010
0000
1000
0000
0001
0000
0010
0100
,
1000
0100
0010
0100
1000
0010
0100
0001
,
1000
0001
1000
0001
1001
0000
0000
0000
,
0001
1010
0000
0000
1001
1001
0000
0000
,
1000
0011
0000
0000
1001
1001
0000
0000
,
0001
1010
0000
0000
1001
1001
0000
0000
,
0001
0100
1000
0100
0010
1000
0001
0010
,
0100
0110
0000
0000
1001
1001
0000
0000
,
0100
0110
0000
0000
1001
1001
0000
0000
,
0010
1001
0000
0000
0110
0110
0000
0000
,
1000
0001
1000
0010
1010
0000
0000
0000
,
0101
0000
0000
0000
0000
0000
0000
0000
0000
0000
0000
0000
1001
0000
0000
0000
0000
2002
0000
0000
0000
0000
0000
0000
,
3003
0000
0000
0000
0001
0010
0100
1000
,
1001
0001
1001
1000
,
1001
0001
1000
0010
,
1001
0100
1001
0010
,
1001
0001
1000
0010
,
1001
0100
1001
0100
,
1001
0001
0100
0001
,
1001
0001
1001
1000
,
1001
0000
0001
0000
0100
0000
0010
2000
,
3100
0010
0001
0010
,
0200
0000
0000
0310
0002
0000
2000
0000
,
3003
0001
1000
0010
,
2000
0000
0000
3010
0200
0000
0310
0000
,
0100
1000
0100
0001
0010
1000
0010
0001
,
0100
0001
1000
0010
0200
0000
0302
0000
,
1003
1000
0100
0100
0010
0010
0001
0001
,
2000
3002
0203
0301
,
1000
0100
0010
0001
1000
0100
0010
0100
,
1000
0100
0010
0001
1000
0100
0010
0100
,
1000
0100
0010
0001
1000
0100
0010
0100
,
1000
0001
0100
0010
1000
0001
0010
0000
,
0001
0010
0100
1000
0001
0010
0100
0010
,
0001
0010
0100
1000
0001
0010
0100
0010
,
0001
0010
0100
1000
0100
0010
0100
1000
,
0010
0000
0000
0100
0000
0000
0001
0000
0000
1000
0000
0000
0001
0000
0000
0000
0000
0000
0000
0000
1010
0000
0000
0000
,
0000
0000
0000
0000
0101
0000
0000
0000
0000
0000
0110
0000
,
0000
0000
0000
0000
0000
2002
0000
0000
0000
0000
0000
0000
0000
0000
0000
0000
0000
0000
0000
0000
0000
0000
0000
0000
,
0000
0000
0000
0000
0000
0000
0000
0000
0000
0000
3000
0003
0000
0000
0000
0000
0000
0000
0000
0000
0000
0000
0000
0000
;

//---------------dance-single - ----------------
#NOTEDATA:;
#CHARTNAME:;
#STEPSTYPE:dance-single;
#DESCRIPTION:;
#CHARTSTYLE:;
#DIFFICULTY:Beginner;
#METER:1;
#RADARVALUES:0.135342,0.171478,0.104213,0.000000,0.000000,89.000000,11.000000,0.000000,0.000000,0.000000,0.000000,0.000000,0.000000,0.135342,0.171478,0.104213,0.000000,0.000000,89.000000,11.000000,0.000000,0.000000,0.000000,0.000000,0.000000,0.000000;
#CREDIT:;
#NOTES:
1000
0000
0000
0000
,
1000
0000
0000
0000
,
1001
0000
0001
0000
,
0001
0000
0000
0000
,
0100
0000
0010
0000
,
1000
1000
1000
0000
,
0001
0000
0000
0000
,
0010
0000
0000
0000
,
0001
0000
1000
0000
,
0010
0000
0000
0000
,
0100
0000
0010
0000
,
0100
0000
0001
0000
,
0100
0000
0010
0000
,
1000
1000
1000
0000
,
0001
0000
0001
0000
,
1000
0000
1000
0000
,
0010
0000
0010
0000
,
0100
0000
1001
0000
,
0110
0000
1001
0000
,
0000
0000
0000
0000
,
1000
0000
1000
0000
,
1000
0000
0000
0000
,
0001
0000
0001
0000
,
0001
0000
0000
0000
,
0100
0000
0100
0000
,
0100
0000
0000
0000
,
0010
0000
0010
0000
,
0010
0000
0000
0000
,
1000
0000
0001
0000
,
0100
0000
0000
0000
,
0000
0001
0000
0000
,
1000
0000
0010
0100
,
1001
0000
0001
0000
,
1000
0000
0100
0000
,
1000
1000
0010
0010
,
0100
0000
0000
0001
,
1000
0000
1000
0000
,
0010
0000
0100
0000
,
0001
0100
0010
1000
,
0001
0000
1000
0000
,
1001
0001
0001
0000
,
1000
1000
1000
0000
,
0010
0010
0010
0000
,
0100
0010
1001
0000
,
0110
0000
1001
0000
,
0110
1001
0000
0000
;
