#TITLE:Frgmnts;
#SUBTITLE:;
#ARTIST:Nyolfen;
#TITLETRANSLIT:;
#SUBTITLETRANSLIT:;
#ARTISTTRANSLIT:;
#GENRE:;
#CREDIT:;
#BANNER:Frgmnts.png;
#BACKGROUND:Frgmnts-bg.png;
#LYRICSPATH:;
#CDTITLE:;
#MUSIC:Frgmnts.ogg;
#OFFSET:1.700999;
#SAMPLESTART:28.504223;
#SAMPLELENGTH:14.222221;
#LASTBEATHINT:1.532248;
#SELECTABLE:YES;
#BPMS:0.000000=135.000000
,164.000000=67.500000
,196.000000=135.000000
;
#STOPS:
;
#BGCHANGES:;
#KEYSOUNDS:;
#ATTACKS:;

//---------------dance-single - ----------------
#NOTES:
     dance-single:
     :
     Hard:
     6:
     0.327248,0.442084,0.270046,0.158303,0.251422,246.000000,217.000000,29.000000,17.000000,0.000000,0.000000,0.327248,0.442084,0.270046,0.158303,0.251422,246.000000,217.000000,29.000000,17.000000,0.000000,0.000000:
0000
0000
0000
0000
,
0000
0000
0000
0000
,
0000
0000
0000
0000
,
0000
0000
0000
0000
,
0000
0000
0000
0000
,
0010
0000
0000
0010
0000
0000
0020
0000
0000
0000
0000
0000
0000
0000
0000
0000
,
0000
0000
0000
0000
0000
0000
0000
0030
,
1000
0000
0000
0001
0000
0000
0010
0000
0000
0001
0000
0000
2000
0000
0000
0000
,
0000
0000
0000
0000
3000
0021
0000
0000
,
0130
0000
4000
0004
0000
0000
0000
0000
3003
0000
0000
0000
0000
0000
0000
0000
,
0001
0000
0000
0100
0000
0000
0001
0000
1000
0000
0000
0100
0000
0000
1000
0000
,
0010
0000
0000
0010
0000
0000
0100
0000
0001
0000
0000
0000
0000
0000
0000
0000
,
1000
0000
0000
0010
0000
0000
0100
0000
0001
0000
0000
0010
0000
0000
0001
0000
,
4000
0400
0000
0000
0000
0000
0000
0000
3300
0000
0000
0000
0000
0000
0000
0000
,
1000
0000
0000
0010
0000
0000
0100
0000
0001
0000
0000
0010
0000
0000
0001
0000
,
1000
0000
0000
1000
0000
0000
0001
0000
0010
0000
0000
0001
0000
0000
0100
0000
,
0020
0000
0000
0100
0000
0000
0100
0000
0130
0000
0000
0000
0201
0000
0000
0000
,
0301
0000
0000
1000
0000
0000
0100
0000
1000
0000
0000
0000
0001
0000
0000
0000
,
0010
0000
0000
0001
0000
0000
1000
0000
0100
0000
0000
1000
0000
0000
0001
0000
,
0100
0000
0000
0100
0000
0000
0010
0000
1000
0000
0000
0000
0001
0000
0000
0000
,
0010
0000
0000
0001
0000
0000
1000
0000
0010
0000
0000
0100
0000
0000
0001
0000
,
1000
0100
0000
0100
1000
0000
0001
0000
,
0100
0000
0000
0010
0000
0000
1000
0000
0001
0000
0000
0010
0000
0000
0001
0000
,
1000
0000
0010
0000
0100
0000
0010
0000
0100
0000
0000
0001
0000
0000
0010
0000
,
0001
0000
0000
0100
0000
0000
1000
0000
0100
0000
0000
0000
0120
0000
0000
0000
,
1030
0000
0000
0100
0000
0000
0010
0000
0100
0000
0000
0000
1000
0000
0000
0000
,
0001
0000
0000
0010
0000
0000
0100
0000
0010
0000
0000
0001
0000
0000
1000
0000
,
0010
0000
0000
0100
0000
0000
0001
0000
1000
0000
0000
0000
0001
0000
0000
0000
,
0010
0000
0000
1000
0000
0000
0010
0000
0100
0000
0000
0010
0000
0000
0001
0000
,
1000
0000
0000
1000
0000
0000
0001
0000
0100
0000
0000
0000
0001
0000
0000
0000
,
0010
0000
0000
0001
0000
0000
1000
0000
0100
0000
0000
1000
0000
0000
0010
0000
,
0100
0000
0000
0001
0000
0000
1000
0000
0100
0000
0000
1000
0000
0000
0001
0000
,
0100
0000
0000
0010
0000
0000
0100
0000
0001
0000
0000
1000
0000
0000
0100
0000
,
0110
0000
0000
0001
0000
0000
2100
0000
0000
0000
0000
0000
0000
0000
0000
0000
,
0002
0000
0000
3003
,
0101
0000
0000
0100
0000
0000
1010
0000
0000
0010
0000
0000
1002
0000
0000
0000
,
0200
0000
0000
0303
,
0011
0000
0000
0100
0000
0000
1200
0000
0000
0000
0000
0000
0000
0000
0000
0000
,
0020
0000
0000
0330
,
1001
0000
0000
0010
0000
0000
1010
0000
0000
0100
0000
0000
0201
0000
0000
0000
,
0000
0000
0000
0000
0000
0320
0000
0000
,
1030
0001
0100
0001
,
1000
0000
0100
0000
1000
0000
0010
0100
,
0010
1000
0001
0010
,
0001
0000
1000
0000
0100
0000
1000
0010
,
0100
0000
0001
1000
0000
0000
0100
0000
1000
0000
0010
0100
0000
0000
0000
0010
,
1000
0000
0010
0100
0000
0001
0000
0020
0000
0000
0000
0000
0000
0000
0030
0000
,
0100
0000
0010
0001
0000
0000
1000
0000
0001
0000
0100
0010
0000
0000
0000
1000
,
0010
0000
0100
0001
0000
0000
0000
0000
0200
0000
0300
0000
0020
0000
0030
0000
,
1010
0101
1010
0101
,
0011
1100
0011
1100
,
0101
1100
0101
1100
,
1001
0110
1001
0110
;

//---------------dance-single - ----------------
#NOTES:
     dance-single:
     :
     Medium:
     5:
     0.238120,0.442084,0.167615,0.121055,0.041904,179.000000,161.000000,18.000000,13.000000,0.000000,0.000000,0.238120,0.442084,0.167615,0.121055,0.041904,179.000000,161.000000,18.000000,13.000000,0.000000,0.000000:
0000
0000
0000
0000
,
0000
0000
0000
0000
,
0000
0000
0000
0000
,
0000
0000
0000
0000
,
0000
0000
0000
0000
,
1000
0000
0000
1000
0000
0000
0002
0000
0000
0000
0000
0000
0000
0000
0000
0000
,
0000
0000
0000
0003
,
0100
0000
0000
0010
0000
0000
1000
0000
0000
0001
0000
0000
2000
0000
0000
0000
,
0000
0000
0000
0000
0000
3001
0000
0000
,
0200
0000
0300
0000
,
0010
0000
1000
0000
,
1100
0000
1000
0000
,
0002
0000
0103
0010
,
2020
0000
3030
0000
,
0100
0000
0001
0000
,
0010
0001
1000
0000
,
0200
0000
0000
1300
,
0001
0000
0100
0000
,
0010
1000
0010
0000
,
0100
0000
0001
0000
,
0010
0001
1000
0100
,
1000
0000
0010
0000
,
1000
0001
0100
0001
,
0010
0000
0001
0000
,
1000
0100
1000
0020
,
0130
0001
0010
0100
,
0010
0001
1000
0010
,
1000
0100
1000
0000
,
0001
0100
0001
0000
,
1000
0001
0010
0001
,
1000
0100
1000
0010
,
0100
0001
0010
0000
,
0001
1000
0100
1000
,
0001
0000
0000
1000
0000
0000
0020
0000
0000
0000
0000
0000
0000
0000
0000
0000
,
0030
0100
0010
1000
,
0001
0000
0000
0010
0000
0000
0100
0000
0000
0010
0000
0000
0002
0000
0000
0000
,
2000
0000
0000
3003
,
0001
0000
0000
0100
0000
0000
0020
0000
0000
0000
0000
0000
0000
0000
0000
0000
,
0130
0000
0010
1000
,
0100
0000
0000
1000
0000
0000
0010
0000
0000
0100
0000
0000
0001
0000
0000
0000
,
0020
0000
0000
0000
0000
0130
0000
0000
,
1000
0100
1000
0001
,
0100
0010
1000
0001
,
1000
0001
0100
0000
0010
1000
0100
0000
,
0010
0100
1000
0000
0100
0010
0001
0000
,
1000
0001
0100
0000
0010
1000
0100
0000
,
0010
0100
1000
0000
0100
0010
0001
0000
,
0001
1000
0010
0000
1000
0010
0100
0000
,
0010
0100
0001
0000
1000
0000
0001
0000
,
0101
0101
0101
0101
,
1010
1010
1010
1010
,
1100
1100
1100
1100
,
0011
0011
0011
0011
;

//---------------dance-single - ----------------
#NOTES:
     dance-single:
     :
     Easy:
     2:
     0.150321,0.221042,0.055872,0.000000,0.000000,113.000000,107.000000,6.000000,0.000000,0.000000,0.000000,0.150321,0.221042,0.055872,0.000000,0.000000,113.000000,107.000000,6.000000,0.000000,0.000000,0.000000:
0000
0000
0000
0000
,
0000
0000
0000
0000
,
0000
0000
0000
0000
,
0000
0000
0000
0000
,
0000
0000
0000
0000
,
0010
0000
0000
0000
,
0100
0000
0000
0000
,
1000
0000
0000
0001
,
1000
0000
0010
0000
,
1001
0000
0000
0000
,
0001
0000
0010
0000
,
0100
0000
0000
0000
,
0010
0000
0000
0000
,
1100
0000
0000
0000
,
1000
0000
0010
0000
,
0100
0000
0000
0000
,
0001
0000
0000
1000
,
0010
0000
0000
1000
,
0001
0000
0010
0000
,
0001
0000
1000
0000
,
1000
0000
0001
0000
,
0100
0000
0010
0000
,
1000
0000
0010
0000
,
0100
0001
0100
0000
,
0010
0000
1000
0001
,
0010
0100
0010
0000
,
0001
0000
1000
0000
,
0100
0010
0100
0000
,
0010
0000
0001
0000
,
0100
0010
0100
0000
,
0010
0000
1000
0000
,
0100
1000
0100
0000
,
1000
0000
0001
0000
,
0110
0000
0000
0000
,
0000
0100
0010
0100
,
1001
0000
0000
0000
,
0100
0000
0000
0000
,
1001
0000
0000
0000
,
0000
0001
1000
0010
,
0110
0000
0000
0000
,
0100
0000
0000
0000
,
1000
0000
1000
0000
,
0001
0000
0001
0000
,
0100
0000
0100
0000
,
0010
0000
0010
0000
,
1000
0010
1000
0010
,
0100
0001
0100
0001
,
1000
0001
0010
0001
,
1000
0100
1000
0100
,
0010
0010
0010
0010
,
0001
0001
0001
0001
,
1000
1000
1000
1000
,
0100
0100
0100
0100
;

//---------------dance-single - ----------------
#NOTES:
     dance-single:
     :
     Beginner:
     1:
     0.079817,0.147361,0.037248,0.000000,0.000000,60.000000,56.000000,4.000000,0.000000,0.000000,0.000000,0.079817,0.147361,0.037248,0.000000,0.000000,60.000000,56.000000,4.000000,0.000000,0.000000,0.000000:
// measure 0
0000
0000
0000
0000
,  // measure 1
0000
0000
0000
0000
,  // measure 2
0000
0000
0000
0000
,  // measure 3
0000
0000
0000
0000
,  // measure 4
0000
0000
0000
0000
,  // measure 5
0010
0000
0000
0000
,  // measure 6
0000
0000
0000
0000
,  // measure 7
0100
0000
0000
0000
,  // measure 8
0000
0000
0000
0000
,  // measure 9
0001
0000
0000
0000
,  // measure 10
1000
0000
1000
0000
,  // measure 11
1000
0000
0000
0000
,  // measure 12
0010
0000
0000
0000
,  // measure 13
0100
0000
0000
0000
,  // measure 14
0001
0000
0001
0000
,  // measure 15
1000
0000
0000
0000
,  // measure 16
0010
0000
0000
0000
,  // measure 17
0100
0000
0000
0000
,  // measure 18
0010
0000
0000
0000
,  // measure 19
1000
0000
0000
0000
,  // measure 20
0000
0000
0000
0000
,  // measure 21
0001
0000
0000
0000
,  // measure 22
0010
0000
0000
0000
,  // measure 23
0001
0000
0000
0000
,  // measure 24
0000
0000
0000
1000
,  // measure 25
1000
0000
0000
0000
,  // measure 26
0010
0000
0100
0000
,  // measure 27
0100
0000
0000
0000
,  // measure 28
0010
0000
0000
0000
,  // measure 29
1000
0000
0000
0000
,  // measure 30
0001
0000
1000
0000
,  // measure 31
0001
0000
0000
0000
,  // measure 32
0000
0000
0000
0000
,  // measure 33
1001
0000
0000
0000
,  // measure 34
0010
0000
0000
0000
,  // measure 35
0110
0000
0000
0000
,  // measure 36
1000
0000
0000
0000
,  // measure 37
1001
0000
0000
0000
,  // measure 38
0010
0000
0000
0000
,  // measure 39
0110
0000
0000
0000
,  // measure 40
0001
0000
0000
0000
,  // measure 41
1000
0000
0000
0000
,  // measure 42
0001
0000
0000
0000
,  // measure 43
0100
0000
0000
0000
,  // measure 44
0010
0000
0000
0000
,  // measure 45
1000
0000
1000
0000
,  // measure 46
0001
0000
0001
0000
,  // measure 47
0100
0000
0100
0000
,  // measure 48
0010
0000
0010
0010
,  // measure 49
0010
0000
0000
0000
,  // measure 50
1000
0000
0000
0000
,  // measure 51
0001
0000
0000
0000
,  // measure 52
0100
0100
0100
0100
;
