#TITLE:Fly with me;
#SUBTITLE:;
#ARTIST:TAG;
#TITLETRANSLIT:;
#SUBTITLETRANSLIT:;
#ARTISTTRANSLIT:;
#GENRE:;
#CREDIT:;
#BANNER:Fly with me.png;
#BACKGROUND:Fly with me-bg.png;
#LYRICSPATH:;
#CDTITLE:;
#MUSIC:Fly with me.ogg;
#OFFSET:-0.453000;
#SAMPLESTART:25.127789;
#SAMPLELENGTH:10.847462;
#SELECTABLE:YES;
#BPMS:0.000000=177.000000
;
#STOPS:
;
#BGCHANGES:;
#KEYSOUNDS:;
#ATTACKS:;

//---------------dance-single - ----------------
#NOTES:
     dance-single:
     :
     Hard:
     9:
     0.507930,0.905645,0.185736,0.114979,0.871188,402.000000,381.000000,21.000000,13.000000,0.000000,0.000000,0.507930,0.905645,0.185736,0.114979,0.871188,402.000000,381.000000,21.000000,13.000000,0.000000,0.000000:
0000
0000
0000
0000
,
0000
0000
0000
0000
,
0000
0000
0000
0000
,
0000
0000
0000
0000
,
0000
0000
0000
0000
,
0000
0000
0000
0000
,
0000
0000
0000
0000
,
0000
0000
0000
0000
,
1000
0000
0001
0100
0000
0100
0010
0000
0010
1000
0000
1000
,
0001
0000
1000
0010
0000
0010
0100
0000
0100
0001
0000
0001
,
1000
0000
0100
0010
0000
0010
0001
0000
0001
0100
0000
0100
,
0010
0000
0010
1000
0000
1000
0001
0000
0000
1001
0000
0000
,
1000
0000
0010
1000
0000
0001
0100
0000
0001
0010
0000
0100
,
1000
0000
1000
0010
0000
0100
0001
0000
0001
0010
0000
0100
,
1000
0000
1000
0100
0000
0010
0001
0000
0001
0100
0000
0010
,
1000
0000
1000
0100
0000
0010
0001
0000
0001
0100
0000
0010
,
1000
0001
1000
0010
0100
0010
1000
0001
1000
0010
0100
0010
,
1000
0000
1000
0000
1000
0000
0001
0000
0001
0000
0001
0000
,
0000
0000
0000
1000
0001
0100
0001
0000
0010
0000
0000
0100
,
0000
0000
0010
0000
0000
0011
0000
0000
1000
0001
0000
0001
,
0100
0000
0000
0100
0000
0010
0000
0000
0000
0000
0000
0100
,
0001
0000
0010
0000
0000
1100
0000
0000
0100
1000
0000
1000
,
0001
0000
0000
1000
0000
0010
0000
0000
0000
0000
0000
0100
,
0001
0000
0001
0010
0000
1100
0000
0000
1000
0100
0000
0100
,
1000
0001
0100
0010
,
1000
0000
0010
1000
0000
0001
0000
0000
0000
0000
0000
0000
,
1001
0000
0000
0001
1000
0010
1000
0000
0100
0000
0000
0010
,
0000
0000
0100
0000
0000
1100
0000
0000
0001
1000
0000
1000
,
0010
0000
0000
0010
0000
0100
0000
0000
0000
0000
0000
0010
,
1000
0000
0100
0000
0000
0110
0000
0000
0010
0001
0000
0001
,
1000
0000
0000
0001
0000
0100
0000
0000
0000
0000
0000
0010
,
1000
0000
1000
0100
0000
0011
0000
0000
0001
0010
0000
0010
,
0001
0000
0000
0000
0000
0000
1000
0000
0001
0000
0100
0000
,
0010
0000
0000
1000
0000
1000
0000
0000
0000
0000
0000
0000
,
0101
0000
0000
0000
0000
0001
0100
0000
0100
0010
0000
1000
,
0000
0000
0000
0000
0000
0001
1000
0000
0100
0000
0000
0010
,
0100
0000
0000
0000
0000
0000
0100
0000
1000
0000
0001
0000
,
0100
0000
0000
0010
0000
1000
0000
0000
0001
0000
0000
1000
,
0100
0000
0000
1000
0000
0001
0000
0000
0010
0000
0000
0001
,
0100
0000
0000
0010
0000
1000
0000
0000
0100
0000
0000
0000
,
0010
0000
0000
0100
0000
0010
0000
0000
0000
0001
0000
0000
,
1000
0010
0001
0010
,
1000
0000
0000
0000
0000
0200
0000
0000
0000
0010
0000
0000
,
0000
0010
0000
0010
,
0300
0010
0000
0010
,
0110
0000
0000
1001
0000
0000
0001
0000
0001
0100
0000
0100
,
0010
0000
1000
0001
0000
0010
0000
0000
0001
1000
0000
1000
,
0001
0000
0100
0000
0000
0001
1000
0000
0010
0000
0000
1000
,
0001
0000
0000
0010
0000
0100
0000
0000
0010
0000
0000
0001
,
1000
0000
0000
1000
0000
0100
0000
0000
0000
1000
0000
1000
,
0001
0000
0100
0000
0000
0001
0000
0000
0000
1000
0000
0001
,
0100
1000
0100
0001
,
0010
0000
0000
0100
0000
0010
0000
0000
0000
0001
0000
1000
,
0100
0000
1000
0000
0000
1001
0000
0000
0000
0000
0000
0000
,
0001
0000
1000
0010
0000
0100
0000
0000
0000
0010
0000
0100
,
0001
0000
0010
0000
0000
0100
0010
0000
0001
0000
0000
1000
,
0001
0000
0000
1000
0000
0010
0000
0000
0100
0010
0000
1000
,
0001
0000
0000
0000
0000
0020
0000
0000
0000
0000
0000
0030
,
1001
0000
0000
0000
0000
0001
1000
0000
1000
0010
0000
1000
,
0000
0100
1000
0001
,
0100
0000
0000
0000
0000
0001
0000
0000
0000
1000
0000
0000
,
0001
0000
0000
0010
0000
0000
0110
0000
1100
0000
0000
0000
,
1001
0000
0000
0000
0000
0001
0100
0000
0100
0001
0000
1000
,
0000
0000
0000
0000
0000
0001
1000
0000
0000
0001
0000
0000
,
0010
0000
0000
0000
0000
0000
0100
0000
1000
0000
0001
0000
,
0100
0000
0000
0010
0000
0000
1000
0000
0001
0000
0000
0000
,
1100
0000
1000
0010
0000
0101
0000
0000
0001
1000
0000
1100
,
0000
0000
1000
0001
0000
0011
0000
0000
0001
0000
0000
0100
,
0010
0000
0000
0100
0000
0002
0000
0000
0000
0000
0000
0000
,
0000
0000
0003
0000
,
2010
0000
0000
0000
0000
0000
0000
0000
0000
3000
0000
0001
,
0200
0000
0000
0000
0000
0000
0000
0000
0000
0300
0000
0010
,
0200
0000
0000
0000
0000
0000
0000
0000
0000
0300
0000
0100
,
0002
0000
2003
0000
,
3200
0000
0000
0000
0000
0000
0000
0000
0000
0000
0000
0310
,
0002
0000
0000
0000
0000
0000
0000
0000
0000
0000
0000
1003
,
0020
0000
0000
0000
0000
0000
0000
0000
0000
0000
0000
0130
,
0002
0000
2003
0000
,
3001
1000
0001
0010
0100
1000
0001
1000
0001
0010
0100
1000
,
0001
1000
0001
0010
0100
1000
0001
1000
0001
0010
0100
1000
,
0001
1000
0001
0010
0100
1000
0001
1000
0001
0010
0100
1000
,
0001
1000
0001
0010
0100
1000
0001
1000
0001
0010
0100
1000
;

//---------------dance-single - ----------------
#NOTES:
     dance-single:
     :
     Medium:
     6:
     0.395478,0.580202,0.442227,0.274181,0.225536,313.000000,263.000000,50.000000,31.000000,0.000000,0.000000,0.395478,0.580202,0.442227,0.274181,0.225536,313.000000,263.000000,50.000000,31.000000,0.000000,0.000000:
0000
0000
0000
0000
,
0000
0000
0000
0000
,
0000
0000
0000
0000
,
0000
0000
0000
0000
,
0000
0000
0000
0000
,
0000
0000
0000
0000
,
0000
0000
0000
0000
,
0000
0000
0000
0000
,
1000
0100
1000
0010
,
1000
0001
0100
0001
,
0010
0001
1000
0100
,
1000
0010
0100
0100
,
0010
1000
0010
0100
,
0010
0001
0010
0100
,
1000
0100
0001
0100
,
1000
0100
0010
1000
,
0001
0010
0100
1000
,
0001
0000
1000
0000
0001
0000
0100
0000
0010
0000
0100
0000
,
0000
0001
0010
0001
,
1000
0000
0000
0100
0000
1001
0000
0000
1000
0001
0000
0001
,
0100
0000
0000
0010
0000
0000
1000
0000
0000
0000
0000
0100
,
1000
0000
0001
0000
0000
0011
0000
0000
0001
1000
0000
1000
,
0100
1000
0010
0100
,
0010
0000
0000
0000
0000
0101
0000
0000
0000
0001
0000
0000
,
1000
0010
0001
0010
,
0100
0000
0010
1000
0000
0001
0000
0000
0000
0000
0000
0000
,
0000
1000
0010
1000
,
0001
0000
0010
0000
0000
0011
0000
0000
0000
0001
0000
0000
,
1000
0100
1000
0010
,
0100
0000
0010
0000
0000
1001
0000
0000
0001
1000
0000
1000
,
0001
0000
0000
0100
0000
0001
0000
0000
0000
0000
0000
0010
,
0001
0000
0001
0100
0000
0010
0000
0000
1000
0010
0000
0010
,
1000
0000
0000
0000
0000
0000
0010
0000
1000
0000
0001
0000
,
0100
0000
0000
0001
0000
0010
0000
0000
0000
0000
0000
0000
,
0200
1300
0010
0100
,
0001
1000
0100
1000
,
0001
0010
0001
1000
,
0010
0100
0001
1000
,
1001
0001
0010
0100
,
0110
0100
1000
0010
,
1010
0010
1000
0001
,
0101
0011
0110
1100
,
1002
0000
0000
0000
0000
2000
0000
0000
0000
0000
0000
0000
,
0000
0000
0000
0000
,
3003
0000
0000
0000
,
0010
0000
0100
0010
0000
1000
0200
0000
0000
0320
0000
0000
,
0031
1000
1100
1000
,
1100
1000
1010
0010
,
0110
0100
0001
0010
,
1100
1000
1010
1001
,
0101
0001
0010
0001
,
1001
0101
0011
0110
,
1100
0000
0000
1000
0000
0010
0000
0000
0000
0100
0000
0010
,
1000
0000
0001
0000
0000
1200
0000
0000
0000
0000
0000
0000
,
1300
0001
0011
0001
,
0011
0001
0101
0100
,
0110
0010
1000
0100
,
0011
0000
0000
0000
0000
0202
0000
0000
0000
0303
0000
0000
,
1010
1000
0100
1000
,
1001
1010
1100
0110
,
0011
0000
0000
0000
0000
0110
0000
0000
0000
0110
0000
0000
,
0011
0000
0000
1010
0000
0000
1000
0000
0200
0000
0000
0000
,
1300
0000
0000
0000
0000
1000
0001
0000
0001
0100
0000
0020
,
0000
0000
0000
0000
0000
0130
0001
0000
0000
1000
0000
0000
,
0100
0000
0000
0000
0000
0000
1000
0000
0100
0000
0010
0000
,
0001
1000
0010
1000
,
0101
0000
0000
0000
0000
1010
0000
0000
0000
0000
0000
1100
,
0000
0000
0000
0000
0000
0011
0000
0000
1100
0000
0000
0000
,
1001
0000
0000
0000
0000
0202
0000
0000
0000
0000
0000
0000
,
0000
0000
0000
0303
,
0002
0000
0000
0000
,
2003
0000
0000
0000
,
3020
0000
0000
0000
,
2030
0000
3002
0000
,
0203
0000
0000
0000
,
0320
0000
0000
0000
,
2030
0000
0000
0000
,
3002
0000
2000
3003
,
0002
0103
0020
1030
,
2000
3100
0200
0310
,
0020
0031
0002
0013
,
0020
0130
0200
2300
,
3001
0000
0000
0000
;

//---------------dance-single - ----------------
#NOTES:
     dance-single:
     :
     Easy:
     3:
     0.224904,0.324374,0.132668,0.053067,0.000000,178.000000,163.000000,15.000000,6.000000,0.000000,0.000000,0.224904,0.324374,0.132668,0.053067,0.000000,178.000000,163.000000,15.000000,6.000000,0.000000,0.000000:
0000
0000
0000
0000
,
0000
0000
0000
0000
,
0000
0000
0000
0000
,
0000
0000
0000
0000
,
0000
0000
0000
0000
,
0000
0000
0000
0000
,
0000
0000
0000
0000
,
0000
0000
0000
0000
,
1000
0000
1000
0000
,
0001
0000
0001
0000
,
0100
0000
0100
0000
,
0010
0000
0010
0000
,
1000
0000
0010
0000
,
0100
0000
0001
0000
,
0010
0000
0100
0000
,
1000
0000
0001
0000
,
0100
0000
0000
0000
,
0110
0000
0000
0000
,
0000
1000
0000
1000
,
0000
1000
0001
1000
,
0000
0010
0000
1000
,
0000
0010
0100
0001
,
0010
0100
0000
0010
,
0000
0100
0000
0010
,
0001
1000
0001
1000
,
0010
0010
0010
0000
,
1000
0001
0000
0010
,
0000
0001
0000
0100
,
0001
1000
0000
0100
,
0000
1000
0000
0010
,
1000
0100
0000
1000
,
0000
0001
0000
0100
,
0001
0000
0010
0001
,
0100
0100
0010
0000
,
0100
0000
0010
1000
,
0001
0000
1000
0000
,
0001
0000
0010
0001
,
1000
0100
1000
0010
,
0100
0001
0100
0001
,
0100
0010
0100
0010
,
1000
0010
1000
0010
,
1000
1000
0001
0001
,
0100
0000
0200
0000
,
0000
0000
0000
0000
,
0000
0000
0000
0000
,
0300
0000
0000
0000
,
0010
0000
0000
0010
,
0000
0000
0010
0000
,
1000
0000
0001
0000
,
1000
0010
1000
0000
,
0100
0000
1000
0000
,
0001
0010
0100
1000
,
0100
0000
1000
0000
,
0010
1000
0010
0000
,
0100
0000
0000
0100
,
0000
0000
0100
0000
,
0010
0000
1000
0000
,
0001
1000
1001
0000
,
1001
0000
0001
0010
,
0001
0010
0100
1000
,
0100
0000
1000
0000
,
0010
1000
0001
0000
,
0200
0000
0301
0000
,
0020
0000
0130
0000
,
0200
0000
1300
0000
,
2000
0000
3001
0000
,
1001
0000
0010
0000
,
0100
0000
0010
0000
,
1000
0001
0200
0000
,
0000
0000
0300
0000
,
1001
0000
0000
0000
,
0110
0000
0000
0000
,
0110
0000
0000
0000
,
1001
0000
0110
0000
,
1010
0000
0000
0000
,
0101
0000
0000
0000
,
1010
0000
0000
0000
,
0101
0000
1010
0000
,
1001
0000
0001
0000
,
0001
0000
0001
0000
,
0001
0000
0001
0000
,
0001
0000
0001
0000
;

//---------------dance-single - ----------------
#NOTES:
     dance-single:
     :
     Beginner:
     2:
     0.127614,0.216249,0.017689,0.000000,0.000000,101.000000,99.000000,2.000000,0.000000,0.000000,0.000000,0.127614,0.216249,0.017689,0.000000,0.000000,101.000000,99.000000,2.000000,0.000000,0.000000,0.000000:
// measure 0
0000
0000
0000
0000
,  // measure 1
0000
0000
0000
0000
,  // measure 2
0000
0000
0000
0000
,  // measure 3
0000
0000
0000
0000
,  // measure 4
0000
0000
0000
0000
,  // measure 5
0000
0000
0000
0000
,  // measure 6
0000
0000
0000
0000
,  // measure 7
0000
0000
0000
0000
,  // measure 8
1000
0000
0000
0000
,  // measure 9
0001
0000
0000
0000
,  // measure 10
0100
0000
0000
0000
,  // measure 11
0001
0000
1000
0000
,  // measure 12
0001
0000
0000
0000
,  // measure 13
0010
0000
0000
0000
,  // measure 14
0001
0000
0000
0000
,  // measure 15
1000
0000
0010
0000
,  // measure 16
0100
0000
0000
0000
,  // measure 17
0110
0000
0000
0000
,  // measure 18
0100
0000
0000
0000
,  // measure 19
0000
0000
0010
0000
,  // measure 20
0010
0000
0000
0000
,  // measure 21
1000
0000
1000
0000
,  // measure 22
1000
0000
0000
0000
,  // measure 23
0001
0000
0000
0000
,  // measure 24
0100
0000
0010
0000
,  // measure 25
1000
1000
1000
0000
,  // measure 26
0001
0000
0000
0000
,  // measure 27
1000
0000
0000
0000
,  // measure 28
0100
0000
0000
0000
,  // measure 29
1000
0000
0000
0000
,  // measure 30
0001
0000
0000
0000
,  // measure 31
0100
0000
0000
0010
,  // measure 32
0010
0000
1000
0000
,  // measure 33
0001
0000
0000
0000
,  // measure 34
0100
0000
0000
0000
,  // measure 35
0010
0000
0000
0000
,  // measure 36
1000
0000
0010
0000
,  // measure 37
1000
0000
0001
0000
,  // measure 38
1001
0000
0000
0000
,  // measure 39
0010
0000
0000
0000
,  // measure 40
0100
0000
0000
0000
,  // measure 41
0001
0000
1000
0000
,  // measure 42
0010
0000
0010
0000
,  // measure 43
0000
0000
0000
0000
,  // measure 44
0000
0000
0000
0000
,  // measure 45
0000
0000
1000
0000
,  // measure 46
0001
0000
0000
0001
,  // measure 47
0000
0000
0001
0000
,  // measure 48
0001
0000
1000
0000
,  // measure 49
0001
0001
0001
0000
,  // measure 50
0100
0000
0000
0010
,  // measure 51
0100
0000
0010
0000
,  // measure 52
1000
0000
0000
1000
,  // measure 53
1000
0000
0000
0000
,  // measure 54
0001
0000
0000
1000
,  // measure 55
0000
0000
0010
0000
,  // measure 56
1000
0000
0000
0000
,  // measure 57
0010
0000
0000
0000
,  // measure 58
0100
0000
0000
0000
,  // measure 59
0001
0000
0000
0000
,  // measure 60
0010
0000
0000
0000
,  // measure 61
0001
0000
1000
0000
,  // measure 62
0010
0000
0000
0000
,  // measure 63
1000
0000
0000
0000
,  // measure 64
0100
0000
0000
0000
,  // measure 65
1000
0000
0000
0000
,  // measure 66
0001
0000
0000
0000
,  // measure 67
1000
0000
0000
0000
,  // measure 68
0010
0000
0010
0000
,  // measure 69
0000
0000
0000
0000
,  // measure 70
0010
0000
0000
0000
,  // measure 71
0100
0000
0000
0000
,  // measure 72
0001
0000
0000
0000
,  // measure 73
1000
0000
0001
0000
,  // measure 74
1000
0000
0000
0000
,  // measure 75
0010
0000
0000
0000
,  // measure 76
0100
0000
0000
0000
,  // measure 77
0001
0000
1000
0000
,  // measure 78
0010
0000
0010
0000
,  // measure 79
0010
0000
0010
0000
,  // measure 80
0010
0000
0010
0000
,  // measure 81
0010
0000
0010
0000
;
