#VERSION:0.83;
#TITLE:Flashes;
#SUBTITLE:;
#ARTIST:Dollscythe;
#TITLETRANSLIT:;
#SUBTITLETRANSLIT:;
#ARTISTTRANSLIT:;
#GENRE:;
#ORIGIN:;
#CREDIT:;
#BANNER:Flashes.png;
#BACKGROUND:Flashes-bg.png;
#PREVIEWVID:;
#JACKET:Flashes-jacket.png;
#CDIMAGE:;
#DISCIMAGE:;
#LYRICSPATH:;
#CDTITLE:;
#MUSIC:Flashes.mp3;
#OFFSET:-1.052000;
#SAMPLESTART:70.367310;
#SAMPLELENGTH:10.666664;
#SELECTABLE:YES;
#BPMS:0.000=90.000,
32.000=180.000,
112.000=90.000,
128.000=180.000,
256.000=90.000;
#STOPS:;
#DELAYS:;
#WARPS:;
#TIMESIGNATURES:0.000=4=4;
#TICKCOUNTS:0.000=4;
#COMBOS:0.000=1;
#SPEEDS:0.000=1.000=0.000=0;
#SCROLLS:0.000=1.000;
#FAKES:;
#LABELS:0.000=Song Start;
#BGCHANGES:;
#KEYSOUNDS:;
#ATTACKS:
;

//---------------dance-single - ----------------
#NOTEDATA:;
#CHARTNAME:;
#STEPSTYPE:dance-single;
#DESCRIPTION:;
#CHARTSTYLE:;
#DIFFICULTY:Hard;
#METER:9;
#RADARVALUES:0.532185,0.766776,0.467750,0.409281,0.271462,446.000000,390.000000,56.000000,49.000000,0.000000,0.000000,8.000000,0.000000,0.000000,0.532185,0.766776,0.467750,0.409281,0.271462,446.000000,390.000000,56.000000,49.000000,0.000000,0.000000,8.000000,0.000000,0.000000;
#CREDIT:;
#NOTES:
0000
0000
0000
0000
,
0000
0000
0000
0000
,
0000
0000
0000
0000
,
0000
0000
0000
0000
,
1000
0000
0011
0000
0001
0100
0010
0000
,
0100
0000
1010
0000
1000
0001
0010
0100
,
0010
0000
1100
0000
1000
0001
0010
0000
,
0001
0000
1100
0000
0100
0010
0001
0000
,
1020
1000
1000
1000
,
0100
0100
0100
0130
,
0001
0100
0010
1000
0001
0100
0010
1000
,
0004
4000
0000
0000
0000
0000
0000
0000
0000
0000
0000
0000
0000
0000
3003
0000
,
1002
0000
0003
0100
0001
0001
1000
0100
,
0020
0000
0030
0100
0100
0010
0001
1000
,
0001
0000
0000
0000
0020
0030
0020
0000
0130
1000
0100
1000
0200
0300
0200
0000
,
0310
0000
0000
0011
0000
0000
0010
0000
0000
0110
0000
0000
0100
0000
0000
1000
,
0002
0000
0003
0010
0100
0100
1000
0001
,
0201
0000
0300
0010
1000
1000
0100
1000
,
0001
0000
0000
0000
2000
3000
2000
0000
3001
0100
0001
0100
0002
0003
0002
0000
,
1003
0000
0000
0010
0000
0000
0001
0000
0000
0010
0000
0000
0100
0000
0000
0000
,
1020
0000
0030
1000
0100
0001
0100
0010
,
0120
0000
0030
0100
1000
0100
0001
0100
,
0010
0000
0000
0000
0002
0003
0002
0000
1003
0010
1000
0010
2000
3000
2000
0000
,
3001
0000
0000
0101
0000
0000
0100
0000
0000
0110
0000
0000
0010
0000
0000
0000
,
1002
0000
0003
0010
1000
0010
0100
1000
,
2010
0000
3000
1000
0010
0001
0010
0100
,
0002
0000
0000
0000
2003
3000
2000
0000
3002
0103
0020
1030
0002
0003
0002
0000
,
0403
0040
0000
0000
0000
0000
0000
0000
0000
0000
0000
0000
0000
0000
0330
0000
,
1001
0000
1000
0001
0000
0100
0000
0001
0010
0001
1000
0100
0001
0100
0010
0000
,
0100
1000
0010
0000
0100
0001
0010
0000
0100
1000
0010
0100
0001
0010
0100
0000
,
1000
0000
0011
0000
0001
0100
1010
1000
,
0002
0000
0000
0203
0000
0000
0320
0000
,
1030
0101
0101
0101
,
0011
0011
0011
0011
,
0110
0110
0110
0110
,
1100
1100
1100
1100
,
1001
1000
0001
0010
0001
1000
0010
1000
,
0001
1000
0100
1000
0001
0100
0001
1000
,
0100
0010
0100
0010
0100
0010
0100
0010
0100
0010
0100
0010
0100
0010
0100
4000
,
0004
0000
0000
0000
0000
0000
0000
3003
,
1001
0000
0000
0000
1000
0000
0001
0000
0010
0000
0000
0100
0000
0000
1000
0000
,
1100
0100
1000
0000
0100
0010
0001
1000
,
1001
0000
0001
0000
0000
0000
1000
0000
0100
0000
0000
0010
0000
0000
0100
0000
,
1000
0000
1000
0010
0000
0100
0001
1000
,
1100
0000
0000
0000
0100
0000
0010
0000
0001
0000
0000
0100
0000
0000
0010
0000
,
1010
1000
0001
0000
1000
0010
1000
0100
,
0110
0000
0000
0000
0010
0000
0001
0000
0100
0000
0000
0001
0000
0000
1000
0000
,
1001
0000
0000
0101
0000
0000
0011
0000
0000
0011
0000
0000
0010
0000
0100
0000
,
1200
0000
0000
0000
0310
0000
0001
0000
0100
0000
0000
0010
0000
0000
1000
0000
,
1002
1003
0001
0000
0010
0100
1000
0010
,
0201
0000
0000
0000
0310
0000
1000
0000
0001
0000
0000
0010
0000
0000
0001
0000
,
1000
0010
0001
0010
0100
0001
1000
0100
,
1002
0000
0000
0000
0000
0000
0200
0000
0300
0200
0000
0300
0200
0000
0300
0200
0000
0300
0200
0000
0300
0203
0000
0300
,
2001
0000
0000
0000
0000
0000
0200
0000
0300
0200
0000
0300
0200
0000
0300
0200
0000
0300
0200
0000
0300
3200
0000
0300
,
1000
0001
1000
0001
1000
0001
1000
0001
1000
0001
1000
0001
1000
0001
1000
0040
,
0400
0000
0000
0000
0000
0000
0000
0330
,
0010
0000
1010
0000
0000
1000
0001
0000
,
0010
0000
0110
0000
0000
0100
1000
0000
,
0010
0000
0101
0000
0000
0001
0010
0000
,
1100
0000
0100
1000
0000
1000
0001
0000
,
0100
0000
0101
0000
0000
0001
1000
0000
,
0100
0000
0110
0000
0000
0100
1000
0000
,
0010
0000
0101
0000
0000
0001
0010
0000
,
0001
0000
1000
0001
0000
0001
0100
0000
,
0010
0010
0000
0000
1000
0000
0000
0100
0000
0000
0000
0010
0000
0100
1000
0000
,
0100
0000
0000
0000
1000
0000
0000
0010
0000
0000
0000
0100
0000
0001
1000
0000
,
0010
0000
0000
0000
1000
0000
0000
0100
0000
0000
0000
1000
0000
0001
0100
0000
,
0001
0000
0000
0000
0010
0000
0000
0100
0000
0000
0000
1000
0000
0002
0000
0000
,
0003
0000
0000
0000
;

//---------------dance-single - ----------------
#NOTEDATA:;
#CHARTNAME:;
#STEPSTYPE:dance-single;
#DESCRIPTION:;
#CHARTSTYLE:;
#DIFFICULTY:Easy;
#METER:6;
#RADARVALUES:0.368711,0.425987,0.425987,0.150348,0.000000,309.000000,258.000000,51.000000,18.000000,0.000000,0.000000,0.000000,0.000000,0.000000,0.368711,0.425987,0.425987,0.150348,0.000000,309.000000,258.000000,51.000000,18.000000,0.000000,0.000000,0.000000,0.000000,0.000000;
#CREDIT:;
#NOTES:
0000
0000
0000
0000
,
0000
0000
0000
0000
,
0000
0000
0000
0000
,
0000
0000
0000
0000
,
1000
0000
1100
0000
0001
0100
0001
0000
,
0010
0000
0011
0000
1000
0100
1000
0000
,
0010
0000
1001
0000
0001
1000
0100
0000
,
0010
1001
0100
1001
,
0101
0010
0010
0010
,
1000
1000
1000
1000
,
0001
0100
0010
1000
,
2002
0000
0000
3003
,
1001
0000
0010
0100
,
1001
0000
0100
0010
,
1200
0310
0021
0130
,
1000
0000
0000
0010
0000
0000
0100
0000
,
0101
0000
0001
1000
,
1100
0000
1000
0100
,
0120
0031
0120
1030
,
0010
0000
0000
0001
0000
0000
1000
0000
,
1001
0000
0001
0100
,
1010
0000
1000
0100
,
0120
0031
0201
0310
,
1001
0000
0000
0010
0000
0000
1001
0000
,
0101
0000
0001
1000
,
1100
0000
1000
0010
,
0100
0001
0001
1000
,
0110
0000
0000
1001
0000
0000
0110
0000
,
1000
0000
0110
0000
0100
0001
0010
0000
,
0100
0000
1100
0000
0100
1000
0010
0100
,
0001
0000
1001
0000
1000
0001
0100
0000
,
0001
0000
0011
0000
0010
0001
1000
0000
,
2001
0001
0001
3001
,
1002
1000
1000
1003
,
2001
0001
0001
3001
,
1002
0000
1000
0000
1000
0000
1000
0003
,
0102
0013
2100
3010
,
0102
0013
2100
3010
,
1000
0100
0010
0001
1000
0100
0010
0001
,
0020
0000
0000
0030
,
1001
0001
0100
0010
,
1010
0000
1000
0000
0010
0000
0100
0010
,
0110
0010
0100
0001
,
1000
0000
0001
1000
0000
1000
0001
0000
,
1001
0001
0100
0001
,
0011
0000
0010
0000
0100
0000
1000
0100
,
1100
0100
1000
0010
,
0110
0000
0000
0101
0000
0000
0011
0000
,
1001
0001
0100
0010
,
1010
0000
1000
0000
0100
0000
0010
0001
,
0011
0001
0100
0010
,
1000
0000
0010
1000
0000
1000
0001
0000
,
1001
0000
0001
1000
0001
1000
0001
1000
,
0000
0000
0001
1000
0001
1000
0001
1000
,
0001
0100
0010
1000
,
0001
0000
0100
0000
0010
0100
0001
1000
,
0010
0000
0000
0000
1000
0000
0000
0100
,
0000
0000
0000
1000
0000
0010
0100
0000
,
0001
0000
0000
0000
0010
0000
0000
0001
,
0000
0000
0000
1000
0000
0100
1000
0000
,
0010
0000
0000
0000
0100
0000
0000
0001
,
0000
0000
0000
1000
0000
0100
1000
0000
,
0010
0000
0000
0000
0100
0000
0000
0001
,
0000
0000
0000
0010
0000
0001
1000
0000
,
0001
0000
0100
0000
0010
1000
0001
0000
,
1000
0000
0010
0000
0100
0001
0010
0000
,
0100
0000
1000
0000
0010
0100
1000
0000
,
0100
0000
0001
0000
1000
0001
1000
0020
,
0030
0000
0000
0000
;

//---------------dance-single - ----------------
#NOTEDATA:;
#CHARTNAME:;
#STEPSTYPE:dance-single;
#DESCRIPTION:;
#CHARTSTYLE:;
#DIFFICULTY:Medium;
#METER:7;
#RADARVALUES:0.385417,0.482785,0.250581,0.183759,0.091880,323.000000,293.000000,30.000000,22.000000,0.000000,0.000000,9.000000,0.000000,0.000000,0.385417,0.482785,0.250581,0.183759,0.091880,323.000000,293.000000,30.000000,22.000000,0.000000,0.000000,9.000000,0.000000,0.000000;
#CREDIT:;
#NOTES:
0000
0000
0000
0000
,
0000
0000
0000
0000
,
0000
0000
0000
0000
,
0000
0000
0000
0000
,
1000
0101
0001
1100
,
1000
0011
0001
1010
,
1000
0011
0001
1010
,
1000
0011
1000
1010
,
0120
1000
1000
1000
,
0100
0100
0100
0100
,
0130
0010
1000
0001
0100
0010
1000
0004
,
4000
0000
0000
3003
,
0002
0000
0003
1000
0010
0100
0010
1000
,
0002
0000
0003
0010
0001
0100
0010
1000
,
0001
4000
0000
0000
,
3100
0000
0000
0010
0000
0000
0001
0000
0000
0010
0000
0000
0001
0000
0000
0000
,
2100
0000
3000
0100
0010
0001
0010
0001
,
0200
0000
0300
0001
0010
0100
0010
0001
,
1000
0040
0000
0000
,
0130
0000
0000
0010
0000
0000
1000
0000
0000
0001
0000
0000
0010
0000
0000
0000
,
2001
0000
3000
0001
0100
0001
0100
0010
,
0200
0000
0300
0100
0010
1000
0001
0010
,
0002
0403
0000
0000
,
0310
0000
0000
1000
0000
0000
0001
0000
0000
0010
0000
0000
0001
0000
0000
0000
,
0102
0000
0003
1000
0010
0010
0100
0001
,
2000
0000
3000
0100
0100
0010
0001
1000
,
0020
0000
0130
0001
1000
1000
0001
1000
,
0010
0000
0000
1000
0000
0000
0010
0000
0000
0100
0000
0000
0001
0000
0000
0000
,
1000
0101
0001
1010
,
1000
0000
0011
0000
0001
0100
0010
1000
,
0001
1100
1000
0101
,
0001
0011
0010
0110
,
1200
0010
0010
0010
,
1000
1000
1000
1000
,
0010
0010
0010
0010
,
1000
1000
1000
1300
,
0001
0010
0100
1000
0001
0010
0100
1000
,
0001
0010
0100
1000
0001
0010
0100
1000
,
0100
0010
0001
0100
0010
1000
0001
0400
,
0040
0000
0000
0330
,
1002
0103
0001
0010
,
2100
0000
3001
0000
1000
0000
0010
0100
,
0102
0013
0100
0010
,
0001
0000
1000
0001
0000
0001
0100
0000
,
1002
0103
0001
1000
,
1020
0000
0130
0000
0010
0000
1000
0100
,
0120
0031
1000
0100
,
1000
0000
0000
0001
0000
0000
1000
0000
0000
1000
0000
0000
0001
0000
0010
0000
,
0210
1300
0100
0010
,
2001
0000
3100
0000
1000
0000
0100
1000
,
2010
3001
0100
0001
,
1000
0000
0001
0100
0000
0100
0010
0000
,
1000
0000
0001
0001
1000
1000
0001
0001
,
0000
0000
1000
1000
0001
0001
1000
1000
,
4004
0000
0000
0000
,
0000
0000
0000
0000
0000
0000
0000
3003
,
1000
0100
0000
0000
1000
0000
0000
0010
,
0000
0000
0000
0001
0000
0010
0100
0000
,
0001
1000
0000
0000
0100
0000
0000
0001
,
0000
0000
0000
0100
0000
0010
0001
0000
,
1000
0010
0000
0000
0100
0000
0000
0001
,
0000
0000
0000
1000
0000
0100
1000
0000
,
0010
0100
0000
0000
0001
0000
0000
1000
,
0000
0000
0000
0100
0000
1000
0010
0000
,
0100
0000
0000
0000
0001
0000
0000
0010
0000
0000
0000
0001
0000
1000
0001
0000
,
0100
0000
0000
0000
0010
0000
0000
1000
0000
0000
0000
0100
0000
1000
0010
0000
,
0100
0000
0000
0000
0010
0000
0000
0100
0000
0000
0000
0001
0000
1000
0001
0000
,
0100
0000
0000
0000
0010
0000
0000
1000
0000
0000
0000
0010
0000
0200
0000
0000
,
0300
0000
0000
0000
;

//---------------dance-single - ----------------
#NOTEDATA:;
#CHARTNAME:;
#STEPSTYPE:dance-single;
#DESCRIPTION:;
#CHARTSTYLE:;
#DIFFICULTY:Beginner;
#METER:2;
#RADARVALUES:0.153928,0.225522,0.208817,0.000000,0.000000,129.000000,104.000000,25.000000,0.000000,0.000000,0.000000,0.000000,0.000000,0.000000,0.153928,0.225522,0.208817,0.000000,0.000000,129.000000,104.000000,25.000000,0.000000,0.000000,0.000000,0.000000,0.000000,0.000000;
#CREDIT:;
#NOTES:
0000
0000
0000
0000
,
0000
0000
0000
0000
,
0000
0000
0000
0000
,
0000
0000
0000
0000
,
0001
0000
1000
0000
,
0001
0000
1000
0000
,
0001
0000
1000
0000
,
0010
0000
0100
0000
,
1001
0000
0000
0000
,
1001
0000
0000
0000
,
0010
0000
0100
0000
,
1001
0000
0000
0000
,
0110
0000
0000
0000
,
0110
0000
0000
0000
,
0100
0000
0010
0000
,
1000
0000
0000
0000
,
1001
0000
0000
0000
,
0110
0000
0000
0000
,
0100
0000
0010
0000
,
1001
0000
0010
0000
,
1001
0000
0000
0000
,
0110
0000
0000
0000
,
0100
0000
0010
0000
,
1000
0000
0000
0000
,
1001
0000
0000
0000
,
0110
0000
0000
0000
,
0100
0000
0010
0000
,
1001
0000
0000
0000
,
0010
0000
0100
0000
,
0001
0000
1000
0000
,
0001
0000
1000
0000
,
0010
0000
0100
0000
,
1001
0000
0000
0000
,
1001
0000
0000
0000
,
0110
0000
0000
0000
,
0110
0000
0000
0000
,
0001
0000
1000
0000
,
0010
0000
0100
0000
,
0010
0000
0100
0000
,
1001
0000
0000
0000
,
0110
0000
0100
0000
,
0010
0000
1000
1000
,
0001
0000
1000
0000
,
0010
0000
0000
0000
,
0100
0000
0010
0000
,
1000
0000
0001
1000
,
1001
0000
0001
0000
,
0100
0000
0000
0000
,
0110
0000
0100
0000
,
0010
0000
1000
0001
,
1001
0000
1000
0000
,
1001
0000
0000
0000
,
0110
0000
0000
0000
,
1001
0000
0000
0000
,
0001
0000
1000
0000
,
0010
0000
0100
0100
,
0010
0000
1000
0000
,
1000
0000
0000
0000
,
0001
0000
0100
0000
,
0100
0000
0000
0000
,
0010
0000
0100
0000
,
0100
0000
0000
0000
,
0001
0000
1000
0000
,
0001
0000
0000
0000
,
1000
0000
0010
0000
,
0100
0000
0001
0000
,
1000
0000
0001
0000
,
0100
0000
0010
0000
;

//---------------dance-single - ----------------
#NOTEDATA:;
#CHARTNAME:;
#STEPSTYPE:dance-single;
#DESCRIPTION:;
#CHARTSTYLE:;
#DIFFICULTY:Challenge;
#METER:12;
#RADARVALUES:0.809017,1.845943,0.359165,0.551277,1.081673,678.000000,635.000000,43.000000,66.000000,0.000000,0.000000,4.000000,0.000000,0.000000,0.809017,1.845943,0.359165,0.551277,1.081673,678.000000,635.000000,43.000000,66.000000,0.000000,0.000000,4.000000,0.000000,0.000000;
#CREDIT:;
#NOTES:
// measure 0
0000
0000
0000
0000
,  // measure 1
0000
0000
0000
0000
,  // measure 2
0000
0000
0000
0000
,  // measure 3
0000
0000
0000
0000
,  // measure 4
1001
0000
0001
0100
0000
0010
0000
0100
0001
0010
1000
0010
0100
1000
0100
0001
,  // measure 5
0100
0000
1000
0000
0010
0000
0000
0000
0100
0000
0001
0000
0010
0000
0000
0000
0100
0000
0010
0000
0001
0000
1000
0000
0010
0100
0001
0000
1000
0000
0000
0000
,  // measure 6
0001
0100
0010
0000
1010
0000
0000
0000
1000
0000
0001
0000
1001
0000
0000
0000
,  // measure 7
0001
0100
0010
1000
0100
0001
0100
0010
,  // measure 8
0201
0001
0010
1000
,  // measure 9
0010
0000
0001
0000
0010
0000
1000
0300
,  // measure 10
0010
0100
0010
0100
0001
1000
0001
1000
0010
0100
0010
0100
0001
1000
0001
1000
,  // measure 11
0040
0400
0000
0000
0000
0000
0000
0000
0000
0000
0000
0000
0000
0000
0330
0000
,  // measure 12
0102
0000
0000
1003
1000
0001
0100
0010
,  // measure 13
2010
0000
3000
0010
0100
0010
1000
0001
,  // measure 14
0020
0000
0000
0000
0230
0000
0320
0000
0032
0013
0100
1000
0020
0000
0230
0000
,  // measure 15
0301
0000
0000
1010
0000
0000
1000
0000
0000
0011
0000
0000
0010
0000
0000
0000
,  // measure 16
2100
0000
3000
0100
0010
0010
0001
1000
,  // measure 17
1020
0000
0000
0130
0001
0010
0001
1000
,  // measure 18
0100
0000
0000
0000
0020
0000
0230
0000
1300
0100
0010
0001
0200
0000
0320
0000
,  // measure 19
1030
0000
0001
0100
0000
0000
0010
0000
1000
0100
0000
0100
1000
0000
0000
0000
,  // measure 20
0201
0000
0000
0310
1000
1000
0010
0100
,  // measure 21
0102
0000
0000
0013
0100
0010
0001
1000
,  // measure 22
0200
0000
0000
0000
0320
0000
0032
0000
0013
0100
1000
0010
0200
0000
0302
0000
,  // measure 23
0013
0000
0000
1100
0000
0000
0010
0000
0000
0101
0000
0000
1001
0000
0000
0000
,  // measure 24
2010
0000
0000
3010
0100
0100
0001
0010
,  // measure 25
0210
0000
0000
0310
0001
0001
0010
0100
,  // measure 26
1002
0000
0000
0000
0203
0000
0320
0000
1030
0010
0100
0001
0010
0100
0010
0001
,  // measure 27
1000
0010
0100
0001
0010
0100
0010
0001
0100
0010
1000
0100
0010
0001
0010
0100
,  // measure 28
1000
0000
0001
1000
0001
0000
1000
0000
0010
0000
0100
0010
0000
0000
0100
0001
0010
0000
0100
0010
0100
0000
0010
0001
1000
0000
0001
0100
0001
0000
0010
0000
,  // measure 29
0100
0000
0000
0000
0000
0000
1000
0000
0000
0000
0000
0000
0001
0000
0000
0000
0000
0000
0000
0000
1000
0000
0000
0000
0000
0000
0000
0000
0000
0000
0000
0000
0000
0000
0000
0000
0010
0000
0000
0000
0000
0000
0000
0000
0000
0000
0000
0000
1000
0000
0000
0000
0000
0000
0100
0000
0000
0000
0000
0000
1000
0000
0000
0000
0000
0000
0000
0000
0001
0000
0000
0000
0000
0000
0000
0000
0000
0000
0000
0000
0000
0000
0000
0000
0000
0000
0000
0000
0000
0000
0000
0000
0000
0000
0000
0000
0100
0000
0000
0000
0000
0000
0000
0000
0000
0000
0000
0000
0010
0000
0000
0000
0000
0000
1000
0000
0000
0000
0000
0000
0100
0000
0000
0000
0000
0000
0000
0000
0000
0000
0000
0000
0010
0000
0000
0000
0000
0000
0001
0000
0000
0000
0000
0000
0100
0000
0000
0000
0000
0000
0000
0000
0000
0000
0000
0000
0001
0000
0000
0000
0000
0000
0000
0000
0000
0000
0000
0000
1000
0000
0000
0000
0000
0000
0000
0000
0000
0000
0000
0000
0000
0000
0000
0000
0000
0000
0000
0000
0000
0000
0000
0000
,  // measure 30
0001
0100
0010
0000
0000
0000
0000
0000
1010
0000
0000
0000
1000
0000
0100
0000
0000
0000
0000
0000
0000
0000
0010
0000
0001
0000
0100
0000
0010
0000
0000
0000
,  // measure 31
2000
0000
0000
0200
0000
3000
0020
0300
,  // measure 32
0031
0000
0000
0000
0000
0000
0000
0000
0000
0000
0000
0000
0000
0000
0000
0000
1200
0000
0000
0000
0000
0000
0000
0000
0000
0000
0000
0000
0000
0000
0000
0300
0201
0000
0000
0000
0000
0000
0000
0000
0000
0000
0000
0000
0000
0000
0000
0300
1200
0000
0000
0000
0000
0000
0000
0000
0000
0000
0000
0000
0000
0000
0000
0300
,  // measure 33
0201
0000
0000
0000
0000
0000
0000
0000
0000
0000
0000
0000
0000
0000
0000
0300
1200
0000
0000
0000
0000
0000
0000
0000
0000
0000
0000
0000
0000
0000
0000
0300
0201
0000
0000
0000
0000
0000
0000
0000
0000
0000
0000
0000
0000
0000
0000
0300
1200
0000
0000
0000
0000
0000
0000
0000
0000
0000
0000
0000
0000
0000
0000
0300
,  // measure 34
0201
0000
0000
0000
0000
0000
0000
0000
0000
0000
0000
0000
0000
0000
0000
0300
1200
0000
0000
0000
0000
0000
0000
0000
0000
0000
0000
0000
0000
0000
0000
0300
0201
0000
0000
0000
0000
0000
0000
0000
0000
0000
0000
0000
0000
0000
0000
0300
1200
0000
0000
0000
0000
0000
0000
0000
0000
0000
0000
0000
0000
0000
0000
0300
,  // measure 35
0120
0000
0000
0000
0000
0000
0000
0000
0000
0000
0000
0000
0000
0000
0000
0030
0021
0000
0000
0000
0000
0000
0000
0000
0000
0000
0000
0000
0000
0000
0000
0030
0210
0000
0000
0000
0000
0000
0000
0000
0000
0000
0000
0000
0000
0000
0000
0300
2100
0000
0000
0000
0000
0000
0000
0000
0000
0000
0000
0000
0000
0000
0000
0000
,  // measure 36
3001
0001
0100
0100
0010
0010
1000
1000
,  // measure 37
0100
0100
1000
1000
0010
0010
0100
0100
,  // measure 38
0001
0100
0010
1000
0001
0010
0100
1000
0010
0100
0001
0010
0100
0010
0001
1000
,  // measure 39
0040
0400
0000
0000
0000
0000
0000
0000
0000
0000
0000
0000
0000
0000
0330
0000
,  // measure 40
0010
1000
0001
0000
1000
0000
0100
0000
0010
0000
0100
1000
0000
0010
0100
0000
,  // measure 41
0001
1000
0100
0010
0100
0000
0000
0000
0010
0001
0010
0000
0100
1000
0100
1000
,  // measure 42
0001
0010
0100
0000
1000
0000
0010
0000
0100
0000
0001
0100
0000
0100
0001
0000
,  // measure 43
1000
0001
0100
0001
0010
0000
0001
0000
0010
0100
1000
0000
2002
0000
3003
0000
,  // measure 44
0001
1000
0100
0000
0010
0000
0100
0000
1000
0000
0010
0100
0000
0100
0010
0000
,  // measure 45
0100
0001
0010
0001
1000
0000
0001
0000
0010
0100
0010
0000
0100
0010
0001
1000
,  // measure 46
0010
0100
0001
0000
0010
0000
0100
0000
1000
0000
0100
1000
0000
1000
0001
0000
,  // measure 47
0201
0000
0000
0000
0000
0000
0000
0000
0000
0000
0000
0300
1200
0000
0000
0000
0000
0000
0000
0000
0000
0000
0000
0300
0201
0000
0000
0000
0000
0000
0000
0000
0000
0000
0000
0300
0102
0000
0000
0000
0000
0000
0000
0000
0000
0000
0000
0003
0010
0000
0000
0000
0100
0000
0000
0000
1000
0000
0000
0000
0001
0000
0000
0000
,  // measure 48
1000
0001
0010
0000
0001
0000
0010
0000
0100
0000
0010
0100
0000
0100
0010
0000
,  // measure 49
0001
0010
1000
0010
0100
0000
0010
0000
0001
0100
0010
0000
0100
1000
0100
0001
,  // measure 50
0010
0100
1000
0000
0100
0000
1000
0000
0010
0000
0001
0010
0000
0010
0100
0000
,  // measure 51
0100
0001
0010
0100
1000
0000
0001
0000
1000
0100
0001
0000
0001
0100
0010
0001
,  // measure 52
1002
0000
0000
0000
0000
0000
0000
0000
0000
0000
0000
0000
0000
0000
0000
0000
0000
0000
0000
0000
0000
0000
0000
0000
0000
0000
0000
0000
0000
0000
0000
0000
0000
0000
0000
0000
0000
0000
0000
0000
0000
0000
0000
0000
0000
0000
0000
0000
0020
0000
0000
0000
0000
0000
0000
0000
0000
0000
0000
0000
0000
0000
0000
0000
0000
0000
0000
0000
0000
0030
0000
0000
0020
0000
0000
0000
0000
0000
0000
0000
0000
0000
0000
0000
0000
0000
0000
0000
0000
0000
0000
0000
0000
0030
0000
0000
0020
0000
0000
0000
0000
0000
0000
0000
0000
0000
0000
0000
0000
0000
0000
0000
0000
0000
0000
0000
0000
0030
0000
0000
0020
0000
0000
0000
0000
0000
0000
0000
0000
0000
0000
0000
0000
0000
0000
0000
0000
0000
0000
0000
0000
0030
0000
0000
0020
0000
0000
0000
0000
0000
0000
0000
0000
0000
0000
0000
0000
0000
0000
0000
0000
0000
0000
0000
0000
0030
0000
0000
0020
0000
0000
0000
0000
0000
0000
0000
0000
0000
0000
0000
0000
0000
0000
0000
0000
0000
0000
0000
0000
0030
0000
0003
,  // measure 53
2001
0000
0000
0000
0000
0000
0000
0000
0000
0000
0000
0000
0000
0000
0000
0000
0000
0000
0000
0000
0000
0000
0000
0000
0000
0000
0000
0000
0000
0000
0000
0000
0000
0000
0000
0000
0000
0000
0000
0000
0000
0000
0000
0000
0000
0000
0000
0000
0200
0000
0000
0000
0000
0000
0000
0000
0000
0000
0000
0000
0000
0000
0000
0000
0000
0000
0000
0000
0000
0300
0000
0000
0200
0000
0000
0000
0000
0000
0000
0000
0000
0000
0000
0000
0000
0000
0000
0000
0000
0000
0000
0000
0000
0300
0000
0000
0200
0000
0000
0000
0000
0000
0000
0000
0000
0000
0000
0000
0000
0000
0000
0000
0000
0000
0000
0000
0000
0300
0000
0000
0200
0000
0000
0000
0000
0000
0000
0000
0000
0000
0000
0000
0000
0000
0000
0000
0000
0000
0000
0000
0000
0300
0000
0000
0200
0000
0000
0000
0000
0000
0000
0000
0000
0000
0000
0000
0000
0000
0000
0000
0000
0000
0000
0000
0000
0300
0000
0000
0200
0000
0000
0000
0000
0000
0000
0000
0000
0000
0000
0000
0000
0000
0000
0000
0000
0000
0000
0000
0000
0000
0000
3000
,  // measure 54
1300
0100
0010
0001
0100
0010
1000
0001
0010
0100
1000
0001
0100
0010
1000
0001
,  // measure 55
1000
0010
0100
0001
0010
0100
1000
0100
0010
0100
1000
0010
0100
0001
0010
0100
,  // measure 56
1000
0000
0100
0000
0000
0100
0000
0000
1000
0000
0000
1000
0000
0000
0010
0000
,  // measure 57
0000
0000
0100
0000
0000
0100
0000
0000
0001
0000
0000
0001
0000
0000
0010
0000
,  // measure 58
0000
0000
0100
0000
0000
0100
0000
0000
0010
0000
0000
0010
0000
0000
0100
0000
,  // measure 59
0000
0000
1000
0000
0000
0100
0000
0000
0010
0000
0001
0000
1001
0000
0000
0000
,  // measure 60
1000
0000
0001
0000
0000
0001
0000
0000
0100
0000
0000
0100
0000
0000
0010
0000
,  // measure 61
0000
0000
1000
0000
0000
1000
0000
0000
0010
0000
0000
0010
0000
0000
0100
0000
,  // measure 62
0000
0000
0010
0000
0000
0010
0000
0000
0100
0000
0000
0100
0000
0000
0001
0000
,  // measure 63
0000
0000
1000
0000
0000
0100
0000
0000
0010
0000
0001
0000
1001
0000
0000
0000
,  // measure 64
0001
1000
0001
0100
0010
0100
0001
0100
0001
0100
0010
0100
0010
1000
0010
1000
0100
1000
0100
0010
0100
0010
0001
0010
0001
0100
0010
1000
0001
1000
0100
0010
,  // measure 65
0001
1000
0100
1000
0001
0010
0100
0010
0001
1000
0001
0100
0001
0010
0100
0010
0001
1000
0100
0010
0001
0100
0010
1000
0001
0010
0100
0010
0001
0100
0010
1000
,  // measure 66
0100
1000
0100
1000
0001
0100
0010
1000
0100
1000
0001
0010
0100
1000
0001
0100
0001
0010
0001
0100
0010
1000
0001
0010
0100
0010
0001
1000
0010
1000
0100
0010
,  // measure 67
0001
0100
0001
0010
0100
1000
0100
0010
0001
0100
0001
0010
0001
0100
0010
1000
0001
1000
0100
1000
0001
0100
0001
0010
0100
1000
0001
0100
0001
1000
0001
0020
,  // measure 68
0030
0000
0000
0000
;
