#VERSION:0.82;
#TITLE:Falling Down;
#SUBTITLE:;
#ARTIST:Eagle;
#TITLETRANSLIT:;
#SUBTITLETRANSLIT:;
#ARTISTTRANSLIT:;
#GENRE:;
#ORIGIN:;
#CREDIT:;
#BANNER:Falling Down.png;
#BACKGROUND:Falling Down-bg.png;
#PREVIEWVID:;
#JACKET:;
#CDIMAGE:;
#DISCIMAGE:;
#LYRICSPATH:;
#CDTITLE:;
#MUSIC:Falling Down.ogg;
#OFFSET:-10.947000;
#SAMPLESTART:65.804138;
#SAMPLELENGTH:10.971428;
#SELECTABLE:YES;
#BPMS:0.000=175.000;
#STOPS:;
#DELAYS:;
#WARPS:;
#TIMESIGNATURES:0.000=4=4;
#TICKCOUNTS:0.000=4;
#COMBOS:0.000=1;
#SPEEDS:0.000=1.000=0.000=0;
#SCROLLS:0.000=1.000;
#FAKES:;
#LABELS:0.000=Song Start;
#BGCHANGES:;
#KEYSOUNDS:;
#ATTACKS:
;

//---------------dance-single - ----------------
#NOTEDATA:;
#CHARTNAME:;
#STEPSTYPE:dance-single;
#DESCRIPTION:;
#CHARTSTYLE:;
#DIFFICULTY:Hard;
#METER:8;
#RADARVALUES:0.478383,0.615725,0.033237,0.000000,0.174497,399.000000,4.000000,0.000000,0.000000,0.000000,0.000000,0.000000,0.000000,0.478383,0.615725,0.033237,0.000000,0.174497,399.000000,4.000000,0.000000,0.000000,0.000000,0.000000,0.000000,0.000000;
#CREDIT:;
#NOTES:
1000
0000
0001
0000
,
0100
0000
0001
0000
,
1000
0000
0010
0000
,
0100
0000
0001
0000
,
1000
0000
0001
0000
,
0100
0000
0001
0000
,
0010
0000
0001
0000
,
1000
0000
0100
0000
,
1000
0001
0100
0001
,
0010
0100
1000
0100
,
1000
0001
0010
0100
,
1000
0100
1000
0001
,
1000
0010
1000
0010
1000
0010
1000
0010
,
0100
0001
0100
0001
0100
0001
0100
0001
,
1000
0100
0001
0100
0010
0001
1000
0010
,
0100
0001
0010
0001
,
1000
0100
1000
0010
0100
0000
0010
0100
,
0000
0001
0000
0100
0001
0000
1000
0000
,
0001
0010
0100
1000
0100
0000
1000
0001
,
0000
1000
0000
0001
0000
0010
0000
0100
,
1000
0010
0100
0010
1000
0000
0001
1000
,
0000
0100
0000
0010
0100
0000
1000
0000
,
0001
1000
0010
1000
0001
0000
1000
0000
,
0001
0000
0010
0000
1000
0010
0001
0000
,
1000
0010
0100
0001
0010
0000
0100
0010
,
0000
0001
0000
1000
0001
0000
0010
0000
,
0100
1000
0010
0100
0001
0000
1000
0010
,
0000
1000
0000
0100
0000
0010
0000
0100
,
0010
0001
0100
0001
1000
0000
0100
1000
,
0000
0001
0000
1000
0001
0000
0100
0000
,
0001
1000
0010
1000
0001
0000
0010
0000
,
0110
1001
0110
1001
,
0001
1000
0100
0001
0100
0000
1000
0010
,
0000
0001
0000
0010
1000
0000
0001
0000
,
1000
0010
0001
0010
1000
0000
0100
0001
,
0000
1000
0000
0100
0000
0001
0000
0100
,
0010
0001
0010
1000
0010
0000
0100
1000
,
0000
0100
0000
0001
0100
0000
1000
0000
,
0010
1000
0010
0001
0010
0000
0100
0000
,
0001
0000
0000
0000
1000
0000
0000
0000
0001
0010
0000
0010
0100
0000
1000
0000
,
0001
0010
1000
0010
0100
0000
1000
0100
,
0000
0001
0000
0100
0010
0000
0001
0000
,
1000
0010
0001
0010
1000
0000
0010
0001
,
0000
0010
0000
1000
0000
0100
0000
0001
,
0010
1000
0010
0001
0100
0000
1000
0100
,
0000
0001
0000
1000
0010
0000
1000
0000
,
0001
1000
0010
0000
0100
0010
1000
0000
,
0001
0100
1000
0100
0001
0100
1000
0001
,
1000
0000
0000
0001
0010
0000
0000
0010
0100
0000
0000
0100
1000
0000
0000
1000
,
0010
0000
0000
0010
0100
0000
0000
0100
0001
0000
0000
0001
1000
0000
0000
1000
,
0001
0000
0000
0001
0010
0000
0000
0010
0100
0000
0000
0100
1000
0000
0000
1000
,
0010
0000
0000
0010
0100
0000
0000
0100
0001
0000
0000
0001
1000
0000
0000
1000
,
0001
0010
0001
0100
,
0010
0000
0000
0000
1000
0000
0000
0000
0001
0000
0000
1000
0001
0000
0000
0000
,
0100
0000
0010
0000
1000
0010
1000
0000
,
0001
0000
0000
0000
1000
0000
0000
0010
0000
1000
0010
0000
1000
0000
0001
0000
,
1000
0000
0000
0001
0010
0000
0000
0010
0100
0000
0000
0100
1000
0000
0000
1000
,
0001
0000
0000
0001
0100
0000
0000
0100
0010
0000
0000
0010
1000
0000
0000
1000
,
0001
0000
0000
0001
0010
0000
0000
0010
0001
0000
0000
0001
0100
0000
0000
0100
,
0010
0000
0000
0010
1000
0000
0000
1000
0010
0000
0000
0010
0100
0000
0000
0100
,
0001
0000
0100
0000
0010
1000
0010
0000
,
1000
0000
0001
0000
0010
0001
0010
0000
,
0001
0010
1000
0010
0001
0100
0010
1000
,
0100
0000
0000
0010
0001
0010
0001
0010
0001
0010
0001
0010
0001
0000
0000
0000
,
0010
0100
0010
0001
,
0010
0100
1000
0001
,
1000
0001
0010
0001
,
1000
0010
0001
0010
,
0100
0000
0000
0000
,
0000
0000
0000
0010
,
1000
0000
0000
0100
,
0010
0000
0000
0001
,
1000
0001
0100
0001
,
1000
0010
0100
0010
,
1000
0001
0100
0010
,
1000
0100
0001
0100
,
1000
0000
0000
0010
0000
0000
0100
0000
,
0000
0100
0000
0000
0100
0000
0001
0000
,
1000
0000
0000
0000
;

//---------------dance-single - ----------------
#NOTEDATA:;
#CHARTNAME:;
#STEPSTYPE:dance-single;
#DESCRIPTION:;
#CHARTSTYLE:;
#DIFFICULTY:Medium;
#METER:5;
#RADARVALUES:0.341871,0.388879,0.066475,0.066475,0.000000,272.000000,8.000000,8.000000,0.000000,0.000000,0.000000,0.000000,0.000000,0.341871,0.388879,0.066475,0.066475,0.000000,272.000000,8.000000,8.000000,0.000000,0.000000,0.000000,0.000000,0.000000;
#CREDIT:;
#NOTES:
1000
0000
0000
0001
0000
0000
0100
0000
,
0000
0000
0000
0010
,
1000
0000
0000
0010
0000
0000
0100
0000
,
0000
0000
0000
0001
,
1000
0000
0000
0001
0000
0000
0100
0000
,
0000
0000
0000
0000
,
0000
0000
0000
0000
,
0000
0000
0000
0000
0000
0010
0100
0000
,
0001
0000
0000
1000
0000
0000
0200
0000
,
0000
0000
0000
0300
0000
0000
1000
0000
,
0001
0000
0000
1000
0000
0000
0200
0000
,
0000
0000
0300
0010
,
0001
0000
0000
1000
0000
0000
0001
0000
,
1000
0000
0000
0001
0000
1000
0000
0010
,
0000
0100
0000
0001
0000
2000
0000
0020
,
0000
0000
0000
3030
,
0010
1000
0010
0100
,
0001
0010
0100
0100
,
0010
0001
0010
0100
,
0010
0001
0010
0100
,
1000
0100
0001
0100
,
1000
0010
0100
0100
,
0010
1000
0001
0010
,
0110
1001
0110
1001
,
0001
1000
0010
1000
,
0001
0100
0010
0010
,
0100
0001
1000
0100
,
0001
0100
0010
0001
,
1000
0010
0100
0001
,
0010
0100
0010
0001
,
1000
0010
0100
0001
,
1001
1001
1001
1001
,
0001
0100
0001
0100
0001
0000
0100
0000
,
0010
1000
0100
0100
,
0010
0001
0010
0001
0010
0000
0001
0000
,
0010
0100
1000
0100
,
1000
0001
1000
0001
1000
0000
0001
0000
,
0100
0010
1000
0010
,
0100
0001
0100
0001
0100
0000
0001
0000
,
1000
1000
0001
0001
,
1000
0010
0100
0001
1000
0000
0001
0000
,
0010
0100
0010
0001
,
1000
0100
0010
0001
0010
0000
0001
0000
,
0010
0100
0010
0001
,
1000
0100
0010
0001
0010
0000
0001
0000
,
0010
0100
1000
0100
,
1000
0010
0100
0002
,
2000
0000
0000
3003
,
0001
0100
1000
0100
,
0001
0010
1000
0100
,
0001
0100
1000
0010
,
0001
0010
0100
0001
,
1000
0001
0000
0001
,
0000
0001
0000
1000
,
0010
0100
0000
0100
,
0010
1000
0000
0010
,
0100
0001
0100
1000
,
0100
0001
0010
1000
,
0010
0100
1000
0100
,
0001
0010
1000
0010
,
0100
0010
0100
0010
,
0100
0010
0100
0010
,
0001
1000
0010
0200
,
0002
0000
0000
0303
,
0001
0001
1000
1000
,
0010
0010
1000
1000
,
0100
0100
1000
1000
,
0001
0001
0100
0010
,
0100
0000
0000
0000
,
0000
0000
0000
0100
,
0001
0000
0000
0010
,
0100
0000
0000
0100
,
1000
1000
0001
0001
,
0100
0100
0001
0001
,
1000
1000
0010
0010
,
1000
1000
0001
0001
,
1000
0000
0000
0001
0000
0000
0100
0000
,
0000
0001
0000
0000
0100
0000
0010
0000
,
0100
0000
0000
0000
;

//---------------dance-single - ----------------
#NOTEDATA:;
#CHARTNAME:;
#STEPSTYPE:dance-single;
#DESCRIPTION:;
#CHARTSTYLE:;
#DIFFICULTY:Easy;
#METER:4;
#RADARVALUES:0.293202,0.259252,0.000000,0.041547,0.000000,242.000000,0.000000,5.000000,0.000000,0.000000,0.000000,0.000000,0.000000,0.293202,0.259252,0.000000,0.041547,0.000000,242.000000,0.000000,5.000000,0.000000,0.000000,0.000000,0.000000,0.000000;
#CREDIT:;
#NOTES:
1000
0000
1000
0000
,
0100
0000
0000
0000
,
1000
0000
0001
0000
,
0100
0000
0000
0000
,
0001
0000
0001
0000
,
0100
0000
0000
0000
,
0010
0000
0000
0000
,
0100
0000
0000
0001
,
0100
0000
0001
0000
,
0100
0000
0000
0001
,
1000
0000
0100
0000
,
0100
0000
0000
1000
,
0100
0000
0000
1000
,
0100
0000
1000
0000
,
0001
0000
0100
0000
,
0020
0000
0000
0030
,
0100
0001
0100
0010
,
1000
0001
1000
1000
,
0001
0100
0010
0100
,
0001
1000
0100
0010
,
0100
1000
0100
1000
,
0010
0100
0001
0001
,
0100
0001
0100
0010
,
1000
0100
0010
0001
,
1000
0001
0100
0001
,
0100
0010
0100
0010
,
1000
0010
1000
0010
,
1000
0001
1000
0001
,
0010
0100
1000
0100
,
1000
0010
0100
0001
,
1000
0001
0100
0001
,
1000
0100
0010
0001
,
1000
1000
1000
0001
,
0100
0001
0100
0001
,
0100
0100
0100
0001
,
0100
0010
1000
0100
,
0010
0010
0010
0001
,
1000
0001
1000
0001
,
0100
0100
0100
0001
,
1000
0100
0010
0001
,
1000
1000
1000
0001
,
0100
0001
0010
0100
,
1000
1000
1000
0100
,
0010
0001
1000
0010
,
0100
0100
0100
0010
,
1000
0001
0100
0010
,
1000
0001
0100
0010
,
2000
0000
0000
3000
,
0001
0010
0100
1000
,
0001
0010
0100
0010
,
0001
1000
0100
0010
,
0001
1000
0100
0010
,
0100
0000
0000
0000
,
0000
0000
0000
1000
,
0001
0000
0000
0010
,
0100
0000
0000
0010
,
0001
0010
0100
1000
,
0100
0010
0100
1000
,
0100
0010
0001
0010
,
0100
0010
0001
1000
,
0001
1000
0001
1000
,
0010
0100
0010
0100
,
0010
1000
0001
0200
,
0020
0000
0000
0330
,
0100
0010
0100
0010
,
0001
0100
0001
0100
,
0001
1000
0001
1000
,
0001
0010
0001
0010
,
0001
0000
0000
0000
,
0000
0000
0000
0010
,
0010
0000
0000
0100
,
0100
0000
0000
1000
,
0100
0010
0100
0010
,
0001
0010
0001
0010
,
0001
1000
0001
1000
,
0100
1000
0100
1000
,
0200
0000
0000
0000
,
0000
0000
0000
0000
,
0300
0000
0000
0000
;

//---------------dance-single - ----------------
#NOTEDATA:;
#CHARTNAME:;
#STEPSTYPE:dance-single;
#DESCRIPTION:;
#CHARTSTYLE:;
#DIFFICULTY:Beginner;
#METER:1;
#RADARVALUES:0.130576,0.162033,0.008309,0.024928,0.000000,106.000000,1.000000,3.000000,0.000000,0.000000,0.000000,0.000000,0.000000,0.130576,0.162033,0.008309,0.024928,0.000000,106.000000,1.000000,3.000000,0.000000,0.000000,0.000000,0.000000,0.000000;
#CREDIT:;
#NOTES:
// measure 0
1000
0000
0000
0000
,  // measure 1
0000
0000
0000
0001
,  // measure 2
0001
0000
0000
0000
,  // measure 3
0000
0000
0000
1000
,  // measure 4
1000
0000
0000
0000
,  // measure 5
0000
0000
0000
0000
,  // measure 6
0000
0000
0000
0000
,  // measure 7
0000
0000
0000
0000
,  // measure 8
0010
0000
0000
0000
,  // measure 9
0000
0000
0000
0100
,  // measure 10
0100
0000
0000
0000
,  // measure 11
0000
0000
0000
0001
,  // measure 12
0001
0000
0000
1000
,  // measure 13
1000
0000
0000
0000
,  // measure 14
0010
0000
0100
0000
,  // measure 15
1001
0000
0000
0000
,  // measure 16
0001
0000
0000
0000
,  // measure 17
1000
0000
0000
0000
,  // measure 18
0100
0000
0000
0000
,  // measure 19
1000
0000
1000
0000
,  // measure 20
0001
0000
0000
0000
,  // measure 21
0100
0000
0000
0000
,  // measure 22
0010
0000
0000
0000
,  // measure 23
1000
0000
0001
0000
,  // measure 24
0100
0000
0000
0000
,  // measure 25
0001
0000
0000
0000
,  // measure 26
1000
0000
0000
0000
,  // measure 27
0100
0000
1000
0000
,  // measure 28
0010
0000
0000
0000
,  // measure 29
0100
0000
0000
0000
,  // measure 30
0001
0000
0000
0000
,  // measure 31
1000
1000
0001
0001
,  // measure 32
0010
0000
0000
0000
,  // measure 33
0001
0000
0001
0000
,  // measure 34
0010
0000
0000
0000
,  // measure 35
0100
0000
0100
0000
,  // measure 36
0010
0000
0000
0000
,  // measure 37
0001
0000
0001
0000
,  // measure 38
1000
0000
0000
0000
,  // measure 39
0100
0100
1000
1000
,  // measure 40
0010
0000
0000
0000
,  // measure 41
0100
0000
0100
0000
,  // measure 42
0001
0000
0000
0000
,  // measure 43
1000
0000
1000
0000
,  // measure 44
0010
0000
0000
0000
,  // measure 45
0100
0000
0000
0000
,  // measure 46
0010
0000
1000
0000
,  // measure 47
0002
0000
0000
0003
,  // measure 48
1000
0000
1000
0000
,  // measure 49
0001
0000
0001
0000
,  // measure 50
0100
0000
0100
0000
,  // measure 51
0010
0000
0010
0000
,  // measure 52
0010
0000
0000
0000
,  // measure 53
0000
0000
0000
1000
,  // measure 54
1000
0000
0000
0001
,  // measure 55
0001
0000
0000
1000
,  // measure 56
0010
0000
0010
0000
,  // measure 57
0100
0000
0100
0000
,  // measure 58
0001
0000
0001
0000
,  // measure 59
1000
0000
1000
0000
,  // measure 60
1000
0000
0000
0000
,  // measure 61
0000
0000
0010
0000
,  // measure 62
0100
0000
0001
0000
,  // measure 63
2000
0000
0000
3000
,  // measure 64
0001
0000
0000
0000
,  // measure 65
0100
0000
0000
0000
,  // measure 66
0001
0000
0000
0000
,  // measure 67
1000
0000
0100
0000
,  // measure 68
0010
0000
0000
0000
,  // measure 69
0000
0000
0000
0010
,  // measure 70
0100
0000
0000
1000
,  // measure 71
0001
0000
0000
1000
,  // measure 72
0001
0000
0000
0000
,  // measure 73
0100
0000
0000
0000
,  // measure 74
0010
0000
0000
0000
,  // measure 75
1000
0000
0001
0000
,  // measure 76
0200
0000
0000
0000
,  // measure 77
0000
0000
0000
0000
,  // measure 78
0300
0000
0000
0000
;
