#TITLE:FRANTIC☆ARCADE;
#SUBTITLE:;
#ARTIST:PrimeMIX;
#TITLETRANSLIT:;
#SUBTITLETRANSLIT:;
#ARTISTTRANSLIT:;
#GENRE:;
#CREDIT:;
#BANNER:FRANTIC ARCADE.png;
#BACKGROUND:FRANTIC ARCADE-bg.png;
#LYRICSPATH:;
#CDTITLE:;
#MUSIC:FRANTIC ARCADE.mp3;
#OFFSET:0.560018;
#SAMPLESTART:56.773315;
#SAMPLELENGTH:10.666664;
#SELECTABLE:YES;
#BPMS:0.000000=180.000000
,236.000000=90.000000
,250.000000=180.000000
;
#STOPS:250.000000=0.667000
;
#BGCHANGES:2.000=FABGA.avi=1.000=0=0=1=====,
99999=-nosongbg-=1.000=0=0=0 // don't automatically add -songbackground-
;
#KEYSOUNDS:;
#ATTACKS:;

//---------------dance-single - ----------------
#NOTES:
     dance-single:
     :
     Hard:
     9:
     0.618846,1.000000,0.163212,0.095207,0.329824,599.000000,24.000000,14.000000,0.000000,0.000000,0.000000,0.618846,1.000000,0.163212,0.095207,0.329824,599.000000,24.000000,14.000000,0.000000,0.000000,0.000000:
0000
0000
0000
0000
,
0000
0000
0000
0000
,
0000
0000
0000
0000
,
0000
0000
0000
0000
,
0000
0000
0000
0000
,
0000
0000
0000
0000
,
0000
0000
0000
0000
,
0000
0000
0000
0000
,
0000
0000
0000
0000
,
0001
0010
0001
0010
0100
1000
0001
0000
,
1000
0100
1000
0100
0010
0001
1001
0000
,
1000
0100
1000
0010
0100
0001
0000
0001
,
1000
0010
0100
0010
1000
0100
0010
0001
,
1000
0010
0001
0010
0100
0001
0010
0000
,
0100
1000
0100
0001
0100
0010
0001
0000
,
1000
0010
0100
0001
0010
0100
1000
0001
,
1001
0000
0000
0000
0000
0010
1001
0000
,
0001
0001
0100
0100
0010
1000
0001
0000
,
0010
0010
0100
0100
1000
0010
1001
0000
,
0011
0010
0100
0100
1000
0010
0100
0010
,
1000
1000
0001
0001
0010
0100
1000
0010
,
0100
0100
0010
0010
1000
0001
0010
0000
,
0100
0100
0010
0010
0001
1000
0010
1000
,
0001
0000
1000
0010
0100
0000
0010
1000
,
0001
0010
0100
1000
0001
0010
0100
1000
,
0020
0000
0000
0000
0000
0000
1030
0001
,
0020
0000
0000
0000
0000
0000
0130
1000
,
0002
0000
0000
0000
0000
0000
0103
0010
,
2000
0000
0000
0000
0000
0000
3001
0100
,
0020
0000
0000
0000
0000
0000
0130
0010
,
2000
0000
0000
0000
0000
0000
3001
0010
,
0200
0000
0000
0000
0000
0000
0310
0001
,
2000
0000
0000
0000
0000
0000
3001
0100
,
0010
1000
0010
0001
,
0010
0100
0010
1000
,
0001
0010
0100
0010
,
0001
0000
1000
0000
0010
0000
0100
0001
,
0010
0000
0100
0000
1000
0000
0100
1000
,
0100
0000
1000
0000
0010
0000
0100
0001
,
0100
0001
0100
0010
,
1000
0000
0000
0010
0000
0000
0100
0000
0000
0001
0000
0000
0010
0000
0100
0000
,
1100
0000
0000
0011
0000
0000
0101
0000
0000
1010
0000
0000
1000
0000
0001
0000
,
0011
0000
0000
0000
,
1000
0000
0001
0010
0000
0001
0100
0010
,
1000
0000
0010
0000
0000
1000
0000
0000
0001
1000
0000
1000
0000
0001
0100
0000
,
0001
0000
1000
0000
0000
0010
0000
0000
0100
0000
0000
0001
0000
0000
0010
0000
,
0100
1000
0100
0010
0100
1000
0001
0100
,
0010
0000
0000
1000
0000
0000
0001
0000
0000
0010
0000
0000
0100
0000
1000
0000
,
0001
0000
0010
0000
0000
0100
0000
0000
1000
0100
0000
1000
0010
0000
0100
0000
,
0001
0000
1000
0000
0000
0010
0000
0000
0100
0001
0000
0010
0000
0100
1000
0000
,
0001
0000
0010
0000
0001
0000
1000
0000
0010
0000
0100
0001
0000
0000
1000
0000
,
0010
0000
0100
0010
0000
0100
0010
1000
,
0001
0000
0010
0000
0000
0100
0000
0000
1000
0100
0000
0010
0000
0001
0100
0000
,
0001
0000
0010
0000
0000
0100
0000
0000
0010
0000
0000
0001
0000
0000
0100
0000
,
0010
0000
0000
0010
0100
0000
0010
0000
1000
0000
0010
0000
0001
0000
0010
0000
,
0100
0000
0000
0010
0000
0000
1000
0000
0000
0010
0000
0000
1000
0000
0100
0000
,
0010
0000
0001
0000
0000
0010
0000
0000
0100
0010
0000
0001
0100
0000
0010
0000
,
0100
0000
0001
0000
0000
1000
0000
0000
0001
1000
0000
0001
0000
1000
0100
0000
,
0010
0000
0100
0000
1000
0000
0010
0000
0100
0000
0001
1000
0000
0000
0001
0000
,
1000
0010
1000
0001
0000
0001
0010
0100
0010
0001
1000
0010
0000
1000
0001
0100
,
0001
0010
0100
0010
0000
0100
0010
0001
0100
0010
1000
0010
0000
1000
0100
0001
,
0100
0001
0100
1000
0000
1000
0100
0001
0100
1000
0010
0001
0000
0001
0010
1000
,
0010
0100
0001
0010
0000
0100
1000
0010
0100
0000
0000
0000
1001
0000
0000
0000
,
0102
0100
0100
0100
,
0010
0010
0010
0013
,
2001
0001
0001
0001
,
0100
0100
0100
3100
,
1020
1000
1000
1000
,
0100
0100
0100
0130
,
0210
0301
0120
1030
,
0101
0000
0000
0100
0000
0000
1010
0000
0000
1000
0000
0000
0001
0000
1000
0000
,
0010
0000
0000
0000
0100
0010
1000
0001
,
1001
0000
1000
0001
0000
0001
1000
0010
,
0100
0000
0001
0000
0000
0100
0000
0000
0010
1000
0000
0001
0000
0010
0100
0000
,
0010
0000
0001
0000
0000
0001
0000
0000
1000
0000
0000
0100
0000
0000
0010
0000
,
0100
0001
0100
0001
0100
0010
0001
1000
,
0010
0000
0000
0100
0000
0000
0001
0000
0000
0010
0000
0000
0100
0000
1000
0000
,
0010
0000
1000
0000
0000
0001
0000
0000
1000
0001
0000
0010
0001
0000
1000
0000
,
0010
0000
1000
0000
0000
1000
0000
0000
1000
0100
0000
1000
0000
0010
0100
0000
,
0010
0000
1000
0000
0001
0000
0010
0000
0001
0000
1000
0010
0000
0000
0100
0000
,
0001
0000
0100
0001
0000
0001
0100
0000
0010
0000
0010
1000
0000
1000
0001
0000
,
1000
0000
0100
0000
0000
0010
0000
0000
0001
0010
0000
0001
0000
0100
0010
0000
,
0100
0000
0010
0000
0000
1000
0000
0000
0001
0010
0000
0100
0000
1000
0100
0000
,
1000
0000
0000
0001
0000
1000
0001
0000
0100
0000
0010
0000
1000
0000
0001
0000
,
0010
0001
0100
0010
1000
0001
0010
0100
,
1000
0001
0100
0001
0010
0100
0010
0001
,
1000
0010
1000
0001
0010
0100
0010
0001
,
1000
0100
0010
0001
1000
0100
0010
0001
,
1000
0000
0001
0100
0000
0010
0000
1000
,
0000
0100
0000
1000
0010
0100
0001
0000
,
1000
0000
0001
0100
0000
0010
0000
1000
,
0001
0100
0001
0000
0100
0010
0100
0000
,
0010
0000
1000
0001
0000
0010
0000
0100
,
0000
0010
0000
0001
0010
0100
1000
0000
,
0100
0000
1000
0010
0000
0100
0000
0000
,
0001
0100
0001
0100
0001
0100
0001
0000
,
0100
0000
0010
1000
0000
0010
0000
0100
,
0000
0001
0000
1000
0100
0010
0011
0000
,
0010
0000
0100
0010
0000
0001
0000
1000
,
0001
0100
0001
0000
0100
0010
1000
0000
,
0001
0101
0100
1010
,
1000
1010
1000
1001
,
0001
0100
0010
1000
0001
0100
0010
1000
,
0001
0010
0100
1000
0001
0010
0100
1000
,
0020
0000
0000
0000
,
0000
0000
0000
0000
,
0030
0000
0000
0000
;

//---------------dance-single - ----------------
#NOTES:
     dance-single:
     :
     Challenge:
     12:
     0.861721,1.000000,0.231217,0.204015,0.785458,823.000000,34.000000,30.000000,0.000000,0.000000,0.000000,0.861721,1.000000,0.231217,0.204015,0.785458,823.000000,34.000000,30.000000,0.000000,0.000000,0.000000:
0000
0000
0000
0000
,
0000
0000
0000
0000
,
0000
0000
0000
0000
,
0000
0000
0000
0000
,
0000
0000
0000
0000
,
0000
0000
0000
0000
,
0000
0000
0000
0000
,
0000
0000
0000
0000
,
0000
0000
0000
0000
,
1000
0100
0001
0100
1000
0100
0010
0000
,
0001
0000
0010
0000
1000
0000
0010
0000
0001
1000
0010
0000
2002
0000
3003
0000
,
0001
1000
0100
1000
0001
1000
0000
1000
,
0001
0000
0001
0000
0100
0010
0100
0000
0000
0000
0100
0000
0010
0000
1000
0000
,
0001
1000
0100
0000
1000
0000
0010
1000
0010
0000
0100
0000
0001
0000
0010
0000
,
0000
0100
1000
0010
1000
0001
2002
3003
,
0001
0010
0100
0010
0001
1000
0100
1000
,
0010
0000
0000
0000
0000
0100
1001
0000
,
0101
0001
0101
0100
0001
0001
1000
0000
,
1100
0100
1100
1000
0100
0100
0010
0000
,
1001
0001
1001
1000
0001
0010
0100
0000
,
1100
0100
1100
1000
0100
0001
0100
0010
,
0011
0001
0011
0010
0001
1000
0010
0000
,
1010
0010
1010
1000
0010
0100
0001
0000
,
1001
0001
1001
1000
1001
0001
0010
0100
,
1000
0100
1000
0000
0001
0100
0001
0000
0100
0010
0100
0000
0010
1000
0010
1000
,
0001
0000
0000
0001
0000
0000
1000
0000
0000
0001
0000
0000
1000
0000
0001
0000
,
0100
0000
0000
0100
0000
0000
0100
0000
0000
0100
0000
0000
0010
0000
1000
0000
,
0010
0000
0000
0010
0000
0000
0020
0000
0000
0100
0030
0000
0100
0000
0010
0000
,
1000
0000
0000
1000
0000
0000
0001
0000
0000
0001
0000
0000
1000
0000
0100
0000
,
0010
0000
0000
0010
0000
0000
0010
0000
0000
0010
0000
0000
0100
0000
0010
0000
,
0001
0000
0000
0001
0000
0000
0001
0000
0000
0001
0000
0000
0010
0000
0100
0000
,
1000
0000
0000
1000
0000
0000
1000
0000
0000
1000
0000
0000
0100
0000
1000
0000
,
0010
0000
0000
0010
0000
0000
0010
0000
0000
0010
0000
0000
0100
0000
0010
0000
,
1001
0001
1000
0000
0010
0000
0100
0000
,
0001
0100
0001
0000
0100
0000
0010
0000
,
1000
0010
1000
0000
0010
0000
0100
0000
,
0001
1000
0100
0000
1000
0000
0010
0000
,
1000
0001
1000
0000
0001
0100
0001
0000
,
0100
0010
0100
0000
0010
1000
0010
0000
,
0100
0010
1000
0001
0100
0001
0010
1000
,
1010
0000
0000
0011
0000
0000
1100
0000
0000
0101
0000
0000
0001
0000
1000
0000
,
1010
0000
0000
1010
0000
0000
0011
0000
0000
0011
0000
0000
1001
0000
0010
0000
,
2002
0000
0003
3000
0000
0100
1001
0000
,
0001
0000
0100
0010
1000
0000
0001
0000
0010
0100
0010
0000
0001
0000
1000
0000
,
0010
0000
1000
0000
0001
0010
0000
0001
0100
0010
0000
1000
0000
0001
0010
0000
,
0100
0000
1000
0000
0001
0100
0000
0000
0100
0000
0001
0010
0000
0010
0100
0000
,
1000
0000
0001
1000
0000
1000
0010
0000
0100
0001
0100
0000
0010
0000
1000
0000
,
0100
0000
0010
0001
0100
0000
0010
0100
0000
0100
0000
0100
0010
0000
1000
0000
,
0001
0000
1000
0000
0000
0100
0000
0000
0010
0001
0000
0010
0001
0000
1000
0000
,
0100
0000
0010
0000
0001
0100
0000
0010
1000
0000
0001
0010
0000
0100
1000
0000
,
0001
0000
1000
0000
0100
0000
0001
0000
0100
0000
0010
0001
0000
0001
1000
0000
,
0001
0000
0100
0010
1000
0000
0010
0000
0100
0010
1000
0000
0001
0000
0010
0000
,
0100
0000
0010
0000
0001
1000
0000
0001
0010
0100
0000
0010
0000
0100
0010
0000
,
0001
0000
1000
0000
0010
0100
0000
0000
0010
0000
1000
0001
0000
0100
0001
0000
,
0010
0000
0001
1000
0000
0010
1000
0000
0100
1000
0100
0000
0010
0000
0001
0000
,
0100
0000
0010
1000
0010
0000
1000
0100
0000
0010
0000
0001
1000
0000
0001
0000
,
1000
0000
0010
0000
0000
0100
0000
0000
0010
1000
0000
0010
1000
0000
0100
0000
,
0010
0000
0001
0000
1000
0001
0000
0001
1000
0000
0001
1000
0000
1000
0010
0000
,
0100
0000
0001
0000
1000
0000
0010
0000
1000
0000
1000
0010
0000
0100
0001
0000
,
1000
0100
0002
0203
0300
0010
0001
0100
1000
0200
0310
1000
0000
1000
0010
0001
,
0100
0010
0002
2003
3000
1000
0100
0001
0100
0020
0031
1000
0000
0001
0010
1000
,
0010
0000
0100
0000
0020
0000
0002
0000
0033
0000
0001
0000
0100
0000
1000
0000
0100
0000
0020
0000
1030
0000
0100
0000
0010
0000
0100
0010
0100
0000
0010
0000
,
1000
0010
2000
0002
3003
0001
0010
0100
2002
0000
0000
3003
0110
0000
0000
0000
,
0100
0010
1000
0001
0000
0001
0010
1000
,
0010
0100
1000
0100
0000
1000
0100
0001
,
0100
1000
0010
0001
0000
0001
0010
1000
,
0010
0000
0000
0010
0000
0000
0010
0000
0100
0010
0100
0000
1000
0000
0001
0000
,
0010
1000
0010
0001
0000
0001
0100
1000
,
0100
0010
1000
0001
0000
0001
0010
0100
,
0010
0000
0001
0000
1000
0001
1000
0001
1000
0000
0001
0000
0100
0010
0100
0010
,
0100
0000
0001
0100
0000
0010
1000
0000
1000
0100
0000
0010
0001
0000
1000
0000
,
0002
0000
0000
0000
0023
0000
0000
0000
0230
0000
0000
0000
1300
0000
0000
0000
0000
0000
0010
0000
0000
0100
0000
0000
0001
0000
0000
0000
0000
0000
1000
0000
0000
0000
0000
0000
0010
0000
0000
0000
0000
0000
0100
0000
0000
0000
0000
0000
,
0001
0000
1000
0010
0100
0000
0001
0000
1000
0010
0000
1000
0001
0000
1000
0000
,
0100
0000
0010
0000
0100
1000
0000
0010
0100
0001
0000
1000
0000
0010
1000
0000
,
0001
0000
0100
0000
0010
0100
0000
0010
1000
0000
1000
0001
0000
0001
1000
0000
,
0100
0000
0010
0001
0000
0010
0100
0000
0010
0001
1000
0000
0001
0000
0100
0000
,
0001
0000
1000
0010
0100
0000
0010
1000
0000
1000
0000
0001
0010
0000
0100
0000
,
1000
0000
0001
0000
0000
1000
0000
0000
1000
0001
0000
1000
0100
0000
0010
0000
,
0001
0000
0100
0000
0010
1000
0000
0010
1000
0000
0100
0001
0000
0001
1000
0000
,
0001
0000
0100
0000
0010
0000
1000
0000
0001
0000
1000
0010
0000
0010
1000
0000
,
0010
0000
1000
0010
0100
0000
0010
0000
0100
0010
1000
0000
0001
0000
1000
0000
,
0100
0000
0010
0000
0001
1000
0000
1000
0010
0100
0000
0010
0000
1000
0001
0000
,
0010
0000
0100
0000
1000
0010
0000
0000
0100
0000
0010
1000
0000
0001
0010
0000
,
0100
0000
1000
0100
0000
0100
0010
0000
0001
1000
0001
0000
0010
0000
0100
0000
,
1000
0000
0010
0100
0010
0000
1000
0001
0000
0010
0000
0100
1000
0000
0010
0000
,
1000
0000
0001
0000
0000
1000
0000
0000
0010
0100
0000
0100
0010
0000
1000
0000
,
0010
0000
1000
0000
0001
1000
0000
0100
1000
0000
0100
0010
0000
1000
0001
0000
,
1000
0001
1000
0001
1000
0001
1000
0001
1000
0001
1000
0001
1000
0001
1000
0001
,
1000
0000
0000
0000
0001
1000
0001
0000
0000
0000
0001
1000
0001
0010
0100
0000
,
0000
0000
0010
0000
0000
0000
0001
1000
0010
0000
1000
0000
1001
0000
0000
0000
,
1000
0000
0000
0000
0001
0100
0001
0000
0000
0000
0100
0010
1000
0001
0010
0000
,
0200
0000
1300
0100
2000
0000
3100
0000
0010
0000
0001
0010
0200
0000
0000
0000
,
1300
0000
0001
0100
0010
0000
1000
0000
0010
0100
0001
0000
1000
0001
0010
0000
,
0000
0000
0100
0000
0000
0000
1000
0100
1000
0000
0010
0000
0100
0000
0000
0000
,
0001
0000
0100
0010
1000
0000
0001
0000
0010
0000
0100
1000
0100
0000
1000
0000
,
0001
0100
0010
1000
0001
0010
0100
1000
0001
0010
0100
1000
0010
0100
0001
1000
,
0001
0000
0000
0000
1000
0001
1000
0000
0000
0000
1000
0001
1000
0100
1000
0000
,
0100
1000
0100
0000
0000
0000
1000
0001
0100
0000
0001
0000
1001
0000
0000
0000
,
0001
0000
0000
0000
1000
0010
1000
0000
0000
0000
0010
0000
0000
0000
0010
0100
,
0001
0000
1000
0001
1000
0000
0001
0000
0010
0000
0100
0010
0100
0000
1000
0000
,
0001
0000
0100
0010
1000
0000
0001
0000
0010
0000
0100
1000
0010
0000
0100
0000
,
0001
0000
1000
0001
0010
0000
0001
0000
1000
0000
0001
1000
0010
0000
0100
0000
,
0002
0000
0103
0010
2000
0000
3001
0010
0200
0000
1300
0001
0020
0000
0130
0010
,
0001
1000
0010
0100
0001
0010
0100
1000
0010
0100
0001
0010
0001
1000
0100
0010
,
0001
0000
0000
0000
;

//---------------dance-single - ----------------
#NOTES:
     dance-single:
     :
     Medium:
     7:
     0.490608,0.495076,0.163212,0.163212,0.214216,457.000000,24.000000,24.000000,0.000000,0.000000,0.000000,0.490608,0.495076,0.163212,0.163212,0.214216,457.000000,24.000000,24.000000,0.000000,0.000000,0.000000:
0000
0000
0000
0000
,
0000
0000
0000
0000
,
0000
0000
0000
0000
,
0000
0000
0000
0000
,
0000
0000
0000
0000
,
0000
0000
0000
0000
,
0000
0000
0000
0000
,
0000
0000
0000
0000
,
0000
0000
0000
0000
,
1000
0000
0001
0000
0100
0010
0100
0000
,
1000
0000
0001
0000
0100
0010
2002
3003
,
0001
0000
0010
0000
0100
1000
0000
1000
,
0100
0000
1000
0000
0010
1000
0010
0000
,
0100
0001
0000
0001
0010
0000
0100
0000
,
1000
0100
0000
0100
0010
0000
0001
0000
,
1000
0001
0000
0001
1000
0000
0010
0100
,
2002
0000
0000
0000
0000
0003
3000
0000
,
0101
0000
0101
0000
0001
0100
0010
0000
,
1010
0000
1010
0000
1000
0010
0100
0000
,
0110
0000
0110
0000
0010
1000
0001
0000
,
1001
0000
1001
0000
0001
1000
0010
0000
,
0101
0000
1010
0000
1000
0001
0010
0000
,
1100
0000
0011
0000
0001
0100
0010
0000
,
0001
0100
0010
1000
,
0001
0100
0001
1000
0100
0010
0001
0010
,
0200
0000
0000
0300
,
2000
0000
0000
3000
,
0002
0000
0000
0003
,
0200
0000
0000
0300
,
0020
0000
0000
0030
,
0200
0000
0000
0300
,
0002
0000
0000
0003
,
2000
0000
0000
3000
,
0002
0100
0000
0100
,
0203
0010
0000
0010
,
0320
1000
0000
1000
,
2030
0001
0000
3001
,
1000
0001
1000
0000
0001
0000
0100
0000
,
0010
1000
0010
0000
0100
0000
0001
0000
,
1000
0100
1000
0000
0100
0000
0010
0000
,
0001
0000
0000
1000
0000
0000
0001
0000
0000
1000
0000
0000
0001
0000
0100
0000
,
0010
0000
0000
0010
0000
0000
0010
0000
0000
0010
0000
0000
0100
0000
0001
0000
,
2002
0000
0000
0000
0000
3000
0003
0000
,
1000
0000
0000
0100
0000
0000
1000
0000
0000
0010
0000
0000
0100
0000
0001
0000
,
0000
0000
1000
0000
0000
0001
0000
0000
0100
0000
0000
0010
0000
0000
1000
0000
,
0000
0000
0010
0000
0000
0010
0000
0000
0100
0000
0000
0100
0000
0000
0010
0000
,
1000
0000
0000
0001
0000
0000
0100
0000
0010
0000
1000
0000
0010
0000
0100
0000
,
0010
0000
0000
1000
0000
0000
0001
0000
0000
0010
0000
0000
0100
0000
1000
0000
,
0000
0000
0100
0000
0000
1000
0000
0000
0010
0000
0000
0000
0100
0000
0001
0000
,
0000
0000
1000
0000
0000
0001
0000
0000
0100
0000
0000
0001
0000
0000
1000
0000
,
0001
0000
0100
0000
0010
0000
1000
0000
0001
0000
0000
0010
0000
0000
0100
0000
,
0010
0000
0000
0100
0000
0000
1000
0000
0000
0001
0000
0000
1000
0000
0010
0000
,
0000
0000
0100
0000
0000
0001
0000
0000
1000
0000
0000
0100
0000
0000
1000
0000
,
0000
0000
0001
0000
0000
0100
0000
0000
0010
0000
0000
1000
0000
0000
0010
0000
,
0100
0000
0000
0001
0000
0000
1000
0000
0100
0000
1000
0000
0001
0000
0010
0000
,
0100
0000
0000
1000
0000
0000
0010
0000
0000
0100
0000
0000
0001
0000
1000
0000
,
0000
0000
0010
0000
0000
0100
0000
0000
0001
0000
0000
0000
0010
0000
0100
0000
,
0000
0000
1000
0000
0000
0001
0000
0000
0010
0000
0000
0100
0000
0000
1000
0000
,
0100
1000
0100
0010
0001
0010
0100
1000
,
0001
0000
0100
0010
0000
0000
0000
0000
0100
0000
0001
1000
0000
0000
0000
0000
,
1000
0000
0100
0010
0000
0000
0000
0000
0001
0000
0010
0100
0000
0000
0000
0000
,
0100
0000
1000
0010
0000
0000
0000
0000
0100
0000
0001
1000
0000
0000
0000
0000
,
0010
0000
0100
0001
0000
0000
0000
0000
2002
0000
0000
0000
3003
0000
0000
0000
,
0001
0100
1000
0100
,
0001
0000
0100
0000
1000
0100
0001
0000
,
0001
0010
1000
0010
,
0001
0000
0010
0000
1000
0010
0001
0000
,
1000
0001
0100
0001
,
1000
0000
0100
0000
1000
0001
0100
0000
,
0010
0000
1000
0010
1000
0000
0001
0100
,
0001
0000
0000
0010
0000
0000
0100
0000
0000
1000
0000
0000
0001
0000
1000
0000
,
2002
0000
0000
3003
,
0001
0000
0000
1000
0000
0000
0010
0000
0000
0100
0000
0000
0001
0000
0010
0000
,
0000
0000
0100
0000
0000
0010
0000
0000
0001
0000
0000
1000
0000
0000
0001
0000
,
0000
0000
0010
0000
0000
0100
0000
0000
0010
0000
0000
0100
0000
0000
1000
0000
,
0001
0000
0000
1000
0000
0000
0010
0000
0100
0000
0010
0000
1000
0000
0001
0000
,
0010
0000
0000
0100
0000
0000
1000
0000
0000
0001
0000
0000
1000
0000
0001
0000
,
0000
0000
0100
0000
0000
0001
0000
0000
1000
0000
0000
0000
0100
0000
0010
0000
,
0000
0000
0010
0000
0000
0001
0000
0000
0010
0000
0000
0100
0000
0000
1000
0000
,
0010
0000
0100
0000
0001
0000
1000
0000
0100
0000
0000
0010
0000
0000
0100
0000
,
1000
0000
0000
0001
0000
0000
1000
0000
0000
0010
0000
0000
0100
0000
0001
0000
,
0000
0000
0100
0000
0000
0001
0000
0000
0100
0000
0000
0001
0000
0000
1000
0000
,
0000
0000
0001
0000
0000
1000
0000
0000
0100
0000
0000
1000
0000
0000
0010
0000
,
0100
0000
0000
0010
0000
0000
0100
0000
0010
0000
1000
0000
0001
0000
0010
0000
,
0100
0000
0000
1000
0000
0000
0010
0000
0000
0100
0000
0000
0010
0000
1000
0000
,
0000
0000
0001
0000
0000
1000
0000
0000
0001
0000
0000
0000
0010
0000
0100
0000
,
0000
0000
1000
0000
0000
0010
0000
0000
0100
0000
0000
0001
0000
0000
1000
0000
,
0100
0010
0001
1000
2002
0000
0000
3003
,
0001
0000
0100
0001
0000
0100
0000
0010
,
0000
1000
0000
0010
0100
0010
0100
0000
,
0010
0000
1000
0010
0000
1000
0000
0001
,
1000
0010
1000
0000
0010
0100
0010
0000
,
0100
0000
0001
1000
0000
0010
0000
1000
,
0000
0001
0000
0100
0001
0100
0001
0000
,
0100
0000
0010
1000
0000
0001
0000
0000
,
1000
0001
1000
0001
1000
0001
1000
0000
,
0001
0000
1000
0010
0000
0100
0001
0010
,
0000
0100
0000
1000
0100
0010
1001
0000
,
1000
0000
0100
1000
0000
0010
0000
0100
,
0010
1000
0010
0000
0010
0100
0010
0000
,
0001
1001
1000
1100
,
0100
0110
0010
0011
,
0001
0100
0010
1000
,
0001
0100
0010
1000
0001
0100
0010
1000
,
1001
0000
0000
0000
;

//---------------dance-single - ----------------
#NOTES:
     dance-single:
     :
     Easy:
     5:
     0.344883,0.424351,0.136010,0.176813,0.000000,309.000000,20.000000,26.000000,0.000000,0.000000,0.000000,0.344883,0.424351,0.136010,0.176813,0.000000,309.000000,20.000000,26.000000,0.000000,0.000000,0.000000:
0000
0000
0000
0000
,
0000
0000
0000
0000
,
0000
0000
0000
0000
,
0000
0000
0000
0000
,
0000
0000
0000
0000
,
0000
0000
0000
0000
,
0000
0000
0000
0000
,
0000
0000
0000
0000
,
0000
0000
0000
0000
,
1000
1000
0001
1000
,
0010
0010
0100
1001
,
0001
0001
1000
0000
,
0001
1000
0010
1000
,
0001
0001
0100
0001
,
1000
0100
0010
0001
,
0010
0001
0100
0010
,
2002
0000
0000
0000
0000
3000
0003
0000
,
1000
1000
1000
1000
,
0001
0001
0001
0100
,
0001
0001
0001
0001
,
0100
0010
0000
0100
,
0010
0010
0010
0010
,
0100
0100
0100
0001
,
0100
0100
0010
0010
,
0100
0010
1000
0001
,
2000
0000
0000
3000
,
0002
0000
0000
0003
,
2000
0000
0000
3000
,
0020
0000
0000
0030
,
0200
0000
0000
0300
,
0002
0000
0000
0003
,
0200
0000
0000
0300
,
0020
0000
0000
0030
,
2000
0000
0000
0000
,
0020
0000
0000
3000
,
0200
0000
0000
0030
,
0002
0000
0000
0303
,
0001
0001
0001
0001
,
1000
1000
1000
1000
,
0010
0100
0010
0100
,
2002
0000
0000
3003
,
0220
0000
0000
0000
,
0330
0000
0000
0000
,
0100
0001
0100
1000
,
0100
0010
1000
1000
,
0010
0100
0001
1000
,
0100
0010
0100
0100
,
0010
0001
0010
0001
,
1000
0010
1000
1000
,
0010
0100
0001
1000
,
0100
0001
0100
1000
,
0010
1000
0010
0001
,
0010
0100
0001
0001
,
0100
0010
1000
0001
,
0100
0001
1000
0100
,
1000
1000
0001
0100
,
0010
0010
0100
0001
,
1000
0100
0001
0100
,
1000
0010
0001
0010
,
0200
0000
0000
0300
,
0020
0000
0000
0030
,
2000
0000
0000
3000
,
0002
0000
0003
0000
,
1000
0100
0010
0001
,
1000
0100
0010
0001
,
1000
0100
0010
0001
,
0010
0010
0010
0010
,
0001
1000
0001
1000
,
0001
1000
0001
1000
,
1001
0010
1001
0100
,
1001
0101
1001
1100
,
2002
0000
0000
3003
,
0001
0100
0010
1000
,
0010
0100
0001
0001
,
1000
0100
1000
0001
,
0100
0001
0100
0010
,
1000
1000
0010
0100
,
0001
1000
0100
0100
,
1000
0010
0100
0001
,
1000
0100
1000
0001
,
0100
0100
0010
0010
,
1000
1000
0001
0001
,
1000
0100
0010
0001
,
0010
1000
0010
0001
,
0100
0100
0010
0010
,
1000
1000
0001
0001
,
1000
0100
0010
0001
,
2000
0002
0000
3003
,
0001
0100
0010
1000
,
0010
0100
0001
0001
,
0100
0010
1000
0001
,
0010
0010
0100
0010
,
0100
1000
0100
0001
,
0100
0010
0001
0001
,
1000
0001
0100
0001
,
1000
1000
1000
1000
,
0001
1000
0010
1000
,
0001
0100
0010
0010
,
0100
0001
1000
0100
,
0010
0100
0010
0100
,
0000
1001
0000
0110
,
0000
1001
0000
0110
,
0100
0010
1000
0001
,
0101
1010
1100
0011
,
1001
0000
0000
0000
;

//---------------dance-single - ----------------
#NOTES:
     dance-single:
     :
     Beginner:
     3:
     0.200129,0.318263,0.108808,0.000000,0.000000,190.000000,16.000000,0.000000,0.000000,0.000000,0.000000,0.200129,0.318263,0.108808,0.000000,0.000000,190.000000,16.000000,0.000000,0.000000,0.000000,0.000000:
// measure 0
0000
0000
0000
0000
,  // measure 1
0000
0000
0000
0000
,  // measure 2
0000
0000
0000
0000
,  // measure 3
0000
0000
0000
0000
,  // measure 4
0000
0000
0000
0000
,  // measure 5
0000
0000
0000
0000
,  // measure 6
0000
0000
0000
0000
,  // measure 7
0000
0000
0000
0000
,  // measure 8
0000
0000
0000
0000
,  // measure 9
0010
0000
0010
0000
,  // measure 10
0100
0000
0100
1001
,  // measure 11
0001
0000
1000
0000
,  // measure 12
1000
1000
0000
0001
,  // measure 13
0100
0000
0010
0000
,  // measure 14
0100
0000
0001
0001
,  // measure 15
1000
0000
0001
0000
,  // measure 16
1001
0000
0000
0000
,  // measure 17
0010
0000
0010
0000
,  // measure 18
0100
0000
0100
0000
,  // measure 19
0001
0000
0001
0000
,  // measure 20
1000
0000
1000
0000
,  // measure 21
0010
0010
0010
0000
,  // measure 22
0100
0100
0100
0000
,  // measure 23
0010
0000
0100
0000
,  // measure 24
0001
0000
1000
1000
,  // measure 25
1001
0000
0000
0000
,  // measure 26
0000
0000
0000
0000
,  // measure 27
0000
0000
0000
0000
,  // measure 28
0000
0000
0000
0000
,  // measure 29
0000
0000
0000
0000
,  // measure 30
0000
0000
0000
0000
,  // measure 31
0000
0000
0000
0000
,  // measure 32
0000
0000
0000
0000
,  // measure 33
1000
0000
0000
0000
,  // measure 34
0001
0000
0000
0000
,  // measure 35
0100
0000
0000
0000
,  // measure 36
0010
0000
0000
0000
,  // measure 37
0100
0000
0000
0000
,  // measure 38
0001
0000
0000
0000
,  // measure 39
0010
0000
0000
0000
,  // measure 40
0110
0000
0000
0100
,  // measure 41
1001
0000
0000
0010
,  // measure 42
1001
0000
0000
0000
,  // measure 43
1000
0000
1000
0000
,  // measure 44
0001
0000
0001
0000
,  // measure 45
0100
0000
0010
0000
,  // measure 46
0100
0000
0001
0001
,  // measure 47
1000
0000
0100
0000
,  // measure 48
1000
0000
0010
0010
,  // measure 49
0100
0000
0010
0000
,  // measure 50
1000
1000
0001
0001
,  // measure 51
0100
0000
0000
0010
,  // measure 52
0010
0000
0000
1000
,  // measure 53
1000
0000
0001
0000
,  // measure 54
0100
0000
0001
0001
,  // measure 55
0100
0000
0000
0010
,  // measure 56
0010
0000
0100
0000
,  // measure 57
0100
0000
1000
0000
,  // measure 58
0001
0001
1000
1000
,  // measure 59
0010
0000
0000
0000
,  // measure 60
0100
0000
0000
0000
,  // measure 61
0001
0000
0000
0000
,  // measure 62
1000
0000
1001
0000
,  // measure 63
0001
0000
1000
0000
,  // measure 64
0010
0010
0010
0000
,  // measure 65
1000
0000
0001
0000
,  // measure 66
0100
0100
0100
0000
,  // measure 67
0010
0000
0100
0000
,  // measure 68
0001
0001
0001
0000
,  // measure 69
0110
0000
1001
0000
,  // measure 70
0010
0000
0000
0000
,  // measure 71
0001
0000
1000
0010
,  // measure 72
1001
0000
0000
0000
,  // measure 73
1000
0000
0001
0000
,  // measure 74
0100
0000
0000
0000
,  // measure 75
0001
0000
1000
0000
,  // measure 76
0010
0000
0000
0100
,  // measure 77
0100
0000
0010
0000
,  // measure 78
1000
0000
0000
0000
,  // measure 79
0001
0000
1000
0000
,  // measure 80
0010
0000
0100
0000
,  // measure 81
0001
0000
1000
0001
,  // measure 82
1000
0000
0010
0000
,  // measure 83
0100
0000
0001
0100
,  // measure 84
0001
0000
0100
0000
,  // measure 85
0010
0000
1000
0010
,  // measure 86
0100
0000
0010
0000
,  // measure 87
1000
0001
1001
0000
,  // measure 88
0001
0000
0001
0000
,  // measure 89
1000
0000
1000
1000
,  // measure 90
0001
0000
0100
0000
,  // measure 91
0010
0000
0100
0000
,  // measure 92
0001
0000
1000
0000
,  // measure 93
0010
0000
0100
0100
,  // measure 94
0010
0000
1000
0000
,  // measure 95
0100
0100
0100
0100
,  // measure 96
1000
0000
0001
0000
,  // measure 97
0100
0000
0010
0010
,  // measure 98
0100
0000
0001
0000
,  // measure 99
1000
0001
0000
0001
,  // measure 100
1000
1001
0000
0110
,  // measure 101
0000
0110
0000
1001
,  // measure 102
0000
0001
0000
1000
,  // measure 103
0001
0100
0010
1000
,  // measure 104
1001
0000
0000
0000
;
