#VERSION:0.83;
#TITLE:FIN4LE;
#SUBTITLE:-終止編の彼方へ-;
#ARTIST:カモメサノエレクトリックオーケストラ;
#TITLETRANSLIT:;
#SUBTITLETRANSLIT:shuushihen no kanata e;
#ARTISTTRANSLIT:kamome sano electric orchestra;
#GENRE:;
#ORIGIN:;
#CREDIT:;
#BANNER:FIN4LE -shuushihen no kanata e-.png.png;
#BACKGROUND:FIN4LE -shuushihen no kanata e--bg.png;
#PREVIEWVID:;
#JACKET:FIN4LE -shuushihen no kanata e--jacket.png;
#CDIMAGE:;
#DISCIMAGE:;
#LYRICSPATH:;
#CDTITLE:;
#MUSIC:FIN4LE -shuushihen no kanata e-.mp3;
#OFFSET:-1.406003;
#SAMPLESTART:21.036501;
#SAMPLELENGTH:14.999998;
#SELECTABLE:YES;
#BPMS:0.000=64.000,
8.000=128.000,
16.000=256.000,
44.000=128.000,
48.000=256.000,
192.000=128.000,
216.000=256.000,
272.000=128.000,
300.000=256.000,
315.000=128.000,
316.000=256.000,
386.500=128.000,
390.500=256.000,
407.000=512.000,
422.000=128.000;
#STOPS:;
#DELAYS:;
#WARPS:;
#TIMESIGNATURES:0.000=4=4;
#TICKCOUNTS:0.000=4;
#COMBOS:0.000=1;
#SPEEDS:0.000=1.000=0.000=0;
#SCROLLS:0.000=1.000;
#FAKES:;
#LABELS:0.000=Song Start;
#BGCHANGES:;
#KEYSOUNDS:;
#ATTACKS:
;

//---------------dance-single - ----------------
#NOTEDATA:;
#CHARTNAME:;
#STEPSTYPE:dance-single;
#DESCRIPTION:;
#CHARTSTYLE:;
#DIFFICULTY:Hard;
#METER:12;
#RADARVALUES:0.811956,1.044348,0.321718,0.470204,0.387712,689.000000,650.000000,39.000000,57.000000,0.000000,0.000000,0.000000,0.000000,0.000000,0.811956,1.044348,0.321718,0.470204,0.387712,689.000000,650.000000,39.000000,57.000000,0.000000,0.000000,0.000000,0.000000,0.000000;
#CREDIT:;
#NOTES:
// measure 0
0000
0000
0000
0000
,  // measure 1
0000
0000
0000
0000
,  // measure 2
1001
0000
0001
0200
0000
0000
0301
0020
0000
0000
0130
2000
0000
0000
3010
0200
,  // measure 3
0000
0000
0000
0310
0100
0001
1000
0001
1000
0000
0000
0100
0010
0000
0000
0010
,  // measure 4
0001
0000
0001
0100
0000
0000
0001
0000
,  // measure 5
1000
0100
0000
0000
1000
0000
0010
0000
,  // measure 6
0100
0000
0001
0010
0000
0000
0100
0000
,  // measure 7
0010
0001
0000
0000
1000
0000
0001
0000
,  // measure 8
1000
0010
0100
0001
0010
0100
0010
1000
,  // measure 9
0001
0010
0001
1000
0010
1000
0001
0100
,  // measure 10
0001
0010
0001
0010
0001
0010
0100
0020
,  // measure 11
0000
0000
0000
0000
0000
0000
0000
0030
,  // measure 12
0002
0000
0103
0000
0010
1000
0100
0020
,  // measure 13
0100
0000
0130
0000
0010
0000
0001
0100
,  // measure 14
0010
1000
0100
0010
0001
0000
1000
0001
,  // measure 15
2000
3020
0230
0302
,  // measure 16
0013
0000
0100
2000
0000
3010
0200
0000
,  // measure 17
0310
0100
0001
0010
0001
1000
0010
0100
,  // measure 18
0002
0000
0000
1003
0200
0000
0000
0310
,  // measure 19
0001
1000
0001
1000
0001
1000
0010
0100
0010
0100
0010
0100
,  // measure 20
0000
0000
1001
0000
1000
0001
0010
0001
,  // measure 21
2000
0010
3010
0100
,  // measure 22
0002
0000
0010
0000
0013
0000
0100
1000
,  // measure 23
0100
0001
0100
0010
0000
1001
0000
0101
,  // measure 24
0000
0001
0010
0000
0000
0100
0010
0001
,  // measure 25
1000
0001
0000
1001
0000
0101
0000
0021
,  // measure 26
0000
0000
0130
0000
,  // measure 27
0020
0000
0000
0032
0000
0000
0003
2000
,  // measure 28
0000
0000
0000
0000
3001
0000
0000
0100
0000
0000
0010
0000
0000
1000
0000
0000
0001
0000
0000
0010
0000
0000
0100
0000
0000
0010
0000
0000
0001
0000
0000
0000
,  // measure 29
1000
0000
0000
0000
0000
0000
0000
0000
0000
0000
0000
0000
0001
0000
0000
0000
0100
0000
0000
0000
0001
0000
0000
0000
1000
0000
0000
0000
0000
0000
0001
0000
0000
1000
0000
0000
0001
0000
0000
1000
0000
0000
0001
0000
0000
0100
0000
0000
,  // measure 30
0002
0000
0000
2003
0000
0000
0000
3200
,  // measure 31
0000
0000
0310
0001
1000
0100
0010
0001
,  // measure 32
2000
0000
0000
0000
0000
0000
3000
0000
0001
0000
0100
0010
0100
0000
0010
0100
,  // measure 33
0020
0000
0000
2030
0000
0000
3200
0000
,  // measure 34
0000
0000
0000
0000
2300
0000
0000
0002
,  // measure 35
0000
0000
0000
3000
0000
0000
1003
0000
0010
0000
1000
0000
0010
0000
0100
0000
0010
0000
1000
0000
0010
0000
0100
0000
,  // measure 36
0010
0000
0000
1000
0001
0010
0100
0000
,  // measure 37
0010
0100
1000
0001
1000
0100
0010
0100
,  // measure 38
1000
0010
0001
0010
0000
1010
0000
0101
,  // measure 39
0000
0001
1001
0000
0000
0000
0000
0000
,  // measure 40
0001
0100
1000
0100
0000
0101
0000
1010
,  // measure 41
0000
1000
1001
0000
0000
0000
0000
0000
,  // measure 42
1000
0100
1000
0010
0000
0110
0000
0101
,  // measure 43
0000
0001
1001
0000
0000
1000
0001
0020
,  // measure 44
0000
0000
0100
0000
,  // measure 45
0100
0100
0100
0100
,  // measure 46
0130
0010
0000
1000
0001
0000
0100
0010
,  // measure 47
0000
1000
0001
0000
1000
0001
0010
0001
,  // measure 48
2000
0000
0000
0000
3000
0000
0001
0200
0000
0000
0000
0000
0300
0000
0010
0000
,  // measure 49
1000
0001
0010
0001
0000
0000
1000
0001
0000
0000
0000
0000
0100
0000
0010
0000
,  // measure 50
1000
0000
0001
0010
0000
0010
0100
0000
0000
0000
0010
0000
0001
0000
0100
0000
,  // measure 51
0020
0000
0000
2030
0000
0000
0000
0000
0000
0000
0000
0000
0000
3010
0001
0100
,  // measure 52
0010
0000
0000
1000
0100
0010
0100
1000
0000
0000
0001
0000
0100
0000
0001
0000
,  // measure 53
0010
0000
0100
0010
0000
0010
0001
0000
2000
0000
0000
3100
0010
0001
0010
0100
,  // measure 54
1000
0000
0010
0000
0100
0000
0001
1000
,  // measure 55
0001
1000
0100
1000
,  // measure 56
0010
0000
1000
0010
0000
0100
0001
0000
,  // measure 57
0010
0000
0002
0000
2003
0000
3002
0103
,  // measure 58
0010
0000
0100
0001
0000
0001
0010
0000
,  // measure 59
0100
0010
0001
1000
,  // measure 60
0001
0000
0100
0010
0000
0100
0010
1000
,  // measure 61
0001
0010
0000
0100
0100
0010
0001
1000
,  // measure 62
0010
0000
0000
0100
0100
0000
0000
0001
,  // measure 63
0001
0000
0000
1000
1000
0000
0000
0001
,  // measure 64
0001
0000
1000
0010
0000
1010
0000
1100
,  // measure 65
0000
0000
0000
0100
0010
0001
1000
0010
,  // measure 66
0100
0000
0001
0100
0000
0100
0010
1000
,  // measure 67
0000
0101
0000
0000
0001
0000
1000
0100
,  // measure 68
0010
0001
0000
0010
0100
0000
0010
0001
0000
0010
0100
0000
1000
0000
1000
0000
,  // measure 69
0001
0100
0000
0001
1000
0000
0001
0010
0000
0001
1000
0000
0010
0000
0010
0000
,  // measure 70
1000
0010
0000
0010
0100
0000
0100
0010
0000
0010
1000
0000
0100
0000
0100
0000
,  // measure 71
0010
0100
0000
0100
1000
0000
1000
0100
0000
0100
0010
0000
0010
0001
0100
0010
,  // measure 72
1000
1000
0000
0001
0001
0000
0100
0100
0000
0001
0001
0000
1000
0000
0001
0000
,  // measure 73
0010
0010
0000
0001
0001
0000
0100
0100
0000
1000
1000
0000
0100
0000
0010
0000
,  // measure 74
2000
0000
0000
0000
3200
0000
0010
0000
0300
0010
0000
0000
0001
0000
1000
0000
,  // measure 75
1001
1001
0000
0110
0110
0000
1001
1001
,  // measure 76
0000
0110
0110
0000
0000
0000
0000
0000
,  // measure 77
0110
0110
0000
1001
1001
0000
0110
0110
,  // measure 78
0000
1001
1001
0000
0020
0000
0000
0000
,  // measure 79
1030
0100
1000
0010
0100
0001
0010
0001
,  // measure 80
0100
0010
1000
0001
0010
0100
0010
0001
,  // measure 81
0100
0010
1000
0100
0010
0100
1000
0010
,  // measure 82
0100
0001
0010
0001
0100
0010
0100
0010
,  // measure 83
0100
0001
0100
0001
0100
0010
0100
0010
,  // measure 84
1000
0001
0010
0100
1000
0100
0010
0100
,  // measure 85
1000
0001
1000
0020
2030
3200
0320
0032
,  // measure 86
2003
3020
0230
0302
2003
3200
0310
0100
,  // measure 87
1000
0001
1000
0010
0100
0001
0100
0010
,  // measure 88
1000
0100
1000
0001
0100
0010
1000
0100
,  // measure 89
1000
0001
0000
0101
0000
0120
0000
0000
,  // measure 90
0000
0030
0100
0010
1000
0001
0010
0100
,  // measure 91
0010
0001
0100
0010
1000
0001
0010
0200
,  // measure 92
0310
0001
1000
0100
0010
0001
1000
0010
,  // measure 93
0100
0001
0010
0100
0010
0001
0100
0020
,  // measure 94
1030
0100
0010
0001
0010
0100
1000
0001
,  // measure 95
0100
0001
1000
0100
1000
0001
0000
0011
,  // measure 96
0000
0000
1000
0010
0000
0201
0000
0000
,  // measure 97
0000
0000
0000
0000
0000
0300
0001
1000
,  // measure 98
0001
1000
0001
1000
0001
1000
0001
1000
,  // measure 99
0001
0000
0000
1000
0000
0000
0001
0000
0000
1000
0000
0000
0001
0000
0000
1000
0000
0000
0001
0000
1000
0000
0001
0000
,  // measure 100
1000
0001
1000
0001
1000
0001
1000
0001
1000
0001
1000
0001
,  // measure 101
1000
0000
0001
0000
1000
0000
0001
0000
1000
0000
0001
0000
1000
0000
0000
0000
0000
0000
0001
0000
0000
1000
0000
0000
,  // measure 102
0001
1000
0001
1000
0001
1000
0001
1000
,  // measure 103
0001
1000
0001
1000
0001
1000
0001
1000
,  // measure 104
0001
1000
0001
1000
0001
1000
0001
1000
,  // measure 105
0001
1000
0001
1000
0001
0000
0000
0000
;

//---------------dance-single - ----------------
#NOTEDATA:;
#CHARTNAME:;
#STEPSTYPE:dance-single;
#DESCRIPTION:;
#CHARTSTYLE:;
#DIFFICULTY:Medium;
#METER:9;
#RADARVALUES:0.535019,0.739746,0.206230,0.338217,0.119613,454.000000,429.000000,25.000000,41.000000,0.000000,0.000000,2.000000,0.000000,0.000000,0.535019,0.739746,0.206230,0.338217,0.119613,454.000000,429.000000,25.000000,41.000000,0.000000,0.000000,2.000000,0.000000,0.000000;
#CREDIT:;
#NOTES:
0000
0000
0000
0000
,
0000
0000
0000
0000
,
1000
0000
0001
0100
0000
0000
0010
1000
0000
0000
0100
0010
0000
0000
0100
1000
,
0000
0000
0000
0001
0000
0100
0000
0010
0000
0000
0000
0100
0010
0000
0000
1000
,
0001
0000
1000
0010
0000
0000
1000
0000
,
0010
1000
0000
0000
0010
0000
0100
0000
,
0001
0000
1000
0001
0000
0000
1000
0000
,
0001
1000
0000
0000
0010
0000
0100
0000
,
0001
0000
0010
0100
0000
0000
1000
0000
,
0010
0100
0000
0000
0010
0000
0100
0000
,
0001
0100
0010
1000
0001
0010
0100
0020
,
0000
0000
0000
0000
0000
0000
0000
0030
,
0200
0000
0000
0000
0310
0001
1000
0002
,
0000
0000
0000
0000
0103
0000
0001
0010
,
0000
0100
0010
0001
1000
0000
0001
0100
,
0001
0010
0001
1000
,
0100
0000
0000
1000
0000
0000
0010
0000
,
0100
0010
1000
0001
0010
0100
0010
0001
,
1000
0000
0000
0001
0100
0000
0000
0100
,
0004
4000
0000
0000
0000
0000
0000
0000
0000
0000
0000
0000
0000
0000
0000
0000
,
3003
0000
0110
0000
0100
0010
1000
0002
,
0000
0000
0000
0013
,
0200
0000
0000
0000
0000
0000
0000
0310
,
0001
1000
0010
0100
0000
1001
0000
0001
,
0000
1000
0010
0000
0000
0100
0001
0010
,
0100
0010
0000
0100
0000
0010
0000
0022
,
0000
0000
0000
0033
0000
0000
0000
0000
,
1001
0000
0000
1010
0000
0000
0000
0220
,
0000
0000
0000
0000
0000
0000
0000
0330
,
2002
0000
3003
0000
,
0011
0000
0000
1010
0000
0000
0000
2200
,
0000
0000
0000
0000
0000
3300
0000
0000
,
0202
0000
0303
0000
,
0011
0000
0000
1010
0000
0000
1001
0000
,
0000
0000
0000
0000
0001
0000
0000
2020
,
0000
0000
0000
0000
3030
0000
1000
0010
,
0100
0000
0000
0010
0000
0000
1000
0000
,
0000
0001
0000
0000
0010
0000
0001
0000
,
0100
0010
0100
0001
0000
1000
0000
0010
,
0000
0100
0002
0000
0000
0000
0000
0000
,
0013
0100
0010
0001
0000
1000
0000
0010
,
0000
0100
0020
0000
0000
0000
0000
0000
,
0130
0010
1000
0001
0000
0010
0000
0001
,
0000
1000
0100
0000
0000
0010
0001
2000
,
0000
0000
0000
0000
,
0000
0000
0000
0000
,
3001
0100
0000
0010
1000
0000
1000
0100
,
0000
0010
0001
0000
1000
0000
0001
0000
,
0100
0000
0010
0000
,
1000
0000
0010
0000
0100
0000
0001
1000
,
0010
0000
0000
1000
0000
0000
0100
0000
0000
0000
0010
0000
0100
0000
1000
0000
,
0001
0000
0000
0100
0000
0000
0000
0000
0000
0000
0000
0000
0010
0000
0100
0000
,
0001
0000
0000
0000
1000
0000
0000
0001
0000
0000
0100
0000
0001
0000
0010
0000
,
0100
0000
0000
0010
0000
0000
0001
0000
0000
0000
0000
1000
0100
0010
0001
1000
,
0010
1000
0100
1000
,
0010
0100
0001
0010
,
0100
0010
0001
0100
,
0010
2000
3002
0023
,
0031
1000
0100
0010
,
0100
1000
0010
0100
,
0001
1000
0010
0200
,
0302
0203
0320
2030
,
3001
0000
0000
1000
0010
0000
0000
0010
,
0100
0000
0000
0100
0001
0000
0000
0001
,
1000
0000
0100
1000
0000
1000
0000
0110
,
0000
0000
0000
0000
0010
0100
0001
1000
,
0010
0000
0100
0001
0000
0100
0010
0000
,
0000
1001
0000
0000
0001
0000
1000
0100
,
0010
0000
0000
0010
0000
0000
0010
0000
0000
0010
0000
0000
0100
0000
0010
0000
,
0001
0000
0000
1000
0000
0000
0010
0000
0000
1000
0000
0000
0001
0000
1000
0000
,
0100
0000
0000
0100
0000
0000
0100
0000
0000
0100
0000
0000
0100
0000
0010
0000
,
0001
0000
0000
1000
0000
0000
0010
0000
0000
0100
0000
0000
0010
0000
1000
0000
,
1001
0000
0000
0001
0000
0000
1001
0000
0000
1000
0000
0000
0010
0000
0100
0000
,
0110
0000
0000
0010
0000
0000
0110
0000
0000
0100
0000
0000
0010
0000
0100
0000
,
0001
0000
1000
0000
0010
0100
0001
1000
,
0001
0100
0000
0010
1000
0000
1000
0100
,
0000
0010
0001
0000
0000
0000
0000
0000
,
0010
0100
0000
0001
1000
0000
0010
0100
,
0000
0001
1000
0000
0000
0000
0000
0000
,
2002
0000
0000
3003
0100
0001
0010
0000
,
0100
0010
0001
1000
,
0001
0100
0000
0010
2000
0000
0000
0000
,
3100
0010
0001
1000
,
0001
0100
0000
0010
0200
0000
0000
0000
,
0301
0010
0001
1000
,
0000
0010
0000
0100
0010
1000
0001
0010
,
0100
0010
0001
0100
0010
1000
0200
0000
,
0000
0310
0002
0000
0000
0103
0020
0000
,
0000
1030
0002
0000
0000
0013
0200
0000
,
0310
0001
0000
1100
0000
2002
0000
0000
,
0000
3003
0001
0010
0100
1000
0010
0000
,
0100
0010
0000
0100
0001
0000
0000
1000
,
0000
0001
0010
0100
1000
0001
1000
0000
,
0010
1000
0000
0100
0010
0001
0000
0010
,
0000
0001
0010
0100
1000
0001
0100
0000
,
0010
1000
0000
0010
0100
0001
0000
0010
,
0000
0000
0100
0010
0000
2002
0000
0000
,
0000
0000
3003
1000
,
0001
1000
0001
1000
,
0001
1000
0001
1000
,
0001
1000
0001
1000
,
0001
1000
0001
1000
,
0001
1000
0001
1000
,
0001
1000
0001
1000
,
0001
1000
0001
1000
,
0001
1000
0001
0000
;

//---------------dance-single - ----------------
#NOTEDATA:;
#CHARTNAME:;
#STEPSTYPE:dance-single;
#DESCRIPTION:;
#CHARTSTYLE:;
#DIFFICULTY:Easy;
#METER:6;
#RADARVALUES:0.320540,0.478659,0.115489,0.222728,0.016498,272.000000,258.000000,14.000000,27.000000,0.000000,0.000000,2.000000,0.000000,0.000000,0.320540,0.478659,0.115489,0.222728,0.016498,272.000000,258.000000,14.000000,27.000000,0.000000,0.000000,2.000000,0.000000,0.000000;
#CREDIT:;
#NOTES:
0000
0000
0000
0000
,
0000
0000
0000
0000
,
1000
0000
0000
0010
0000
0000
0000
0100
0000
0000
0000
0010
0000
0000
0000
1000
,
0000
0001
1000
0001
,
0100
0000
0000
0001
,
0000
0000
0010
0001
,
0100
0000
0000
0010
,
0000
0000
0100
0010
,
1000
0001
0010
0001
,
0100
0010
1000
0001
,
0010
0000
0010
0000
0100
0000
1000
0020
,
0000
0000
0000
0000
,
0230
0000
0301
1000
,
0200
0000
1300
0000
,
0001
0010
0100
1000
,
0010
0100
0001
0010
,
0001
0000
0000
1000
0000
0000
0010
0000
,
0100
0001
0010
0001
,
1000
0000
0001
0000
,
0200
0000
0000
0000
,
0300
1001
0001
1000
,
0020
0000
0000
0130
,
0002
0000
0000
0000
0000
0000
0000
0013
,
0100
0000
0000
1000
0000
0001
0000
0100
,
0000
0010
0000
0100
,
0001
0000
0000
1000
0000
0001
0000
0022
,
0000
0000
0033
0000
,
0010
0000
0000
0100
0000
0000
0000
2000
,
0000
0000
0000
3000
,
0220
0000
0000
0330
,
0100
0000
0000
0010
0000
0000
0000
2000
,
0000
0000
0000
3000
,
0202
0000
0000
0303
,
0001
0000
0000
0010
0000
0000
0001
0000
,
0000
0000
0000
2000
0000
0000
0000
0002
,
0000
0000
0000
3003
,
0100
0000
0000
0010
0000
0000
1000
0000
,
0000
0001
0000
0000
0000
0000
0000
0000
,
0100
0000
0000
0010
0000
1000
0000
0001
,
0000
1001
0000
0000
,
1000
0000
0000
0001
0000
0010
0000
0100
,
0000
0011
0000
0000
,
0100
0000
0000
0010
0000
0001
0000
1000
,
0000
0000
0101
0000
0000
0001
0000
1001
,
0000
0000
0000
0000
,
0000
0000
0000
0000
,
0001
1000
0000
1000
0001
0000
0001
1000
,
0000
1000
0001
0000
0000
0000
0000
0000
,
0100
0000
0010
0000
,
1000
0010
1000
0000
,
0001
0000
0100
0000
,
0010
0100
0001
0000
,
1000
0000
0001
0000
,
0100
0000
0010
0000
1000
0000
0001
1000
,
0010
0000
0000
0000
0000
0000
1000
0001
,
0000
0000
0000
0100
,
0010
1000
0001
0010
,
0000
0000
0000
0100
,
1000
0000
0000
0001
0000
0000
1000
0000
,
0000
0010
1000
0100
,
0010
0000
0000
0100
0000
0000
0010
0000
,
0100
1000
0010
0100
,
0001
0000
1000
0000
,
0100
0000
0010
0000
,
0001
0000
0000
0010
0000
0001
0000
0100
,
0000
0000
0010
0100
,
0001
0000
0000
1000
0000
0000
0100
0000
,
0000
1001
0000
0000
0001
0000
0100
0000
,
0010
0000
0000
0000
,
0010
0000
0000
0000
,
0100
0000
0000
0000
,
0100
0000
0000
0000
,
0001
0000
1000
0000
,
0010
0000
0100
0000
,
0001
1000
0001
0100
,
0010
1000
0000
0010
1000
0000
0010
1000
,
0000
0010
1000
0000
0000
0000
0000
0000
,
0001
0100
0000
0001
0100
0000
0001
0100
,
0000
0001
0100
0000
0000
0000
0000
0000
,
2001
0000
0000
0000
0000
0002
0000
0000
,
0000
3003
1000
0010
,
0000
0100
0000
0000
0002
0000
0000
0000
,
0000
0000
0000
0103
,
0000
0010
0000
0000
2000
0000
0000
0000
,
3001
1000
0010
1000
,
0000
0100
0000
0000
0010
0000
0100
0000
,
1000
0010
0100
0001
,
0000
0100
0000
0010
,
0000
1000
0000
0100
,
0000
0010
0000
0100
0000
2002
0000
0000
,
0000
0000
3003
1000
,
0001
0100
0000
0010
0000
0000
0000
2002
,
0000
0000
3003
1000
,
0100
0010
0000
0001
0000
0000
0000
0220
,
0000
0000
0000
0330
0000
0000
0100
0000
,
0010
0001
0000
1000
0001
1000
0000
0001
,
0000
0000
0100
0010
0000
0200
0000
0000
,
0000
0000
0000
0000
0000
0300
0001
0000
,
1000
0001
1000
0001
,
1000
0001
1000
0001
,
1000
0001
1000
0001
,
1000
0001
1000
4004
,
0000
0000
0000
0000
,
0000
0000
0000
0000
,
0000
0000
0000
0000
,
0000
0000
3003
0000
;

//---------------dance-single - ----------------
#NOTEDATA:;
#CHARTNAME:;
#STEPSTYPE:dance-single;
#DESCRIPTION:;
#CHARTSTYLE:;
#DIFFICULTY:Beginner;
#METER:2;
#RADARVALUES:0.128452,0.251807,0.148485,0.000000,0.000000,109.000000,91.000000,18.000000,0.000000,0.000000,0.000000,0.000000,0.000000,0.000000,0.128452,0.251807,0.148485,0.000000,0.000000,109.000000,91.000000,18.000000,0.000000,0.000000,0.000000,0.000000,0.000000,0.000000;
#CREDIT:;
#NOTES:
0000
0000
0000
0000
,
0000
0000
0000
0000
,
1001
0000
0000
0000
,
0000
0000
0010
0100
,
1001
0000
0000
0000
,
0000
0000
0000
0000
,
1000
0000
0000
0000
,
0000
0000
0000
0000
,
0001
0000
0000
0000
,
1000
0000
0000
0000
,
0010
0000
0100
1001
,
0000
0000
0000
0000
,
0010
0000
0000
0000
,
1000
0000
0000
0000
,
0001
0000
0000
0000
,
0100
0000
0001
0000
,
1000
0000
0000
0000
,
0001
0000
1000
0000
,
0010
0000
0100
0000
,
1001
0000
0000
0000
,
0000
0010
0000
0000
,
0100
0000
0000
0000
,
0010
0000
0000
0000
,
1000
0000
0000
0001
,
0000
0000
0000
0000
,
0100
0000
0000
0000
,
1001
0000
0000
0000
,
0010
0000
0000
0000
,
0000
0000
0000
0000
,
0110
0000
0000
0000
,
0100
0000
0000
0000
,
0000
0000
0000
0000
,
1001
0000
0000
0000
,
0010
0000
0000
0000
,
0000
0000
0100
0000
,
0000
0000
0000
0000
,
0010
0000
0000
0000
,
0000
0000
0000
0000
,
1001
0000
0000
0000
,
0000
0000
0000
0000
,
0110
0000
0000
0000
,
0000
0000
0000
0000
,
0110
0000
0000
0000
,
0000
0000
0000
0000
,
1001
0000
0000
0000
,
0000
0000
0000
0000
,
1001
0000
0000
0010
,
0000
0000
0000
0000
,
0100
0000
0000
0000
,
0010
0000
0000
0000
,
1000
0000
0001
0000
,
1000
0000
0000
0000
,
0010
0000
0000
0000
,
0100
0000
0000
0001
,
1000
0000
0000
0000
,
0001
0000
0000
0000
,
1000
0000
0001
0000
,
1000
0000
0000
0000
,
0010
0000
0100
0000
,
0010
0000
1000
0000
,
0001
0000
0000
0000
,
0000
0000
1000
0000
,
0001
0000
0000
0000
,
1000
0000
0000
0000
,
0010
0000
0000
0000
,
0000
0000
0100
0000
,
0010
0000
0000
0000
,
1001
0000
0000
0000
,
0010
0000
0000
0000
,
0010
0000
0000
0000
,
0010
0000
0000
0000
,
0010
0000
0000
0000
,
0110
0000
0000
0000
,
1001
0000
0000
0000
,
0110
0000
0000
0000
,
0001
0000
0000
0000
,
0000
0000
0000
0000
,
1000
0000
0000
0000
,
0000
0000
0000
0000
,
0010
0000
0000
0000
,
0000
0000
0000
0100
,
0000
0000
0000
0000
,
0000
0000
0000
0010
,
0000
0000
1000
0000
,
0000
0000
0000
0001
,
0000
0000
0000
0000
,
0000
0000
0000
1000
,
0000
0000
0000
0100
,
0000
0000
0000
1000
,
0000
0000
0000
1001
,
0000
0000
0000
0001
,
0000
0000
0000
0000
,
0000
0000
0000
1000
,
0000
0000
0000
0000
,
0000
0000
0000
0010
,
0000
0000
0000
0000
,
0000
0000
0000
0000
0000
0100
0000
0000
,
0000
0000
0000
0010
,
0000
0000
0000
0000
,
0000
0000
0000
1000
,
0000
0000
0000
0000
,
0000
0000
0000
1001
;
