#VERSION:0.82;
#TITLE:FAKE STYLE;
#SUBTITLE:;
#ARTIST:FAKE TYPE.;
#TITLETRANSLIT:;
#SUBTITLETRANSLIT:;
#ARTISTTRANSLIT:;
#GENRE:;
#ORIGIN:;
#CREDIT:;
#BANNER:FAKE STYLE.png;
#BACKGROUND:FAKE STYLE-bg.png;
#PREVIEWVID:;
#JACKET:FAKE STYLE-jacket.png;
#CDIMAGE:;
#DISCIMAGE:FakeStyleCurtin.png;
#LYRICSPATH:;
#CDTITLE:;
#MUSIC:FAKE STYLE.ogg;
#OFFSET:1.889993;
#SAMPLESTART:60.965004;
#SAMPLELENGTH:15.840000;
#SELECTABLE:YES;
#BPMS:0.000=125.000;
#STOPS:;
#DELAYS:;
#WARPS:;
#TIMESIGNATURES:0.000=4=4;
#TICKCOUNTS:0.000=4;
#COMBOS:0.000=1;
#SPEEDS:0.000=1.000=0.000=0;
#SCROLLS:0.000=1.000;
#FAKES:;
#LABELS:0.000=Song Start;
#BGCHANGES:4.000=FakestyleBGA.avi=1.000=0=0=1=====,
99999=-nosongbg-=1.000=0=0=0 // don't automatically add -songbackground-
;
#KEYSOUNDS:;
#ATTACKS:
;

//---------------dance-single - ----------------
#NOTEDATA:;
#CHARTNAME:;
#STEPSTYPE:dance-single;
#DESCRIPTION:;
#CHARTSTYLE:;
#DIFFICULTY:Hard;
#METER:8;
#RADARVALUES:0.464463,0.494460,0.377886,0.099819,0.196073,389.000000,53.000000,14.000000,0.000000,0.000000,0.000000,0.000000,0.000000,0.464463,0.494460,0.377886,0.099819,0.196073,389.000000,53.000000,14.000000,0.000000,0.000000,0.000000,0.000000,0.000000;
#CREDIT:;
#NOTES:
0000
0000
0000
0000
,
0000
0000
0000
0000
,
0000
0000
0000
0000
,
0000
0000
0000
0000
,
0000
0000
0000
0000
0000
0000
0000
0000
0000
0000
0000
0000
0002
0003
2000
3000
,
0011
0000
0000
0010
0000
0000
0100
0000
1100
0000
0000
1000
0000
0000
0001
0000
,
1001
0000
0000
1000
0000
0000
0010
0000
0200
0000
0000
0000
0000
0000
0300
0000
,
1010
0000
0000
1000
0000
0000
0001
0000
0011
0000
0000
0010
0000
0000
0100
0000
,
1000
0000
0000
0100
0000
0000
0001
0000
0100
0000
0000
0000
0010
0000
0000
0000
,
0011
0000
0000
0010
0000
0000
0100
0000
1100
0000
0000
1000
0000
0000
0100
0000
,
0010
0010
0100
1000
0001
0001
0100
0010
,
1000
0001
0010
0100
,
0010
0000
0000
0001
0000
0000
0100
0000
1000
0000
0000
0100
0000
0000
0010
0000
,
1000
0000
0000
0000
,
0101
0000
0000
0000
0000
0000
0001
0010
,
1100
0000
0000
0000
,
1001
0000
0000
0000
0000
0000
0001
1000
,
0100
0000
1000
0010
0100
0000
0010
0100
,
0010
0100
0100
0001
0001
0010
0100
0000
,
0100
1000
0010
0100
0001
0100
1000
0100
,
0010
0000
0000
1000
0100
0001
0100
0010
,
0000
0000
0100
0000
0100
0000
1000
0000
0001
0000
0000
1000
0000
1000
0000
0000
,
0010
0000
0100
0000
0010
0000
1000
0000
0001
0000
0000
0100
0000
0100
0000
0020
,
0000
0030
1000
0100
2000
0000
3001
1000
,
0010
1000
0010
0100
,
0001
0000
1000
0100
0010
0001
0010
0001
,
0100
0000
0001
0000
1000
0000
0000
0000
0000
0010
0000
0000
0100
0000
0000
0001
0000
0000
1000
0000
0000
0010
0000
0000
,
0100
0000
0001
0000
0010
0000
0000
0000
0000
0100
0000
0000
1000
0000
0000
0100
0000
0000
0010
0000
0000
0001
0000
0000
,
1000
0001
0001
0000
1000
0001
0020
0000
,
0000
0000
0031
0100
1000
0100
0001
0100
,
1000
0010
1000
0100
0001
0100
1000
0001
,
0000
0000
0010
0000
1001
0000
0000
0000
0100
0000
0010
1000
0000
0000
0001
0000
,
1001
0000
0000
0000
0000
0000
0001
1000
,
1010
0000
0011
0000
1001
0000
0001
1000
,
0100
0100
1000
0010
0100
0100
0001
1000
,
0000
0000
0000
0000
0001
0000
0000
1000
0000
0000
0100
0000
0010
0000
0001
0000
,
0100
0010
1000
0100
0000
0000
0010
0100
,
1100
0000
0011
0000
1001
0000
1000
1000
,
0010
0010
0100
0001
0010
0010
0100
0100
,
1000
0000
0001
0000
0010
0000
0000
0000
0100
0000
0000
1000
0000
0000
0010
0000
,
0200
0000
0000
0301
0000
0000
0100
0000
0020
0000
0000
1030
0000
0000
0001
0000
,
1001
0000
0000
0000
,
0110
0000
0000
0000
0000
0000
0100
0010
,
1001
0000
0000
0000
,
0101
0000
0000
0000
,
0001
0000
0001
0000
1000
0000
0001
1000
0000
0001
1000
0000
0000
0000
0000
0000
,
1000
0000
1000
0000
0001
0000
1000
0001
0000
1000
0001
0000
0000
0000
0000
0000
,
0001
0000
0001
0000
0100
0000
0010
1000
0000
0010
1000
0000
0000
0000
0000
0000
,
1000
0100
0010
0001
1000
0100
0010
0001
,
2001
3100
1002
0103
,
1010
0000
0000
1000
0000
0000
0001
0000
0011
0000
0000
0110
0000
0000
1100
0000
,
2000
0000
3100
0010
0001
0010
1000
0010
,
0100
0100
0110
0000
0010
0001
0101
1010
,
2001
0000
0000
0000
3001
0000
0000
0000
0001
0000
1000
0000
0001
0000
0000
0010
,
0000
0000
0100
0000
1000
0000
0001
0000
1001
0000
0000
0101
0000
0000
1001
0000
,
1000
0000
0010
0000
0001
0000
0010
0000
1000
0100
0010
0000
0001
0000
0010
0000
,
1000
0000
0000
0000
,
1001
0000
0000
0001
0000
0000
1000
0000
1100
0000
0000
0100
0000
0000
0010
0000
,
0011
0000
0000
0010
0000
0000
0100
0000
2002
0000
0000
0000
0000
0000
3003
0000
,
0101
0000
0000
0100
0000
0000
0010
0000
1010
0000
0000
1000
0000
0000
0010
0000
,
0100
0000
0001
0100
0000
0000
0010
1000
0001
0000
0000
0000
0011
0000
0000
0000
,
1010
0000
0000
0010
0000
0000
0100
0000
0101
0000
0000
0001
0000
0000
0010
0000
,
0001
0001
1000
0100
0100
1000
0010
0100
,
0001
0000
1000
0000
1000
0000
0000
0000
0001
0000
0000
0100
0000
0000
0000
0000
,
0001
0000
1000
0000
0010
0000
1000
0000
0001
0000
0010
0000
0001
0000
1000
0000
0001
0000
1000
0000
0000
0001
0000
0000
,
1001
0000
0110
0000
1001
0000
0001
0100
,
0010
0100
0001
0010
0100
0010
0001
0100
,
0000
0000
0000
0000
0010
0000
0000
0100
0000
0000
0001
0000
0100
0000
0001
0000
,
0100
0010
0100
0010
0000
0000
0100
0010
,
1001
0000
0110
0000
1001
0000
1000
0010
,
0100
0100
0010
1000
0100
0100
0010
0010
,
0100
0000
1000
0000
0100
0000
0000
0000
1000
0000
0000
0010
0000
0000
0000
0000
,
0110
0000
0000
0100
0000
0000
0010
0000
1001
0000
0000
0100
0000
0000
0010
0000
,
1001
0000
0000
0000
;

//---------------dance-single - ----------------
#NOTEDATA:;
#CHARTNAME:;
#STEPSTYPE:dance-single;
#DESCRIPTION:;
#CHARTSTYLE:;
#DIFFICULTY:Medium;
#METER:6;
#RADARVALUES:0.359552,0.416387,0.292327,0.163988,0.035650,289.000000,41.000000,23.000000,0.000000,0.000000,0.000000,0.000000,0.000000,0.359552,0.416387,0.292327,0.163988,0.035650,289.000000,41.000000,23.000000,0.000000,0.000000,0.000000,0.000000,0.000000;
#CREDIT:;
#NOTES:
0000
0000
0000
0000
,
0000
0000
0000
0000
,
0000
0000
0000
0000
,
0000
0000
0000
0000
,
0000
0000
0000
0000
0000
0000
1000
0001
,
1001
0001
0100
0001
,
1001
1000
0100
1000
,
1001
0001
0010
0001
,
1001
1000
0010
1000
,
1001
0001
0100
0010
,
1001
1000
0010
0100
,
1001
0001
1000
0100
,
1000
0000
0000
0100
0000
0000
1000
0000
0010
0000
0000
0100
0000
0000
0001
0000
,
1001
0000
0000
0000
,
0110
0000
0000
0010
,
1001
0000
0000
0000
,
0220
0000
0300
0030
,
0100
0000
0010
1000
0010
0000
0100
0000
,
0001
0000
1000
0000
0100
0100
0010
0000
,
0100
0000
1000
0000
0010
0000
0100
0001
,
0010
0000
0000
0100
0010
0010
0001
1000
,
0000
0001
1000
0000
0010
0000
0100
0000
,
0001
0000
1000
0000
0010
0000
0100
0001
,
0200
0000
0310
1000
0001
0000
0010
0100
,
1000
0100
1000
0010
,
0100
0001
1000
0010
,
0100
0001
0100
0000
0001
0000
1000
0000
,
0010
0100
0010
0000
1000
0000
0001
0000
,
0010
0100
0010
0000
0010
0001
0010
0000
,
0001
1000
0001
0100
,
0110
1001
0101
1010
,
0000
0000
1000
0000
0001
0000
0000
0000
0100
0000
0000
0010
0000
0000
1000
0000
,
0001
0000
0000
0000
0000
0000
1000
0001
,
1001
0000
1001
0000
0110
0000
0010
0100
,
0001
0001
1000
1000
,
0000
0000
0000
0000
0100
0000
0000
1000
0000
0000
0010
0000
0100
0000
0001
0000
,
0010
0100
1000
0001
0000
0000
1000
0010
,
1010
0000
0101
0000
1010
0000
0010
0010
,
0100
0000
0010
0000
1000
1000
0001
1000
,
0001
1000
0100
0010
,
0100
0000
0000
0010
0000
0000
0001
0000
1000
0000
0000
0010
0000
0000
0100
0000
,
0101
0000
0000
0000
,
1010
0000
0000
1000
,
0101
0000
0000
0000
,
1001
0000
0000
0000
,
0001
0000
0000
0000
1000
0000
0000
0000
0100
0000
0000
0000
0020
0000
0000
0030
,
0100
0000
0010
0000
0001
1000
0002
0000
,
0103
0000
0001
0000
1000
0001
0020
0000
,
0130
0010
0001
1000
,
2002
3000
0200
0303
,
2002
0000
0000
0000
0003
0000
0000
0000
3100
0000
0000
0010
0000
0000
0001
0000
,
2000
3010
0020
0130
,
0010
0010
0100
0000
0010
1000
0001
1000
,
1002
0103
2001
3100
,
0002
0203
0320
2030
,
3010
1000
0010
1000
0010
1000
0010
1000
,
0010
0000
0000
0000
,
1000
0001
0100
0001
,
0011
0000
0010
0000
0200
0000
0000
0300
,
0110
0010
1000
0001
,
0011
0010
0001
1000
,
1001
0001
0100
0010
,
1010
0010
0100
0001
,
1001
0001
1000
0010
,
2000
0000
3200
0000
0320
0000
0031
0010
,
0110
0000
0011
0000
0110
0000
0010
0001
,
1000
0000
1000
0000
0001
0100
0001
0100
,
0000
0000
0000
0000
0010
0000
0000
0100
0000
0000
0001
0000
1000
0000
0000
0000
,
1000
0100
0010
0001
0000
0000
1000
1000
,
1001
0110
1001
0001
,
1000
0000
0010
0000
0100
0010
1000
0010
,
0100
0001
0010
0100
,
0010
0000
0000
0001
0000
0000
1000
0000
0010
0000
0000
0100
0000
0000
0001
0000
,
1000
0000
0000
0000
;

//---------------dance-single - ----------------
#NOTEDATA:;
#CHARTNAME:;
#STEPSTYPE:dance-single;
#DESCRIPTION:;
#CHARTSTYLE:;
#DIFFICULTY:Easy;
#METER:3;
#RADARVALUES:0.224083,0.338315,0.156858,0.142598,0.000000,178.000000,22.000000,20.000000,0.000000,0.000000,0.000000,0.000000,0.000000,0.224083,0.338315,0.156858,0.142598,0.000000,178.000000,22.000000,20.000000,0.000000,0.000000,0.000000,0.000000,0.000000;
#CREDIT:;
#NOTES:
0000
0000
0000
0000
,
0000
0000
0000
0000
,
0000
0000
0000
0000
,
0000
0000
0000
0000
,
0000
0000
0000
0000
,
1001
0000
0001
0000
,
1000
0010
0200
0300
,
1001
0000
0001
0000
,
0010
0001
0100
0010
,
1001
0000
1000
0000
,
0001
0010
0100
1000
,
0010
0000
0000
0000
,
0200
0000
0302
0000
,
1003
0000
0000
0000
,
1000
0000
0000
0000
,
1000
0000
0000
0000
,
1000
0000
0000
0000
,
0001
0000
0100
0000
,
0001
1000
0010
0010
,
1000
0100
0010
0001
,
0010
0000
0001
0100
,
0000
0001
1000
0010
,
1000
0001
0100
0001
,
0002
1003
0002
0103
,
0010
0100
0001
1000
,
0100
1000
0010
0100
,
0002
0003
0100
0010
,
2000
3000
0010
0100
,
0002
0003
2000
3000
,
0000
0001
0010
0100
,
1000
1001
0110
1001
,
0000
1010
0101
1001
,
0000
0000
0000
0000
,
0001
1000
1001
0001
,
0100
0001
1000
1000
,
0000
0100
1000
0010
,
0100
0001
1000
0010
,
1000
0001
1001
0001
,
0010
0010
0100
0010
,
0010
0000
0000
0000
,
0002
1003
2000
3001
,
1001
0000
0000
0000
,
0010
0000
0000
0000
,
0010
0000
0000
0000
,
0010
0000
0000
0000
,
0200
0000
0000
0000
0000
0300
0000
0000
,
0200
0000
0000
0000
0000
0300
0000
0000
,
0200
0000
0000
0000
0000
0300
0000
0000
,
2002
0000
0000
3003
,
1001
0000
0001
0000
,
0100
0000
1001
0000
,
0001
0000
1000
0000
,
0100
0000
1000
0010
,
0110
0000
0100
0000
,
0001
0000
1000
0000
,
0001
1000
0010
0100
,
0001
0000
0000
0000
,
1001
0000
1000
0000
,
0001
0000
0020
0030
,
0110
0000
0100
0000
,
1000
1000
0001
0100
,
1001
0000
0001
0000
,
1000
1000
0010
0100
,
0001
0000
0000
0000
,
0020
0000
0030
0001
,
1000
0010
1010
0010
,
0100
0100
0010
1000
,
0000
0001
1000
0100
,
0010
0100
1000
0001
,
0010
0001
0011
0001
,
1000
1000
0001
0001
,
0100
0010
1000
0000
,
0002
1003
2000
3001
,
1001
0000
0000
0000
;

//---------------dance-single - ----------------
#NOTEDATA:;
#CHARTNAME:;
#STEPSTYPE:dance-single;
#DESCRIPTION:;
#CHARTSTYLE:;
#DIFFICULTY:Challenge;
#METER:11;
#RADARVALUES:0.776143,0.832775,0.620303,0.413535,0.741512,617.000000,87.000000,58.000000,0.000000,0.000000,0.000000,0.000000,0.000000,0.776143,0.832775,0.620303,0.413535,0.741512,617.000000,87.000000,58.000000,0.000000,0.000000,0.000000,0.000000,0.000000;
#CREDIT:;
#NOTES:
// measure 0
0000
0000
0000
0000
,  // measure 1
0000
0000
0000
0000
,  // measure 2
0000
0000
0000
0000
,  // measure 3
0000
0000
0000
0000
,  // measure 4
0000
0000
0000
0000
0000
0000
0000
0000
0000
0000
0000
0000
0000
0000
0000
0000
0000
0000
2000
0000
0000
0002
0000
3003
,  // measure 5
0201
0000
0000
0301
0000
0000
1000
0000
2100
0000
0000
3100
0000
0000
0010
0000
,  // measure 6
0012
0000
0000
0013
0000
0000
0100
0000
2002
0000
0000
0000
0000
0000
3003
0000
,  // measure 7
0102
0000
0000
0103
0000
0000
0010
0000
1020
0000
0000
1030
0000
0000
0100
0000
,  // measure 8
1000
0000
0100
0010
0000
0000
0010
0001
1000
0000
0000
0000
1010
0000
0000
0000
,  // measure 9
0102
0000
0000
0013
0000
0000
0001
0000
2100
0000
0000
3010
0000
0000
1010
0000
,  // measure 10
0010
0100
0010
1000
0001
0010
0001
1000
,  // measure 11
0100
0000
0010
0001
1000
0000
0010
1000
0001
0000
1000
0100
0000
0010
0001
0000
,  // measure 12
0100
0000
0010
1000
0000
0100
0001
0000
1000
0000
0001
0010
0000
0100
1000
0000
,  // measure 13
1001
0000
0010
0100
0000
0000
0010
0000
0000
1000
0000
0000
0100
0000
0000
0010
0000
0000
0001
0000
0001
0100
0000
0100
,  // measure 14
0010
0000
1000
0001
0000
0000
0010
0000
0000
0100
0000
0000
1000
0000
0000
0001
0000
0000
1000
0000
0001
0100
0000
0100
,  // measure 15
0010
0000
0010
1000
0000
0000
0010
0000
0000
0001
0000
0000
0010
0000
0000
0100
0000
0000
0001
0000
0010
0100
0000
0100
,  // measure 16
1000
0000
0001
1000
0001
0000
1000
0000
0001
0100
0001
0000
0100
0000
0010
0000
,  // measure 17
1020
0000
0000
0130
0000
0000
0010
0000
1000
0000
0001
0000
0020
0000
0000
0130
0000
0000
0010
0000
0001
0000
1000
0000
,  // measure 18
0001
0000
0000
0000
1000
0000
0100
0000
0000
0000
0100
0000
0010
0000
0000
0100
0000
0000
0010
0000
0000
0100
0000
0000
1000
0000
0000
0001
0000
0000
2000
0000
0000
0000
0000
0000
3001
0000
0000
0000
0000
0000
0000
0000
0000
0000
0000
0000
,  // measure 19
0001
0000
0000
0000
1000
0000
0010
0000
0000
0000
0010
0000
0100
0000
0000
0000
0100
0000
0001
0000
0000
0000
0001
0000
1000
0000
0000
0000
1000
0000
0001
0000
0000
0000
0001
0000
0010
0000
0000
0100
0000
0000
1000
0000
0000
0001
0000
0000
,  // measure 20
2000
0000
0000
0000
3000
0000
0001
1000
0100
0010
0001
1000
0001
0000
1001
0000
,  // measure 21
0000
0000
0001
0100
1000
0100
0010
1000
0001
0000
0010
0110
0000
0110
0000
0010
,  // measure 22
0001
0000
0100
0010
1000
0001
0010
0100
1000
0000
1000
1001
0000
0110
0000
2002
,  // measure 23
0000
0000
3003
0000
0001
0000
0100
0000
2010
0000
0000
3010
0200
0000
0301
0000
,  // measure 24
1000
0000
0000
0000
0001
0000
1000
0000
0000
0010
0000
0000
1000
0000
0000
0001
0000
0000
0010
0000
0000
0000
0000
0000
0100
0000
0000
0010
0000
0000
0001
0000
0010
0000
0001
0000
1000
0000
0000
0000
1000
0000
0000
0000
0000
1000
0000
0000
,  // measure 25
0000
0000
0000
0000
0001
0000
0010
0100
1000
0000
0100
0010
0001
0000
0010
0100
,  // measure 26
1000
0000
0000
0000
0001
0000
0000
0000
0110
0000
0000
0000
0000
0000
0000
0000
0000
0000
0010
0000
0000
0100
0000
0000
0001
0000
0000
0000
0000
0000
1000
0000
0000
0100
0000
0000
0010
0000
0000
0000
0000
0000
0010
0000
0000
0100
0000
0000
,  // measure 27
0010
0000
0000
0000
0100
0000
0000
0000
1001
0000
0000
0000
0000
0000
0000
0000
0000
0000
1000
0000
0000
0010
0000
0000
0100
0000
0000
0000
0000
0000
0010
0000
0000
0001
0000
0000
1000
0000
0000
0000
0000
0000
0100
0000
0000
0010
0000
0000
,  // measure 28
1000
0000
0000
0000
0001
0000
0000
0000
0000
0010
0000
0000
0000
0000
0000
0000
0000
0000
0100
0000
0000
1000
0000
0000
0001
0000
0000
0000
0000
0000
1000
0000
0000
0000
0000
0000
2002
0000
0000
0000
0000
0000
0000
0000
0000
0000
0000
0000
,  // measure 29
3003
0000
0000
0000
0000
0001
0100
0000
0100
0010
0000
0010
1000
0000
1000
0001
0000
0001
0010
0000
0010
0100
0000
0100
,  // measure 30
1000
0000
0000
0000
0000
0000
0000
0000
0000
0000
0000
0000
0000
0000
0000
0000
1000
0000
0000
0000
0000
0000
0000
0000
0100
0000
0000
0000
0000
0000
0000
0000
0000
0000
0000
0000
0000
0000
0000
0000
0100
0000
0000
0000
0000
0000
0000
0000
0010
0000
0000
0000
0000
0000
0000
0000
0000
0000
0000
0000
0001
0000
0000
0000
0000
0000
0000
0000
0000
0000
0000
0000
1000
0000
0000
0000
0000
0000
0000
0000
0000
0000
0000
0000
0010
0000
0000
0000
0000
0000
0000
0000
0000
0000
0000
0000
0100
0000
0000
0000
0000
0000
0000
0000
0000
0000
0000
0000
0000
0000
0000
0000
0001
0000
0000
0000
0000
0000
0000
0000
0010
0000
0000
0000
0000
0000
0000
0000
0000
0000
0000
0000
0100
0000
0000
0000
0000
0000
0000
0000
0000
0000
0000
0000
1000
0000
0000
0000
0000
0000
0001
0000
0000
0000
0000
0000
0000
0000
0000
0000
1000
0000
0000
0000
0000
0000
0000
0000
0100
0000
0000
0000
0000
0000
0000
0000
0000
0000
0000
0000
0000
0000
0000
0000
0000
0000
0000
0000
0000
0000
0000
0000
,  // measure 31
0000
0000
0010
0000
2002
0000
3003
0000
0101
0000
0010
2000
0000
0000
3100
0000
,  // measure 32
1001
0000
0000
0000
0000
0000
0001
0010
,  // measure 33
0110
0000
1001
0000
0110
0000
0100
0010
,  // measure 34
1010
1010
0010
0100
0101
0011
0101
1001
,  // measure 35
0000
0000
0000
0000
0001
0000
1000
0100
0000
0000
1000
0000
0010
0000
0100
0000
,  // measure 36
0001
0100
1000
0010
0000
0000
0001
1000
,  // measure 37
1100
0000
0101
0000
1001
0000
0001
0010
,  // measure 38
1001
1001
0010
0100
1001
1001
0110
1001
,  // measure 39
1001
0000
0000
0000
0001
0000
0100
0000
0010
0000
0000
0000
0100
0000
0001
0000
1000
0000
0000
0000
1000
0000
0100
0000
0000
0000
0010
0000
0001
0000
0000
1000
,  // measure 40
0002
0000
0000
0100
0000
0000
1000
0000
2003
0000
0000
0100
0000
0000
3001
0000
,  // measure 41
1001
0000
0000
0000
0000
0000
0001
0000
0000
0000
1000
0000
0001
0000
0000
0000
0001
0000
0100
0000
0000
0000
0100
0000
0010
0000
0000
0000
0010
0000
1000
0000
0000
0000
0000
0000
0001
0000
0000
0010
0000
0000
0100
0000
0000
1000
0000
0000
,  // measure 42
1001
0000
0000
0000
0000
0000
1000
0000
0000
0000
0001
0000
1000
0000
0000
0000
1000
0000
0010
0000
0000
0000
0010
0000
0100
0000
0000
0000
0100
0000
0001
0000
0000
0000
0000
0000
1000
0000
0000
0100
0000
0000
0010
0000
0000
0001
0000
0000
,  // measure 43
0011
0000
0000
0001
0000
1000
0010
0000
0010
0100
0000
0100
0010
0000
1000
0001
0000
0000
1000
0000
0000
1000
0000
0000
,  // measure 44
1002
0000
0000
0000
0003
0000
0200
0000
0320
0000
0000
0000
2000
0000
0000
0000
3030
0000
1000
0000
0000
0001
0000
0010
0000
0200
0000
0000
0000
0000
0300
0000
,  // measure 45
0100
0000
0100
0000
0010
0000
0100
0010
0000
0100
0010
0000
0002
0000
0003
0000
,  // measure 46
1000
0000
1000
0000
0010
0000
1000
0010
0000
1000
0020
0000
0200
0000
0330
0000
,  // measure 47
0100
0000
0100
0000
0010
0000
0100
0010
0000
0100
0010
0000
2000
0000
3002
0000
,  // measure 48
1003
0000
1000
0100
0000
0100
0010
0000
0010
0001
0000
1000
0100
0000
0010
0001
0000
0001
0100
0000
0010
1000
0000
1000
,  // measure 49
0002
0000
0000
0000
0103
0000
0000
0000
0200
0000
0000
0000
0320
0000
0000
0000
2030
0000
0000
0000
3000
0000
0000
0000
1001
0000
0000
0000
0000
0000
1000
0000
0000
0100
0000
0000
0010
0000
0000
0001
0000
0000
1000
0000
0000
0000
0000
0000
,  // measure 50
0010
1000
0001
0000
0100
0000
0010
0000
0110
0000
0000
1010
0000
0000
1100
0000
,  // measure 51
1002
0000
0000
0000
0000
0000
0000
0000
0000
0103
0000
0000
0001
0000
1000
0000
0001
0000
1000
0000
0000
0001
0000
0000
1000
0000
0000
0000
0100
0000
0000
0000
0010
0000
0000
0000
0001
0000
0000
0010
0000
0000
0100
0000
0000
1000
0000
0000
,  // measure 52
0001
0000
1000
0010
0000
0100
0001
0000
0000
0000
0000
0000
0011
0000
0000
1001
0000
1000
0001
0000
0001
1000
0000
0000
,  // measure 53
0210
0000
0000
0000
0000
0000
0000
0000
0000
0010
0300
0000
2000
0000
0000
0000
0000
0000
3002
0000
0000
0000
0000
0000
0103
0000
0000
0000
0000
0000
0010
0000
0000
1000
0000
0000
1002
0000
0000
0000
0000
0000
0000
0000
0000
0103
0000
0000
,  // measure 54
0000
0000
0010
1000
0100
0000
0010
0000
0001
0010
1000
0010
0001
0010
1000
0010
,  // measure 55
0001
0000
0000
1000
0000
0000
0100
0000
0000
1000
0000
0000
0001
0000
0000
0100
0000
0000
0001
0000
0000
1000
0000
0000
0100
0000
0010
0000
0001
0000
1000
0000
0000
0010
0000
0000
1000
0000
0000
0001
0000
0000
0010
0000
0000
0100
0000
0000
,  // measure 56
0000
0000
0000
0000
0000
0000
0000
0000
2000
0000
0000
0001
0002
0000
3003
0000
,  // measure 57
1020
0000
0000
1030
0000
0000
0001
0000
0012
0000
0000
0013
0000
0000
0100
0000
,  // measure 58
2100
0000
0000
3100
0000
0000
0010
0000
2002
0000
0000
0000
0000
0000
3003
0000
,  // measure 59
2010
0000
0000
3010
0000
0000
0100
0000
0201
0000
0000
0301
0000
0000
0010
0000
,  // measure 60
0001
0000
0010
0100
0000
0000
0100
1000
0001
0000
0000
0000
0101
0000
0000
0000
,  // measure 61
2010
0000
0000
3100
0000
0000
1000
0000
0012
0000
0000
0103
0000
0000
0101
0000
,  // measure 62
0100
0010
0100
0001
1000
0100
1000
0001
,  // measure 63
0010
0000
0100
1000
0001
0000
0100
0001
1000
0000
0001
0010
0000
0100
1000
0000
,  // measure 64
0001
0000
0001
0000
0010
0000
0100
0000
0100
0000
1000
0000
0010
0000
0010
0000
0100
0000
1000
0000
0000
0100
0000
0000
,  // measure 65
0110
0000
1001
0000
0110
0000
0010
0100
,  // measure 66
0101
0101
0100
0010
1010
1100
1010
1001
,  // measure 67
0000
0000
0000
0000
1000
0000
0001
0010
0000
0000
0001
0000
0100
0000
0010
0000
,  // measure 68
1000
0010
0001
0100
0000
0000
1000
0001
,  // measure 69
0011
0000
1010
0000
1001
0000
1000
0100
,  // measure 70
1001
1001
0100
0010
1001
1001
0110
1001
,  // measure 71
1001
0000
0000
0000
1000
0000
0010
0000
0100
0000
0000
0000
0010
0000
1000
0000
0001
0000
0000
0000
0001
0000
0010
0000
0000
0000
0100
0000
1000
0000
0000
0001
,  // measure 72
2000
0000
0000
0010
0000
0000
0001
0000
3002
0000
0000
0010
0000
0000
1003
0000
,  // measure 73
1001
0000
0000
0000
;

//---------------dance-single - ----------------
#NOTEDATA:;
#CHARTNAME:;
#STEPSTYPE:dance-single;
#DESCRIPTION:;
#CHARTSTYLE:;
#DIFFICULTY:Beginner;
#METER:1;
#RADARVALUES:0.124264,0.156145,0.049909,0.014260,0.000000,113.000000,7.000000,2.000000,0.000000,0.000000,0.000000,0.000000,0.000000,0.124264,0.156145,0.049909,0.014260,0.000000,113.000000,7.000000,2.000000,0.000000,0.000000,0.000000,0.000000,0.000000;
#CREDIT:;
#NOTES:
0000
0000
0000
0000
,
0000
0000
0000
0000
,
0000
0000
0000
0000
,
0000
0000
0000
0000
,
0000
0000
0000
0000
,
0010
0000
0100
0000
,
0010
0000
1000
0000
,
1001
0000
0000
0000
,
0001
0000
1000
0000
,
0100
0000
0000
0000
,
1000
0000
0001
0000
,
0100
0000
0000
0000
,
0010
0000
0100
0000
,
1001
0000
0000
0000
,
1000
0000
0000
0000
,
1000
0000
0000
0000
,
1000
0000
0000
0000
,
0001
0000
0001
0000
,
0100
0000
0010
0000
,
0100
0000
0000
0010
,
0010
0000
1000
1000
,
1000
0000
0000
0000
,
0001
0000
0100
0000
,
0001
0000
0000
0000
,
0010
0000
0001
0000
,
1000
0000
0000
0000
,
0001
0001
0000
0000
,
1000
1000
0000
0000
,
0010
0000
0100
0000
,
0010
0000
0000
0000
,
1000
0000
0000
0000
,
0001
0000
1000
0000
,
0010
0000
0000
0000
,
0001
0001
0001
0000
,
1000
0000
1000
0000
,
0010
0000
0000
0000
,
0100
0000
0000
0000
,
0010
0010
0010
0000
,
1000
0000
1000
1000
,
1000
0000
0001
0000
,
0200
0000
0000
0000
,
0300
0000
0000
0000
,
0010
0000
0000
0000
,
0010
0000
0000
0000
,
0010
0000
0000
0000
,
1000
0000
0000
0000
,
0100
0000
0000
0000
,
0010
0000
0000
0000
,
0001
0000
0000
0000
,
1001
0000
0001
0000
,
1000
0000
0100
0100
,
0100
0000
0100
0000
,
1000
0000
0010
0010
,
0110
0000
0100
0000
,
0001
0000
1000
0000
,
0001
0000
1000
0000
,
0010
0000
0000
0000
,
0100
0000
0100
0000
,
0100
0000
0100
0000
,
0001
0000
0001
0000
,
1000
1000
1000
0000
,
0010
0000
0000
0000
,
0010
0000
0100
0000
,
0001
0000
0000
0000
,
1001
0000
0000
0000
,
1000
0001
1001
0000
,
1000
0000
0000
0000
,
0100
0000
0000
0000
,
1000
0000
0000
0000
,
0010
0100
0110
0000
,
0100
0000
0100
0100
,
0100
0000
0001
0000
,
0020
0000
0000
0000
,
0030
0000
0000
0000
;
