#TITLE:FAKE STYLE II;
#SUBTITLE:;
#ARTIST:FAKE TYPE.;
#TITLETRANSLIT:;
#SUBTITLETRANSLIT:;
#ARTISTTRANSLIT:;
#GENRE:;
#CREDIT:;
#BANNER:FAKE STYLE II.png;
#BACKGROUND:FAKE STYLE II-bg.png;
#LYRICSPATH:;
#CDTITLE:;
#MUSIC:FAKE STYLE II.mp3;
#OFFSET:0.912000;
#SAMPLESTART:102.712013;
#SAMPLELENGTH:13.440002;
#SELECTABLE:YES;
#BPMS:0.000000=125.010010
;
#STOPS:
;
#BGCHANGES:2.000=fs2[1].avi=1.000=0=0=1=====,
99999=-nosongbg-=1.000=0=0=0 // don't automatically add -songbackground-
;
#KEYSOUNDS:;
#ATTACKS:;

//---------------dance-single - ----------------
#NOTES:
     dance-single:
     :
     Hard:
     9:
     0.518753,0.575427,0.264482,0.243038,0.439612,508.000000,471.000000,37.000000,34.000000,0.000000,0.000000,0.518753,0.575427,0.264482,0.243038,0.439612,508.000000,471.000000,37.000000,34.000000,0.000000,0.000000:
0000
0000
0000
0000
,
0000
0000
0000
0000
,
0000
0000
0000
0000
,
0000
0000
0000
0000
,
0000
0000
0000
0000
,
1001
0000
0000
0000
1010
0000
1000
0001
0100
0000
0010
0000
1000
0000
0100
0000
,
0010
0000
0001
0000
0100
0000
0010
0000
0000
1000
0000
0000
0001
0000
0000
1000
0000
0000
0001
0000
0000
0100
0000
0000
,
0020
0000
0000
0000
0130
0000
0010
0000
1000
0000
0001
0000
0010
0000
0100
1000
,
0002
0020
0000
0033
,
0100
1000
0000
0000
0000
0000
0001
0010
0000
0000
0000
0000
0000
0000
0000
0000
,
0001
0100
0000
0000
0000
0000
0010
1000
0000
0000
0000
0000
0000
0000
0000
0000
,
1000
0001
0000
0000
0000
0000
0001
1000
0000
0000
0000
0000
0000
0000
0001
0000
,
0010
0000
0000
1100
0000
0010
1001
0000
,
1000
0000
0100
1000
0000
1000
0001
0000
0010
0000
0010
0100
0000
1000
0001
0000
,
0010
0100
1000
0001
0000
1000
0010
0001
,
0010
0100
0001
1000
0100
1000
0010
0100
,
0001
0000
0000
0000
0000
0000
1000
0000
0000
0000
0000
0000
0010
0000
0000
0100
0000
0000
0001
0000
0000
0000
0000
0000
0100
0000
0000
0000
0001
0000
0000
0000
1000
0000
0000
0000
0020
0000
0000
0000
0000
0000
0000
0000
0000
0000
0000
0000
,
1030
0100
1000
0010
1000
0001
0100
0001
,
0010
0100
0010
0100
1000
0001
1001
1001
,
1001
0000
0001
1000
0100
0001
0100
1000
,
0010
0000
0100
0000
0001
0010
0000
0100
1000
0000
0001
0000
0100
0010
0000
0000
,
1000
0000
0001
0010
0001
0000
0100
0000
0010
0000
1000
0000
1100
0000
0000
0000
,
0101
0000
0000
0000
0100
0000
0010
0100
0010
0000
1000
0000
0001
0010
0000
0000
,
0100
0000
1000
0010
1000
0000
0010
0000
0100
0000
0001
0000
1000
0001
1000
0000
,
0001
0010
0100
1000
0100
0020
0000
0000
,
0031
0010
0000
0010
0100
0000
0010
0001
1000
0000
0001
0100
0001
1000
0000
1000
,
0001
0010
0100
1000
0100
0000
1000
0010
,
0100
0000
0000
0000
0010
0000
0000
0000
1000
0000
0000
0000
0001
0000
0000
0000
0000
0000
1000
0000
0000
0001
0000
0000
0000
0000
0000
0001
0000
0000
1000
0000
0000
0000
0000
0000
0100
0000
0000
0000
0000
0000
0100
0000
0000
0010
0000
0000
,
0001
1000
0000
0001
1000
0000
2000
0000
0002
0000
3000
0000
0003
0000
0000
0000
,
0001
0100
1000
0010
1001
0010
1001
0000
,
1020
0000
0000
0000
0130
0000
0010
0000
1000
0000
0001
0010
0000
0000
0001
0000
,
0100
0001
0101
0100
0010
1000
1100
1000
,
0001
0000
0000
0000
0100
0000
0010
0000
1000
0001
0010
0001
1000
0000
0001
0000
,
0102
0000
0000
0013
0000
0100
1000
0000
,
1002
0000
0000
0103
0000
0000
0001
0000
2100
0000
0000
3010
0000
0000
0000
0000
,
0100
0000
0010
0000
1000
0010
0000
0100
0000
0000
0010
0000
1000
0001
0000
0100
,
0000
0000
0001
0000
0010
0100
0000
1000
0000
0000
0010
0000
1000
0010
0000
0010
,
1000
0001
1000
0000
0001
0000
1000
0001
1000
0000
0001
0100
0000
0001
0100
0000
,
0001
1000
0001
0000
1000
0000
0001
1000
0001
0000
1000
0100
0000
1000
0100
0000
,
1000
0001
1000
0000
0001
0000
1000
0001
1000
0000
0001
0100
0000
0010
1000
0000
,
0001
0010
0001
1000
0010
0100
0001
0000
,
1000
0100
0010
0100
,
1000
0100
0010
0001
,
1000
0000
0001
0010
0110
0000
0011
0000
,
2002
0000
3003
0000
,
0021
0000
0000
0130
0000
0000
1000
0000
1200
0000
0000
0310
0000
0000
0010
0000
,
0001
0000
1000
0001
0100
0000
0001
0000
2000
0000
3200
0000
0320
0000
0032
0000
,
2000
0000
0000
0000
3003
0000
1000
0000
1010
0000
0000
1010
0000
0000
1100
0000
,
1000
0000
0000
0001
0000
0000
0010
0000
0001
0000
0010
0000
0001
0000
1000
0000
,
1200
0310
0021
0130
,
1100
0000
0000
1000
0010
0000
0000
0100
0002
0000
0023
0000
0230
0000
2300
0001
,
3200
0000
0000
0000
0000
0000
0000
0000
0000
0310
0000
0000
0000
0000
0000
0000
0000
0000
0000
0000
0000
0000
0000
0000
0100
0000
0000
0000
0010
0000
0000
0000
1000
0000
0000
0000
0001
0000
0000
0000
1000
0000
0000
0000
0100
0000
0000
0000
,
0010
0000
0001
0010
0100
0000
1000
0000
0100
0000
0010
0000
0020
0000
0000
0000
,
0030
0000
0000
0000
,
1000
0100
0001
0010
1001
0100
1001
0000
,
0102
0000
0000
0000
0013
0000
0001
0000
1000
0000
0100
0010
0000
0000
0100
0000
,
1000
0010
1010
0010
0100
0001
0011
0001
,
1000
0000
0000
0000
0010
0000
0100
0000
0001
1000
0100
1000
0001
0000
1000
0000
,
2010
0000
0000
3100
0000
0010
0001
0000
,
2001
0000
0000
3010
0000
0000
1000
0000
0012
0000
0000
0103
0000
0000
0000
0000
,
0010
0000
0100
0000
0001
0010
0000
0100
0000
0000
1000
0000
0100
0010
0000
0100
,
0000
0000
0010
0000
0001
0100
0000
0010
0000
0000
0100
0000
0010
1000
0000
0001
,
1000
0100
1000
0000
0100
0000
0010
0001
0000
0100
0000
0010
0000
1000
0000
0001
,
1000
0100
0000
1000
0010
0000
0100
0001
0010
0000
0100
0000
0100
0000
0000
0000
,
0010
0001
0000
0001
0010
0000
0010
0100
0000
1000
0000
0010
0000
0200
0000
0000
,
0000
0000
0000
0301
1000
0000
0100
0000
0010
0000
0001
0000
1000
0000
0000
0000
,
0001
0100
0000
0010
1000
0000
1000
0100
0000
0001
0000
0100
0000
1000
0000
0010
,
1000
0100
0000
0010
0001
0000
0001
0100
0010
0000
1000
0000
1000
0000
0000
0000
,
0001
0100
0000
0100
0010
0000
0010
1000
0000
0100
0000
0001
0000
0200
0000
0000
,
0000
0000
0000
0310
0001
0000
0010
0000
0100
0000
1000
0000
0001
0000
0000
0000
,
1001
0000
0000
0000
;

//---------------dance-single - ----------------
#NOTES:
     dance-single:
     :
     Easy:
     4:
     0.238953,0.325242,0.221593,0.135815,0.000000,234.000000,203.000000,31.000000,19.000000,0.000000,0.000000,0.238953,0.325242,0.221593,0.135815,0.000000,234.000000,203.000000,31.000000,19.000000,0.000000,0.000000:
0000
0000
0000
0000
,
0000
0000
0000
0000
,
0000
0000
0000
0000
,
0000
0000
0000
0000
,
0000
0000
0000
0000
,
1000
0000
0001
0000
,
1000
0000
0001
0000
,
0100
0000
0010
0000
,
0100
0020
0000
0030
,
1001
0000
0000
0000
,
0110
0000
0000
0000
,
1001
0000
0000
0000
,
0110
0000
0100
0000
,
0010
0000
1000
0000
,
0001
0100
0001
1000
,
0100
1000
0010
0100
,
0001
1000
0001
0001
,
0100
0010
1000
0100
,
1000
0000
0010
0000
0100
0000
0001
1000
,
0001
1000
0100
1000
,
0010
1010
1000
1100
,
0100
0010
0001
1001
,
1001
0001
0100
0010
,
0100
0001
1000
0001
,
0010
0001
1000
0000
,
0100
1000
0010
0100
,
0001
0010
0001
1000
,
0001
0100
1000
0100
,
0001
1000
0001
0000
,
0001
1000
1001
0110
,
0200
0300
0010
0000
,
0100
0010
1000
0001
,
1001
0000
1000
0000
,
0001
0000
1000
0000
,
0002
0103
0200
0310
,
0100
0010
1000
0001
,
0010
0001
1000
0100
,
1001
1000
1000
1000
,
1001
1000
1000
1000
,
1001
0001
0001
0001
,
1001
0001
0001
0001
,
2000
0000
3200
0000
,
0320
0000
0032
0000
,
1003
0100
0010
0001
,
2002
0000
3003
0000
,
1001
0000
0110
0000
,
1001
1000
0002
2003
,
0200
3300
1100
0000
,
0011
0000
0010
0001
,
2000
3100
0020
0031
,
0010
0100
1000
1000
,
0001
0000
1000
0001
,
0100
0000
0010
0000
1000
0001
2000
0000
,
3000
0000
0000
0000
,
0001
0100
0101
1100
,
0020
0000
0130
0000
,
0010
0001
0010
0100
,
1001
1000
0001
0001
,
1000
0010
0100
0001
,
0020
0031
0200
1300
,
1000
0100
0010
0001
,
0010
0001
0100
0010
,
1001
0000
1000
0000
,
0101
0000
0001
0000
,
0011
0000
0010
0000
,
0100
1000
0100
0000
,
1100
0000
1000
0000
,
1010
0000
0010
0100
,
0101
0000
0001
0000
,
1000
0001
0100
0010
,
1001
0000
0000
0000
;

//---------------dance-single - ----------------
#NOTES:
     dance-single:
     :
     Medium:
     6:
     0.345154,0.379300,0.121519,0.142963,0.007148,338.000000,321.000000,17.000000,20.000000,0.000000,0.000000,0.345154,0.379300,0.121519,0.142963,0.007148,338.000000,321.000000,17.000000,20.000000,0.000000,0.000000:
0000
0000
0000
0000
,
0000
0000
0000
0000
,
0000
0000
0000
0000
,
0000
0000
0000
0000
,
0000
0000
0000
0000
,
1000
0000
0010
0000
0100
0001
0010
0000
,
0100
0000
0010
0000
0001
0010
1000
0000
,
0010
0000
0100
0000
1000
0010
0100
0000
,
0010
0000
0100
0000
0001
0010
1000
0000
,
0110
0000
0000
0010
0000
0000
0000
0000
,
1001
0000
0000
1000
0000
0000
0000
0000
,
0101
0000
0000
0010
0000
0000
0000
1000
,
0001
0000
0000
0010
0000
0100
1000
0000
,
0001
0100
0010
1000
,
0010
0100
0001
1000
0001
0010
0100
1000
,
0001
0010
0001
0100
,
0010
1000
0010
0000
0100
0001
0100
0000
,
0001
1000
0100
0001
,
0100
0010
0001
0000
0010
0001
1000
0000
,
0010
0000
0100
0000
0001
0100
0010
0000
,
1000
0000
0001
0000
0100
0010
1000
0000
,
0001
0000
1000
0000
0100
1000
0010
0000
,
0110
0000
0100
0000
0010
0100
0001
0000
,
0011
0000
0010
0000
0100
1000
0010
0000
,
0100
0101
0001
1001
,
1000
0000
0100
0000
0010
0001
0010
0100
,
1000
0000
0001
0000
1000
0000
0001
1000
,
0010
1000
0010
1000
,
0100
0010
0001
0100
0010
0000
0000
0000
,
1000
0010
0001
0010
1000
0001
1000
0000
,
0000
0000
0000
0000
0001
0000
0010
0000
0100
0000
0000
1000
0000
0000
0001
0000
,
0100
0001
1000
0001
0100
0010
1000
0100
,
0010
0001
1000
0010
,
1002
0000
0000
0103
0000
0100
0010
0000
,
2000
3100
2000
3001
,
1000
0001
0100
0000
0010
0100
0001
0000
,
1000
0001
0010
0001
,
1001
0000
0100
0000
0010
0100
0010
0000
,
1001
0000
0010
0000
0100
0010
0100
0000
,
1001
0000
0001
0000
1000
0001
1000
0000
,
0001
0010
0100
1000
,
0001
0010
0001
0000
0010
0100
0010
0000
,
0100
1000
0100
0000
1000
0010
1000
0000
,
0010
0100
0010
0000
0110
0000
1001
0000
,
2002
0000
0000
3003
,
2001
3010
1002
0013
,
1000
0000
0010
0000
0100
0010
1000
0001
,
2000
3001
0002
0013
,
0001
0000
0100
0000
0010
1000
0010
0000
,
2000
3001
0002
0013
,
0001
0100
0010
0000
0100
0010
1000
0000
,
0002
1003
2000
3010
,
1000
0010
0100
0001
0010
1000
0020
0000
,
0030
0000
0000
0000
0002
0000
2000
3003
,
0001
0100
1000
0100
0001
1000
0001
0000
,
0000
0000
0000
0000
1000
0000
0100
0000
0010
0000
0000
0001
0000
0000
1000
0000
,
0010
1000
0001
1000
0010
0100
0001
0010
,
0100
1000
0001
0100
,
2001
0000
0000
3010
0000
0100
0001
0000
,
0020
0130
2000
3001
,
0010
0100
1000
0000
0001
1000
0100
0000
,
0010
0000
0100
0000
1000
0000
0010
1000
,
0001
0000
1000
0000
0010
1000
0010
0000
,
0100
0000
0001
0000
0010
0001
0001
0000
,
0010
0000
0100
0000
1000
0100
1000
0000
,
0010
0000
0100
0010
1000
0001
0010
0100
,
1000
0000
0100
0000
0010
0001
0100
0000
,
0010
0000
1000
0000
0010
0100
0100
0000
,
0010
0000
1000
0000
0001
0010
0001
1000
,
0000
0000
0001
0010
0100
1000
0100
0010
,
0200
0000
0000
0300
;

//---------------dance-single - ----------------
#NOTES:
     dance-single:
     :
     Beginner:
     2:
     0.131731,0.225167,0.114371,0.007148,0.000000,129.000000,113.000000,16.000000,1.000000,0.000000,0.000000,0.131731,0.225167,0.114371,0.007148,0.000000,129.000000,113.000000,16.000000,1.000000,0.000000,0.000000:
0000
0000
0000
0000
,
0000
0000
0000
0000
,
0000
0000
0000
0000
,
0000
0000
0000
0000
,
0000
0000
0000
0000
,
1000
0000
0000
0000
,
0001
0000
0000
0000
,
0100
0000
0000
0000
,
0010
0000
0000
0000
,
1001
0000
0000
0000
,
1001
0000
0000
0000
,
1001
0000
0000
0000
,
1001
0000
0010
0000
,
0100
0000
0100
0000
,
0001
0000
0000
0000
,
1000
0000
1000
0000
,
0001
0000
1000
1000
,
0001
0000
0000
0100
,
0010
0000
0000
0100
,
0100
0000
0010
0000
,
1000
1000
0001
0001
,
1000
0000
0000
0001
,
0001
0000
0100
0000
,
0010
0000
0000
0100
,
0100
0000
0010
0000
,
1000
0000
1000
0000
,
0001
0000
0000
0001
,
0001
0000
0100
0000
,
0010
0010
0010
0000
,
1001
0000
0010
0000
,
1001
0000
0000
0000
,
1000
0000
0001
0000
,
0100
0000
0010
0010
,
0100
0000
0000
0000
,
0010
0000
1000
0000
,
0001
0000
1000
0000
,
0010
0000
0100
0000
,
0010
0000
0000
0000
,
0010
0000
0000
0000
,
0010
0000
0000
0000
,
0010
0000
0100
0000
,
0002
0000
0000
0000
,
0000
0000
0000
0000
,
0000
0000
0000
0000
,
0000
0000
0003
0000
,
1001
0000
0110
0000
,
0100
0000
0001
0001
,
1001
0000
1000
0000
,
0010
0000
0100
0000
,
1001
0000
0110
0000
,
0010
0100
0001
0001
,
1000
0000
0010
0000
,
0100
0000
0010
1001
,
0000
0000
0000
0000
,
1000
0001
1001
1001
,
0000
0010
0000
0100
,
0010
0000
0100
0000
,
1001
0000
0001
0001
,
1000
0000
0000
0010
,
0010
0000
0100
0000
,
0001
0000
1000
0000
,
0010
0000
0100
0000
,
0001
0000
0000
0000
,
1000
0000
0000
0000
,
0010
0000
0000
0000
,
0100
0000
0000
0000
,
0001
0000
0000
0000
,
1000
0000
0000
0000
,
0010
0000
0000
0000
,
0100
0000
0000
0000
,
1001
0000
0000
0000
;

//---------------dance-single - ----------------
#NOTES:
     dance-single:
     :
     Challenge:
     11:
     0.690309,0.825613,0.371705,0.335964,0.861354,676.000000,624.000000,52.000000,47.000000,0.000000,0.000000,0.690309,0.825613,0.371705,0.335964,0.861354,676.000000,624.000000,52.000000,47.000000,0.000000,0.000000:
// measure 0
0000
0000
0000
0000
,  // measure 1
0000
0000
0000
0000
,  // measure 2
0000
0000
0000
0000
,  // measure 3
0000
0000
0000
0000
,  // measure 4
0000
0000
0000
0000
,  // measure 5
1001
0000
0000
0000
0000
0000
0000
0000
0000
0000
0000
0000
1000
0000
0000
0000
0001
0000
0100
0000
0000
0001
0000
0000
1000
0000
0000
0100
0000
0000
0010
0000
0000
0100
0000
0000
1000
0000
0000
0001
0000
0000
0100
0000
0000
0000
0000
0000
,  // measure 6
0010
0000
0000
1000
0000
0000
0001
0000
0000
0010
0000
0000
0100
0000
0000
0000
1000
0000
0000
0000
0001
0000
0000
0000
0000
0000
0000
1002
0000
0000
0000
0000
0000
0000
0000
0000
1003
0000
0000
0000
0000
0000
0010
0000
0000
0000
0000
0000
,  // measure 7
0101
0000
0000
0000
0000
0000
0000
0000
0000
0000
0000
0000
0001
0000
0000
0000
1000
0000
0010
0000
0000
0000
0010
0000
0100
0000
0000
0000
0100
0000
0001
0000
0000
0000
0001
0000
0010
0000
0000
0000
0100
0000
1000
0000
0000
0010
0000
0000
,  // measure 8
0100
2002
0000
3003
,  // measure 9
1000
0000
0001
0100
0000
0010
0000
0000
0100
0001
0000
0001
0010
0000
0010
0100
0000
0100
1000
0000
0000
0001
0000
0000
,  // measure 10
1000
0000
0000
0000
0001
0000
1000
0000
0000
0000
0010
0000
0000
0000
0000
0000
0100
0000
0001
0000
0000
0000
0001
0000
1000
0000
0000
0000
0000
0000
0100
0000
0000
1000
0000
0000
0000
0000
0000
0000
0000
0000
0000
0000
0000
0000
0000
0000
,  // measure 11
0100
0000
0000
0000
0010
0000
0001
0000
0000
0000
0000
0000
1000
0000
0000
0000
0001
0000
0100
0000
0000
0000
0100
0000
0010
0000
0000
0000
0100
0000
0001
0000
0000
0000
0001
0000
1000
0000
0000
0001
0000
0000
0100
0000
0000
0000
0000
0000
,  // measure 12
1001
0000
0010
1001
0000
0100
2002
3003
,  // measure 13
0001
1000
0100
0010
0000
0100
1000
0000
0001
0010
0100
0010
0000
0001
1000
0000
,  // measure 14
0001
0000
0100
0001
1000
0000
0010
0010
0000
0100
0001
1000
0001
0010
0001
1000
,  // measure 15
0001
0100
0010
1000
0100
1000
0001
0100
0010
0000
1000
0001
0100
0000
0001
0010
,  // measure 16
0100
0000
0000
0000
1000
0000
0000
0000
0100
0000
0000
0000
0010
0000
0000
0000
0100
0000
0000
0000
0000
0000
0000
0000
0010
0000
0000
0000
0001
0000
0100
0000
0000
0000
0000
0000
2002
0000
0000
0000
0000
0000
0000
0000
0000
3003
0000
0000
,  // measure 17
0101
0000
0000
0000
0000
0000
0001
0000
0000
0100
0000
0000
0010
0000
0000
0000
0000
0000
0100
0000
0000
0010
0000
0000
1000
0000
0000
0000
0000
0000
0001
0000
0000
1000
0001
0000
1000
0000
0000
0000
0000
0000
0100
0000
0000
0000
0000
0000
,  // measure 18
0010
0001
0100
0001
1000
0010
0100
0001
0010
0100
1000
0001
1001
0000
0110
0000
,  // measure 19
1001
0000
0000
0000
0001
1000
0010
1000
0001
0010
0100
1000
0001
0100
0001
0010
,  // measure 20
0100
0000
0000
0000
1000
0000
0100
0000
0000
0000
0000
0000
0010
0000
0000
0100
0000
0000
0000
0000
0000
0000
0010
0000
0001
0000
0000
0000
0001
0000
1000
0000
0000
0000
0000
0000
0010
0000
0000
0100
0000
0000
0000
0000
0000
0000
0000
0000
,  // measure 21
0001
0000
0000
1000
0010
0000
1000
0000
0010
1000
0000
0000
0100
0000
0000
0000
0000
0000
0010
0000
0000
0000
0000
0000
0001
0000
0000
0100
0000
0000
0010
0000
0000
0000
0000
0000
0101
0000
0000
0000
0000
0000
0000
0000
0000
0000
0000
0000
,  // measure 22
0101
0000
0000
0100
0010
0000
1000
0000
0001
1000
0100
1000
0001
1000
0000
0000
,  // measure 23
0010
0000
0000
0000
0000
0000
0100
0000
0001
0000
0100
0000
0001
0000
0000
0000
0000
0000
1001
0000
0000
0000
0000
0000
0101
0000
0000
0000
0000
0000
0011
0000
0000
0000
0000
0000
0010
0000
0000
0100
0000
0000
1000
0000
0000
0000
0000
0000
,  // measure 24
0100
0000
0010
0000
0001
0010
0001
1000
0020
0000
0200
0000
0000
0000
0330
0000
,  // measure 25
1000
0010
0000
0100
0001
0000
0001
1000
0001
0000
0001
0010
0001
0100
0000
0100
,  // measure 26
0010
1000
0001
0010
0100
0000
0100
0010
0001
0000
0000
0000
1000
0000
0001
0100
,  // measure 27
0010
0010
0000
0100
0100
0000
0001
0001
0000
1000
1000
0000
1001
0000
1000
0001
,  // measure 28
0100
0100
0000
0010
0010
0000
2000
0000
0002
0000
3000
0000
0003
0000
0000
0000
,  // measure 29
0001
0100
1000
0010
1001
0101
1001
0000
,  // measure 30
2010
0000
3020
0000
0130
0000
0001
0000
0010
0000
0100
1000
0000
1000
0001
0000
,  // measure 31
0100
0000
0000
0000
0001
0000
0010
0000
0000
0000
0000
0000
0100
0000
0000
1000
0000
0000
0001
0000
0000
0000
0000
0000
0100
0000
0000
0000
0010
0000
1000
0000
0000
0000
1000
0000
0001
0000
0000
0000
0001
0000
0010
0000
0000
0000
0000
0000
,  // measure 32
0110
0000
0000
0000
0100
0000
0010
0000
0001
0100
0001
1000
0100
0000
0010
0000
,  // measure 33
0021
0000
0000
0130
0000
1000
0010
0000
,  // measure 34
0201
0000
0000
1000
0000
0000
0301
0000
0020
0000
0000
1030
0000
0000
0000
0000
,  // measure 35
0010
0000
0001
0000
0100
0010
0000
1010
0000
0000
1000
0000
0001
0010
0000
1100
,  // measure 36
0000
0000
0010
0000
0001
0100
0000
1010
0000
0000
1000
0000
0001
1000
0000
1000
,  // measure 37
0001
0100
0010
0000
1000
0000
0100
0010
0001
0000
1000
1000
0000
0001
0001
0000
,  // measure 38
0100
0010
1000
0000
0100
0000
0010
0001
0100
0000
0010
0010
0000
1000
1000
0000
,  // measure 39
0001
0100
0010
0000
1000
0000
0001
0010
0100
0000
1000
1000
0000
0100
0100
0000
,  // measure 40
1000
0001
1000
0000
0001
0100
0001
0000
0100
0010
0100
0000
0001
0000
0000
0000
,  // measure 41
1000
0010
1000
0010
0100
0010
0100
0010
,  // measure 42
0100
0001
0100
0001
0010
0001
0010
0001
,  // measure 43
0010
0000
0001
1000
1010
0000
0101
0000
,  // measure 44
4004
0000
3003
0000
,  // measure 45
0102
0000
0010
0010
0003
0000
0100
0001
2001
0000
0000
3100
0000
0000
1000
0001
,  // measure 46
2001
0000
0000
3001
0100
0001
0100
0000
0000
0001
0000
2000
0100
0000
3200
0010
0000
0320
0001
0000
0032
0100
0000
0103
,  // measure 47
0020
0000
0000
0000
0030
0000
0100
0000
0101
0000
0000
0011
0000
0000
0010
0000
,  // measure 48
0110
0000
0000
0000
0000
0000
0000
0000
0000
1100
0000
0000
0000
0000
0000
0000
1000
0000
0100
0000
0000
0000
0010
0000
0001
0000
0000
0100
0000
0000
0010
0000
0000
1000
0000
0000
0001
0000
0000
0000
0000
0000
1000
0000
0000
0000
0000
0000
,  // measure 49
0001
0100
0001
0100
0001
0100
0001
0100
0001
0000
0000
0000
0000
0000
0000
0000
1000
0010
1000
0010
1000
0010
1000
0010
2000
0000
0000
0000
0000
0000
0000
0000
,  // measure 50
3001
0000
0000
0000
0000
0000
0001
0000
0000
0100
0000
0000
0010
0000
0000
0000
0000
0000
0010
0000
0000
0100
0000
0000
0001
0000
0000
0000
0002
0000
0010
0000
0000
0000
0023
0000
0100
0000
0000
0000
0230
0000
1000
0000
0000
0000
2300
0000
,  // measure 51
0001
0000
0000
0000
3000
0000
0000
0000
0000
0201
0000
0000
0000
0000
0000
0000
0000
0000
0000
0000
0000
0000
0000
0000
0010
0000
0000
0000
0010
0000
0000
0000
0010
0000
0000
0000
0010
0000
0000
0000
0310
0000
0100
0000
0000
0000
0000
0000
,  // measure 52
0001
0000
1000
0100
1000
0000
0010
0000
0001
0000
2000
0000
0002
0000
0000
3003
,  // measure 53
0000
0000
0000
0000
0000
0000
0000
0000
0000
0000
0000
0000
0000
0000
0000
0000
2000
0000
0000
0000
0000
0000
0000
0000
3002
2000
0000
0000
0000
0000
3003
0000
,  // measure 54
1000
0010
0001
0100
1001
1010
1001
0000
,  // measure 55
0102
0000
0203
0000
0310
0000
1000
0000
0100
0000
0010
0001
0000
0001
1000
0000
,  // measure 56
0010
0000
0000
0000
1000
0000
0100
0000
0000
0000
0000
0000
0010
0000
0000
0001
0000
0000
1000
0000
0000
0000
0000
0000
0010
0000
0000
0000
0100
0000
0001
0000
0000
0000
0001
0000
1000
0000
0000
0000
1000
0000
0100
0000
0000
0000
0000
0000
,  // measure 57
0110
0000
0000
0000
0010
0000
0100
0000
1000
0010
1000
0001
0010
0000
0100
0000
,  // measure 58
1200
0000
0000
0310
0000
0001
0100
0000
,  // measure 59
1020
0000
0000
0001
0000
0000
1030
0000
0200
0000
0000
0301
0000
0000
0000
0000
,  // measure 60
0100
0000
1000
0000
0010
0100
0000
0101
0000
0000
0001
0000
1000
0100
0000
0011
,  // measure 61
0000
0000
0100
0000
1000
0010
0000
0101
0000
0000
0001
0000
1000
0001
0000
0001
,  // measure 62
1000
0001
0100
0000
0010
0000
0100
0001
0000
0010
0000
0001
0000
1000
0000
0100
,  // measure 63
0010
0000
0001
0010
0000
0000
0100
0000
0000
1000
0001
1000
0001
0000
0000
1000
0000
0000
0100
0000
0000
0000
0000
0000
,  // measure 64
0010
0001
0000
0001
0100
0000
0100
0010
0000
1000
0000
0001
0000
2002
0000
0000
,  // measure 65
3003
0000
0000
0000
0000
0001
0100
0000
0100
0001
0000
0001
1000
0000
1000
0100
0000
0000
0020
0000
0000
0230
0000
0000
,  // measure 66
1300
0001
1000
0000
0100
0000
0010
0001
0000
0100
0000
1000
0000
0100
0001
0010
,  // measure 67
0001
0000
0000
0000
1000
0000
0100
0000
0000
0000
0000
0000
0010
0000
0000
0000
0000
0000
0001
0000
1000
0000
0001
0000
1000
0000
0000
0000
0000
0000
0001
0000
0000
0000
0000
0000
0010
0000
0000
0100
0000
0000
0010
0000
0000
0100
0000
0000
,  // measure 68
0010
0001
0000
1000
0010
0000
0010
0100
0000
0001
0000
1000
0000
2002
0000
0000
,  // measure 69
0000
0000
0000
3003
0000
1000
0010
0000
0010
1000
0000
1000
0001
0000
0001
0010
0000
0000
0200
0000
0000
0300
0000
0000
,  // measure 70
1001
0000
0000
0000
;
